osu file format v14

[General]
AudioFilename: audio.mp3
AudioLeadIn: 0
PreviewTime: 138443
Countdown: 0
SampleSet: None
StackLeniency: 0.7
Mode: 0
LetterboxInBreaks: 0
WidescreenStoryboard: 0

[Editor]
Bookmarks: 25567,49574,100568,163564,187564,193564
DistanceSpacing: 1.5
BeatDivisor: 4
GridSize: 4
TimelineZoom: 1.9

[Metadata]
Title:Yuudachi
TitleUnicode:夕立ち
Artist:soraru x mafumafu
ArtistUnicode:そらる×まふまふ
Creator:hanyuu_nanodesu
Version:Insane
Source:
Tags:After the rain soramafu そらまふ utaite evening rain
BeatmapID:2093903
BeatmapSetID:1000469

[Difficulty]
HPDrainRate:6
CircleSize:3.7
OverallDifficulty:7
ApproachRate:9
SliderMultiplier:1.7
SliderTickRate:1

[Events]
//Background and Video events
0,0,"yuudachi bg.jpg",0,0
//Break Periods
2,88767,99967
2,187767,192967
//Storyboard Layer 0 (Background)
//Storyboard Layer 1 (Fail)
//Storyboard Layer 2 (Pass)
//Storyboard Layer 3 (Foreground)
//Storyboard Sound Samples

[TimingPoints]
67.1481481481501,375,4,1,0,100,1,0
817,-166.666666666667,4,2,0,30,0,0
24817,-125,4,3,0,40,0,0
46567,-100,4,1,0,50,0,0
49567,-125,4,1,0,50,0,0
64567,-100,4,1,0,60,0,1
86317,-100,4,1,0,65,0,1
87067,-100,4,1,0,70,0,1
87817,-100,4,1,0,75,0,1
88567,-100,4,1,0,60,0,0
100567,-125,4,1,0,35,0,0
111629,-125,4,1,0,50,0,0
121567,-100,4,1,0,50,0,0
124567,-125,4,1,0,50,0,0
139567,-100,4,1,0,60,0,1
161317,-100,4,1,0,65,0,1
162067,-100,4,1,0,70,0,1
162817,-100,4,1,0,75,0,1
163567,-100,4,1,0,60,0,0
193379,-100,4,1,0,40,0,0
194317,-100,4,1,0,45,0,0
195067,-100,4,1,0,50,0,0
202567,-200,4,1,0,50,0,0
202942,-100,4,1,0,50,0,0
205567,-100,4,1,0,60,0,1
224317,-100,4,1,0,65,0,1
225067,-100,4,1,0,70,0,1
225817,-100,4,1,0,75,0,1
226567,-100,4,1,0,50,0,0

[Colours]
Combo1 : 216,216,216
Combo2 : 49,49,185
Combo3 : 119,109,239
Combo4 : 126,126,126

[HitObjects]
116,48,817,6,0,P|160:40|232:44,1,101.999996887207
340,132,1567,5,2,0:0:0:0:
96,304,2692,1,0,0:0:0:0:
44,160,3067,2,0,P|36:120|44:40,2,101.999996887207,2|0|0,0:0|0:0|0:0,0:0:0:0:
192,192,4192,1,0,0:0:0:0:
336,144,4567,38,0,P|368:156|436:212,1,101.999996887207,2|0,0:0|0:0,0:0:0:0:
468,260,5129,2,0,P|480:288|496:308,1,50.9999984436036
80,328,6817,6,0,P|88:276|80:216,1,101.999996887207
28,84,7567,37,2,0:0:0:0:
328,24,8317,2,0,P|380:36|432:72,1,101.999996887207
424,140,8879,6,0,P|420:196|424:244,1,101.999996887207
404,316,9442,1,0,0:0:0:0:
260,368,9817,1,0,0:0:0:0:
152,260,10192,1,0,0:0:0:0:
228,128,10567,38,0,P|276:108|340:104,1,101.999996887207,2|0,0:0|0:0,0:0:0:0:
396,132,11129,2,0,P|416:136|456:136,1,50.9999984436036
444,308,12817,6,0,P|392:292|340:292,1,101.999996887207
196,332,13567,37,2,0:0:0:0:
88,112,14692,1,0,0:0:0:0:
224,44,15067,6,0,P|280:32|348:32,2,101.999996887207,2|0|0,0:0|0:0|0:0,0:0:0:0:
296,180,16192,1,0,0:0:0:0:
364,316,16567,38,0,P|308:328|240:328,1,101.999996887207,2|0,0:0|0:0,0:0:0:0:
192,300,17129,2,0,L|160:256,1,50.9999984436036
312,40,19192,5,0,0:0:0:0:
420,148,19567,38,0,P|432:188|428:264,1,101.999996887207,2|0,0:0|0:0,0:0:0:0:
364,284,20129,2,0,P|304:288|248:316,1,101.999996887207
192,320,20692,1,0,0:0:0:0:
104,196,21067,6,0,P|92:152|96:76,2,101.999996887207,2|0|0,0:0|0:0|0:0,0:0:0:0:
240,124,22192,1,0,0:0:0:0:
392,148,22567,38,0,P|416:176|444:240,1,101.999996887207,2|0,0:0|0:0,0:0:0:0:
416,308,23129,2,0,P|408:344|408:368,1,50.9999984436036
192,340,24817,21,0,0:0:0:0:
52,192,25192,1,0,0:0:0:0:
100,104,25379,1,8,1:0:0:0:
100,104,25473,1,8,1:0:0:0:
100,104,25567,6,0,P|156:68|248:52,1,136,0|8,0:0|1:0,0:0:0:0:
416,120,26317,1,0,0:0:0:0:
384,216,26504,1,0,0:0:0:0:
284,192,26692,2,0,P|240:188|192:192,1,68,8|0,1:0|0:0,0:0:0:0:
328,308,27067,38,0,P|388:308|472:296,2,136,0|8|0,0:0|1:0|0:0,0:0:0:0:
232,272,28004,1,0,0:0:0:0:
176,184,28192,2,0,P|128:168|96:168,1,68,8|0,1:0|0:0,0:0:0:0:
232,272,28567,6,0,B|276:240|280:192|280:192|308:176|332:152,1,136,0|8,0:0|1:0,0:0:0:0:
412,180,29129,2,0,P|428:156|440:108,1,68
396,24,29504,1,0,0:0:0:0:
200,80,29879,1,8,1:0:0:0:
348,220,30254,1,0,0:0:0:0:
412,300,30442,38,0,P|428:328|440:372,1,68,8|0,1:0|0:0,0:0:0:0:
284,300,30817,2,0,P|256:232|264:156,1,136,0|8,0:0|1:0,0:0:0:0:
424,48,31567,6,0,P|356:44|288:20,1,136,0|8,0:0|1:0,0:0:0:0:
108,112,32317,1,0,0:0:0:0:
44,192,32504,1,0,0:0:0:0:
108,272,32692,1,8,1:0:0:0:
200,228,32879,38,0,P|260:212|360:228,1,136
420,84,33442,2,0,P|360:100|260:84,1,136,8|0,1:0|0:0,0:0:0:0:
184,104,34004,1,0,0:0:0:0:
84,80,34192,2,0,P|48:108|20:148,1,68,8|0,1:0|0:0,0:0:0:0:
48,280,34567,6,0,B|80:280|104:260|104:260|144:280|200:276,1,136,0|8,0:0|1:0,0:0:0:0:
272,244,35129,2,0,P|316:232|360:232,1,68
416,296,35504,1,0,0:0:0:0:
496,108,35879,1,8,1:0:0:0:
300,52,36254,1,0,0:0:0:0:
208,96,36442,38,0,P|160:108|112:108,1,68,8|0,1:0|0:0,0:0:0:0:
56,164,36817,2,0,P|44:232|56:304,1,136,0|8,0:0|1:0,0:0:0:0:
256,328,37567,6,0,B|288:256|232:256|268:172,1,136,0|8,0:0|1:0,0:0:0:0:
408,56,38317,1,0,0:0:0:0:
480,128,38504,1,0,0:0:0:0:
384,160,38692,1,8,1:0:0:0:
300,104,38879,38,0,P|248:88|144:96,1,136
100,168,39442,2,0,L|76:240,1,68,8|0,1:0|0:0,0:0:0:0:
180,312,39817,2,0,L|188:236,1,68
272,168,40192,2,0,L|296:240,1,68,8|0,1:0|0:0,0:0:0:0:
432,264,40567,6,0,P|456:224|480:112,2,136,0|8|0,0:0|1:0|0:0,0:0:0:0:
332,288,41504,1,0,0:0:0:0:
152,192,41879,1,8,1:0:0:0:
308,60,42254,1,0,0:0:0:0:
400,104,42442,38,0,P|432:112|476:112,1,68,8|0,1:0|0:0,0:0:0:0:
318,161,42817,1,0,0:0:0:0:
272,72,43004,1,0,0:0:0:0:
184,120,43192,2,0,P|148:128|96:132,1,68,8|0,1:0|0:0,0:0:0:0:
28,264,43567,6,0,B|76:265|111:296|111:296|137:289|178:285,1,136,0|8,0:0|1:0,0:0:0:0:
360,272,44317,1,0,0:0:0:0:
292,348,44504,1,0,0:0:0:0:
208,288,44692,1,8,1:0:0:0:
236,192,44879,38,0,P|256:128|256:40,1,136
348,8,45442,2,0,P|396:16|424:16,1,68,8|0,1:0|0:0,0:0:0:0:
472,116,45817,2,0,P|438:117|404:124,1,68
328,192,46192,2,0,P|276:216|208:220,1,102,8|0,0:0|0:0,0:0:0:0:
144,204,46567,6,0,B|108:176|100:136|100:136|132:88|124:24,2,170,4|8|0,0:0|0:0|0:0,0:0:0:0:
308,232,47504,1,0,0:0:0:0:
236,120,47692,1,0,0:0:0:0:
212,300,47879,6,0,P|248:332|384:328,1,170,4|0,0:0|0:0,0:0:0:0:
448,244,48442,1,0,0:0:0:0:
368,148,48629,1,0,0:0:0:0:
368,148,48723,1,0,0:0:0:0:
368,148,48817,2,0,P|328:196|312:232,1,85,0|0,0:0|2:0,0:0:0:0:
472,124,49192,1,8,0:0:0:0:
453,98,49285,1,8,0:0:0:0:
430,75,49379,1,8,0:0:0:0:
404,57,49473,1,8,0:0:0:0:
375,44,49567,6,0,P|340:36|232:48,1,136,0|8,0:0|0:0,0:0:0:0:
144,24,50129,2,0,L|112:168,1,136
180,236,50692,1,8,0:0:0:0:
68,328,50879,1,0,0:0:0:0:
104,344,51629,38,0,P|144:360|252:360,1,136,0|0,2:0|0:0,0:0:0:0:
270,356,52098,1,0,0:0:0:0:
270,356,52192,2,0,P|304:320|340:296,1,68,0|0,0:0|2:0,0:0:0:0:
480,272,52567,6,0,P|420:244|388:160,1,136,0|8,0:0|0:0,0:0:0:0:
320,112,53129,2,0,L|252:84,1,68,0|0,0:0|2:0,0:0:0:0:
416,88,53504,2,0,L|444:20,1,68,0|0,0:0|2:0,0:0:0:0:
224,4,53879,38,0,P|200:80|200:164,1,136
292,252,54442,1,8,0:0:0:0:
292,252,54535,1,8,0:0:0:0:
292,252,54629,1,8,0:0:0:0:
344,124,54817,1,0,0:0:0:0:
208,160,55004,1,0,0:0:0:0:
372,208,55192,1,0,0:0:0:0:
256,84,55379,1,0,0:0:0:0:
256,84,55473,1,0,0:0:0:0:
256,84,55567,6,0,P|188:76|104:80,1,136
22,192,56129,1,0,0:0:0:0:
173,195,56317,1,0,0:0:0:0:
86,90,56504,1,0,0:0:0:0:
71,259,56692,1,8,0:0:0:0:
206,192,56879,37,0,0:0:0:0:
74,131,57067,1,0,0:0:0:0:
218,48,57254,1,0,0:0:0:0:
169,207,57442,1,8,0:0:0:0:
127,44,57629,1,0,0:0:0:0:
271,135,57817,1,0,0:0:0:0:
127,195,58004,1,0,0:0:0:0:
240,48,58192,1,0,0:0:0:0:
368,200,58379,1,0,0:0:0:0:
368,200,58473,1,0,0:0:0:0:
368,200,58567,6,0,P|376:264|372:356,1,136,0|8,0:0|0:0,0:0:0:0:
276,368,59129,1,0,0:0:0:0:
180,332,59317,2,0,P|164:296|156:252,1,68
220,184,59692,2,0,P|152:216|64:200,1,136,8|0,0:0|0:0,0:0:0:0:
188,28,60254,37,0,0:0:0:0:
308,92,60442,1,8,0:0:0:0:
144,132,60629,1,0,0:0:0:0:
236,20,60817,1,0,0:0:0:0:
224,200,61004,1,0,0:0:0:0:
152,48,61192,1,8,0:0:0:0:
312,140,61379,1,0,0:0:0:0:
132,232,61567,6,0,P|116:192|112:156,1,68
112,133,61848,1,0,0:0:0:0:
118,99,61941,1,0,0:0:0:0:
120,65,62035,1,0,0:0:0:0:
117,31,62129,1,0,0:0:0:0:
424,40,62504,1,0,0:0:0:0:
252,296,62879,6,0,P|212:312|100:300,1,136
27,185,63442,1,0,0:0:0:0:
136,76,63629,1,0,0:0:0:0:
336,48,64567,6,0,B|376:92|384:136|384:136|360:180|360:220,1,170,4|8,0:0|0:0,0:0:0:0:
244,248,65129,1,0,0:0:0:0:
120,212,65317,2,0,P|104:168|104:124,1,85
204,52,65692,1,8,0:0:0:0:
244,248,65879,38,0,P|188:308|80:340,1,170
128,140,66442,1,8,0:0:0:0:
248,120,66629,1,0,0:0:0:0:
88,236,66817,2,0,P|44:200|24:152,1,85
60,52,67192,1,8,0:0:0:0:
248,120,67379,6,0,L|272:296,1,170
408,384,67942,1,8,0:0:0:0:
416,244,68129,1,0,0:0:0:0:
280,320,68317,1,0,0:0:0:0:
432,356,68504,1,0,0:0:0:0:
320,216,68692,1,8,0:0:0:0:
320,380,68879,1,0,0:0:0:0:
428,208,69067,38,0,P|436:152|432:104,1,85
300,80,69442,2,0,P|299:122|306:164,2,85,8|0|0,0:0|0:0|0:0,0:0:0:0:
166,7,70004,1,0,0:0:0:0:
65,122,70192,1,8,0:0:0:0:
165,236,70379,1,0,0:0:0:0:
165,236,70473,1,0,0:0:0:0:
165,236,70567,6,0,B|224:260|264:240|264:240|296:268|348:276,1,170,0|8,0:0|0:0,0:0:0:0:
444,232,71129,1,0,0:0:0:0:
420,106,71317,2,0,P|380:120|348:148,1,85
364,276,71692,1,8,0:0:0:0:
500,152,71879,38,0,P|476:92|388:4,1,170
284,124,72442,1,8,0:0:0:0:
420,106,72629,1,0,0:0:0:0:
232,32,72817,2,0,P|200:64|172:108,1,85
220,216,73192,1,8,0:0:0:0:
64,100,73379,6,0,B|76:162|76:162|105:189|105:189|121:268,1,170
208,346,73942,1,8,0:0:0:0:
239,356,74035,1,8,0:0:0:0:
270,360,74129,1,8,0:0:0:0:
302,360,74223,1,8,0:0:0:0:
333,354,74317,1,8,0:0:0:0:
277,239,74504,1,8,0:0:0:0:
277,239,74598,1,8,0:0:0:0:
277,239,74692,1,8,0:0:0:0:
500,248,74879,38,0,L|512:52,1,170
328,92,75442,1,8,0:0:0:0:
456,152,75629,1,0,0:0:0:0:
404,20,75817,1,0,0:0:0:0:
368,192,76004,21,0,0:0:0:0:
319,12,76192,1,0,0:0:0:0:
499,59,76379,1,0,0:0:0:0:
444,256,76567,6,0,B|400:292|332:280|332:280|304:300|264:300,1,170,4|8,0:0|0:0,0:0:0:0:
164,256,77129,1,0,0:0:0:0:
56,328,77317,2,0,P|40:284|36:220,1,85
100,136,77692,1,8,0:0:0:0:
280,188,77879,38,0,P|284:256|272:372,1,170
108,352,78442,1,8,0:0:0:0:
192,256,78629,1,0,0:0:0:0:
353,325,78817,2,0,P|313:345|237:361,1,85
116,312,79192,1,8,0:0:0:0:
184,144,79379,6,0,B|244:144|280:200|280:200|316:192|360:208,1,170
472,294,79942,1,8,0:0:0:0:
308,286,80129,1,0,0:0:0:0:
399,160,80317,1,0,0:0:0:0:
407,343,80504,1,0,0:0:0:0:
308,240,80692,1,8,0:0:0:0:
476,214,80879,1,0,0:0:0:0:
304,352,81067,38,0,P|256:356|208:348,2,85,0|0|8,0:0|0:0|0:0,0:0:0:0:
224,232,81629,2,0,P|176:228|128:236,1,85
304,352,82004,1,0,0:0:0:0:
404,236,82192,1,8,0:0:0:0:
349,94,82379,1,0,0:0:0:0:
349,94,82473,1,0,0:0:0:0:
349,94,82567,6,0,P|299:69|183:61,1,170,0|8,0:0|0:0,0:0:0:0:
92,148,83129,1,0,0:0:0:0:
184,236,83317,2,0,P|209:201|218:137,1,85
84,264,83692,2,0,P|101:303|152:342,1,85,8|0,0:0|2:0,0:0:0:0:
356,336,84067,38,0,B|384:281|380:222|380:222|409:205|427:173,1,170,0|8,0:0|0:0,0:0:0:0:
448,36,84629,1,8,0:0:0:0:
448,36,84723,1,8,0:0:0:0:
448,36,84817,1,8,0:0:0:0:
332,112,85004,1,0,0:0:0:0:
492,132,85192,1,8,0:0:0:0:
360,32,85379,1,0,0:0:0:0:
369,208,85567,5,4,0:0:0:0:
200,134,85754,1,0,0:0:0:0:
352,52,85942,1,0,0:0:0:0:
282,233,86129,1,0,0:0:0:0:
221,101,86317,1,0,0:0:0:0:
385,171,86504,1,0,0:0:0:0:
208,196,86692,1,0,0:0:0:0:
311,56,86879,1,0,0:0:0:0:
299,249,87067,37,8,0:0:0:0:
447,175,87254,1,8,0:0:0:0:
282,122,87442,1,8,0:0:0:0:
348,286,87629,1,8,0:0:0:0:
377,101,87817,1,8,0:0:0:0:
377,101,87910,1,8,0:0:0:0:
377,101,88004,1,8,0:0:0:0:
217,225,88192,1,8,0:0:0:0:
393,307,88379,1,8,0:0:0:0:
393,307,88473,1,8,0:0:0:0:
393,307,88567,5,4,0:0:0:0:
104,232,100567,6,0,P|96:180|108:72,2,136,4|0|0,0:0|0:0|0:0,0:0:0:0:
256,368,101692,1,0,0:0:0:0:
428,256,102067,6,0,P|436:204|424:96,1,136
240,44,102817,2,0,P|184:52|96:36,1,136
56,236,103567,38,0,B|100:216|132:220|132:220|156:244|208:252,1,136
280,216,104129,1,0,0:0:0:0:
372,260,104317,2,0,P|444:212|468:168,1,136
332,20,105067,6,0,P|260:68|236:112,1,136
268,312,105817,1,0,0:0:0:0:
380,140,106192,1,0,0:0:0:0:
188,72,106567,38,0,L|160:216,1,136
348,288,107317,2,0,L|322:154,1,136
228,116,107879,1,0,0:0:0:0:
136,160,108067,6,0,P|80:164|8:128,1,136
120,304,108817,2,0,P|176:300|248:336,1,136
448,300,109567,38,0,B|476:232|424:232|452:144,1,136
404,72,110129,1,0,0:0:0:0:
300,68,110317,2,0,P|228:72|156:44,1,136
72,232,111067,6,0,P|144:228|216:256,1,136
284,184,111629,2,0,P|324:192|368:188,1,68,8|0,0:0|2:0,0:0:0:0:
412,292,112004,2,0,P|372:284|328:288,1,68,8|0,0:0|2:0,0:0:0:0:
176,320,112379,1,0,0:0:0:0:
176,320,112473,1,0,0:0:0:0:
176,320,112567,38,0,P|136:272|112:180,1,136,4|8,0:0|0:0,0:0:0:0:
276,80,113317,1,0,0:0:0:0:
376,64,113504,1,0,0:0:0:0:
344,160,113692,1,8,0:0:0:0:
192,172,113879,6,0,P|172:128|176:28,1,136
268,8,114442,2,0,P|312:12|360:4,1,68,8|0,0:0|2:0,0:0:0:0:
396,92,114817,2,0,P|429:89|463:93,1,68
504,188,115192,2,0,L|516:260,1,68,8|0,0:0|2:0,0:0:0:0:
340,336,115567,38,0,B|320:288|328:248|328:248|352:228|364:180,2,136,0|8|0,0:0|0:0|0:0,0:0:0:0:
432,288,116504,1,0,0:0:0:0:
404,123,116692,1,8,0:0:0:0:
252,192,116879,6,0,P|184:204|112:192,1,136
260,84,117442,2,0,P|300:96|340:120,1,68,8|0,0:0|2:0,0:0:0:0:
328,260,117817,1,0,0:0:0:0:
252,192,118004,1,0,0:0:0:0:
416,104,118192,2,0,L|412:176,1,68,8|0,0:0|2:0,0:0:0:0:
252,192,118567,38,0,P|242:124|251:57,1,136,0|8,0:0|0:0,0:0:0:0:
424,164,119317,1,0,0:0:0:0:
440,264,119504,1,0,0:0:0:0:
344,224,119692,1,8,0:0:0:0:
508,224,119879,6,0,P|488:300|444:364,1,136
356,336,120442,2,0,P|316:328|272:332,1,68,8|0,0:0|2:0,0:0:0:0:
220,220,120817,2,0,P|253:220|287:212,1,68,0|0,0:0|2:0,0:0:0:0:
344,80,121192,1,8,0:0:0:0:
344,80,121285,1,8,0:0:0:0:
344,80,121379,1,8,0:0:0:0:
152,104,121567,38,0,B|104:136|88:188|88:188|108:220|104:280,2,170,4|8|0,0:0|0:0|0:0,0:0:0:0:
336,132,122504,1,0,0:0:0:0:
232,228,122692,1,0,0:0:0:0:
292,52,122879,22,0,P|368:84|428:156,1,170
368,264,123442,1,8,0:0:0:0:
248,304,123629,1,0,0:0:0:0:
248,304,123723,1,0,0:0:0:0:
248,304,123817,2,0,P|240:252|248:208,1,85,0|0,0:0|2:0,0:0:0:0:
100,92,124192,1,8,0:0:0:0:
106,123,124285,1,8,0:0:0:0:
107,154,124379,1,8,0:0:0:0:
103,186,124473,1,8,0:0:0:0:
94,217,124567,6,0,P|80:272|88:364,1,136,0|8,0:0|0:0,0:0:0:0:
184,376,125129,2,0,L|344:368,1,136
420,384,125692,1,8,0:0:0:0:
488,252,125879,1,0,0:0:0:0:
488,224,126254,1,0,0:0:0:0:
456,128,126442,1,8,0:0:0:0:
356,104,126629,38,0,P|296:112|212:88,1,136,0|0,2:0|0:0,0:0:0:0:
192,80,127098,1,0,0:0:0:0:
192,80,127192,2,0,P|144:60|116:56,1,68,0|0,0:0|2:0,0:0:0:0:
48,208,127567,6,0,B|100:199|136:168|136:168|161:183|191:188,1,136
272,180,128129,2,0,L|360:168,1,68,0|0,0:0|2:0,0:0:0:0:
224,268,128504,2,0,L|236:355,1,68,0|0,0:0|2:0,0:0:0:0:
440,368,128879,38,0,P|464:312|464:220,1,136
396,92,129442,1,8,0:0:0:0:
396,92,129535,1,8,0:0:0:0:
396,92,129629,1,8,0:0:0:0:
336,224,129817,1,0,0:0:0:0:
480,152,130004,1,0,0:0:0:0:
304,52,130192,1,8,0:0:0:0:
279,46,130285,1,8,0:0:0:0:
253,43,130379,1,8,0:0:0:0:
228,42,130473,1,8,0:0:0:0:
202,43,130567,22,0,B|156:44|120:60|120:60|116:92|88:128,1,136,0|8,0:0|0:0,0:0:0:0:
164,276,131129,1,0,0:0:0:0:
216,148,131317,1,0,0:0:0:0:
60,184,131504,1,0,0:0:0:0:
200,264,131692,1,8,0:0:0:0:
144,112,131879,1,0,0:0:0:0:
104,296,132067,5,0,0:0:0:0:
16,180,132254,1,0,0:0:0:0:
172,180,132442,1,8,0:0:0:0:
56,296,132629,1,0,0:0:0:0:
84,124,132817,1,0,0:0:0:0:
196,220,133004,1,0,0:0:0:0:
20,212,133192,1,8,0:0:0:0:
152,64,133379,1,0,0:0:0:0:
152,64,133473,1,0,0:0:0:0:
152,64,133567,38,0,P|212:40|304:32,1,136,0|8,0:0|0:0,0:0:0:0:
364,92,134129,1,0,0:0:0:0:
380,192,134317,2,0,P|340:188|288:164,1,68
236,116,134692,2,0,P|256:160|252:276,1,136,8|0,0:0|0:0,0:0:0:0:
168,360,135254,5,0,0:0:0:0:
64,244,135442,1,8,0:0:0:0:
212,188,135629,1,0,0:0:0:0:
124,352,135817,1,0,0:0:0:0:
128,184,136004,1,0,0:0:0:0:
240,288,136192,1,8,0:0:0:0:
52,300,136379,1,0,0:0:0:0:
160,156,136567,38,0,P|200:132|240:120,1,68,0|8,0:0|0:0,0:0:0:0:
252,112,136848,1,8,0:0:0:0:
285,105,136941,1,8,0:0:0:0:
319,102,137035,1,8,0:0:0:0:
353,103,137129,1,8,0:0:0:0:
489,349,137504,1,0,0:0:0:0:
194,280,137879,22,0,B|176:228|176:192|176:192|200:164|208:128,1,136
341,68,138442,1,0,0:0:0:0:
277,221,138629,1,0,0:0:0:0:
240,60,138817,2,0,L|220:20,4,34
373,198,139379,1,0,0:0:0:0:
100,296,139567,6,0,P|68:256|48:136,1,170,4|8,0:0|0:0,0:0:0:0:
133,47,140129,1,0,0:0:0:0:
257,74,140317,2,0,P|244:112|192:160,1,85,8|0,0:0|0:0,0:0:0:0:
47,141,140692,1,0,0:0:0:0:
186,8,140879,38,0,P|255:14|350:49,1,170
367,232,141442,1,8,0:0:0:0:
272,147,141629,1,0,0:0:0:0:
453,63,141817,2,0,L|468:176,1,85,8|0,0:0|0:0,0:0:0:0:
367,232,142192,1,0,0:0:0:0:
171,90,142379,6,0,P|225:63|360:50,1,170
192,200,142942,2,0,P|137:194|101:174,1,85,8|0,0:0|0:0,0:0:0:0:
3,285,143317,2,0,P|58:291|94:311,1,85
263,329,143692,1,8,0:0:0:0:
192,200,143879,1,0,0:0:0:0:
149,365,144067,37,0,0:0:0:0:
286,247,144254,1,0,0:0:0:0:
115,237,144442,1,8,0:0:0:0:
283,352,144629,1,0,0:0:0:0:
238,162,144817,1,0,0:0:0:0:
111,276,145004,1,0,0:0:0:0:
286,247,145192,1,8,0:0:0:0:
125,109,145379,1,0,0:0:0:0:
125,109,145473,1,0,0:0:0:0:
125,109,145567,6,0,B|93:145|100:187|100:187|52:198|17:258,1,170,0|8,0:0|0:0,0:0:0:0:
22,362,146129,1,0,0:0:0:0:
149,356,146317,2,0,P|138:315|116:278,1,85,8|0,0:0|0:0,0:0:0:0:
159,158,146692,1,0,0:0:0:0:
291,36,146879,38,0,P|278:106|310:205,1,170
457,272,147442,1,8,0:0:0:0:
420,150,147629,1,0,0:0:0:0:
249,283,147817,2,0,P|294:295|353:296,1,85
308,171,148192,1,8,0:0:0:0:
423,363,148379,6,0,B|437:301|437:301|420:245|434:181,1,170
372,81,148942,1,8,0:0:0:0:
341,70,149035,1,8,0:0:0:0:
310,63,149129,1,8,0:0:0:0:
279,60,149223,1,8,0:0:0:0:
247,60,149317,1,8,0:0:0:0:
122,213,149504,1,8,0:0:0:0:
122,213,149598,1,8,0:0:0:0:
122,213,149692,1,8,0:0:0:0:
270,330,149879,38,0,P|294:268|297:144,1,170
171,36,150442,1,8,0:0:0:0:
208,195,150629,1,0,0:0:0:0:
303,62,150817,1,0,0:0:0:0:
126,132,151004,21,0,0:0:0:0:
282,28,151192,1,0,0:0:0:0:
292,215,151379,1,0,0:0:0:0:
56,231,151567,6,0,P|38:183|36:41,1,170,4|8,0:0|0:0,0:0:0:0:
144,7,152129,1,0,0:0:0:0:
256,67,152317,2,0,P|295:77|348:76,1,85
452,16,152692,1,8,0:0:0:0:
462,199,152879,38,0,B|416:176|367:174|367:174|338:195|278:209,1,170
250,350,153442,1,8,0:0:0:0:
367,302,153629,1,0,0:0:0:0:
204,236,153817,2,0,P|142:236|94:247,1,85
50,347,154192,1,8,0:0:0:0:
282,331,154379,6,0,P|293:268|287:150,1,170
169,70,154942,1,8,0:0:0:0:
135,192,155129,1,0,0:0:0:0:
289,162,155317,2,0,P|333:148|388:114,1,85
494,215,155692,2,0,P|450:229|395:263,1,85,8|0,0:0|0:0,0:0:0:0:
330,368,156067,37,0,0:0:0:0:
490,348,156254,1,0,0:0:0:0:
361,207,156442,1,8,0:0:0:0:
380,375,156629,1,0,0:0:0:0:
476,215,156817,1,0,0:0:0:0:
329,233,157004,1,0,0:0:0:0:
467,372,157192,1,8,0:0:0:0:
444,185,157379,1,0,0:0:0:0:
444,185,157473,1,0,0:0:0:0:
444,185,157567,6,0,B|409:130|381:115|381:115|336:124|272:102,1,170,0|8,0:0|0:0,0:0:0:0:
201,38,158129,1,0,0:0:0:0:
190,203,158317,2,0,P|232:203|285:217,1,85
191,330,158692,2,0,P|149:330|96:316,1,85,8|0,0:0|2:0,0:0:0:0:
273,212,159067,38,0,P|314:269|330:369,1,170,0|8,0:0|0:0,0:0:0:0:
160,359,159629,1,8,0:0:0:0:
160,359,159723,1,8,0:0:0:0:
160,359,159817,1,8,0:0:0:0:
164,195,160004,1,0,0:0:0:0:
285,308,160192,1,8,0:0:0:0:
96,274,160379,1,0,0:0:0:0:
277,163,160567,5,4,0:0:0:0:
207,357,160754,1,0,0:0:0:0:
178,174,160942,1,0,0:0:0:0:
336,235,161129,1,0,0:0:0:0:
175,339,161317,1,0,0:0:0:0:
257,173,161504,1,0,0:0:0:0:
303,359,161692,1,0,0:0:0:0:
171,215,161879,1,0,0:0:0:0:
349,120,162067,37,8,0:0:0:0:
269,312,162254,1,8,0:0:0:0:
423,230,162442,1,8,0:0:0:0:
246,192,162629,1,8,0:0:0:0:
398,317,162817,1,8,0:0:0:0:
398,317,162910,1,8,0:0:0:0:
398,317,163004,1,8,0:0:0:0:
343,101,163192,1,8,0:0:0:0:
314,87,163285,1,8,0:0:0:0:
283,77,163379,1,8,0:0:0:0:
252,72,163473,1,8,0:0:0:0:
220,72,163567,22,0,B|167:77|124:49|124:49|73:57|34:74,1,170,4|8,0:0|0:0,0:0:0:0:
24,188,164129,2,0,L|59:356,1,170
184,375,164692,1,8,0:0:0:0:
288,303,164879,6,0,P|214:252|127:264,1,170
61,156,165442,2,0,P|115:132|149:103,2,85
33,317,166004,1,0,0:0:0:0:
179,259,166192,1,8,0:0:0:0:
61,156,166379,1,0,0:0:0:0:
135,352,166567,38,0,P|196:364|313:361,1,170,0|8,0:0|0:0,0:0:0:0:
345,208,167129,2,0,B|288:216|244:262|244:262|220:239|178:228,1,170
140,120,167692,1,8,0:0:0:0:
348,68,167879,6,0,B|375:121|375:121|423:146|423:146|454:206,1,170
416,320,168442,1,8,0:0:0:0:
292,292,168629,2,0,P|280:240|284:180,1,85,0|0,0:0|2:0,0:0:0:0:
416,64,169004,1,0,0:0:0:0:
388,228,169192,1,8,0:0:0:0:
272,108,169379,1,0,0:0:0:0:
476,168,169567,38,0,P|480:228|472:352,1,170,0|8,0:0|0:0,0:0:0:0:
328,251,170129,2,0,P|377:217|489:162,1,170
474,337,170692,1,8,0:0:0:0:
256,336,170879,6,0,B|224:292|216:256|216:256|240:212|236:148,1,170
164,76,171442,2,0,P|124:64|64:60,2,85,8|0|0,0:0|0:0|0:0,0:0:0:0:
284,184,172004,1,0,0:0:0:0:
100,200,172192,1,8,0:0:0:0:
208,88,172379,1,0,0:0:0:0:
216,288,172567,38,0,B|228:304|232:328|232:328|284:280|284:196,1,170,0|8,0:0|0:0,0:0:0:0:
388,120,173129,2,0,P|404:188|460:272,1,170
496,72,173692,1,8,0:0:0:0:
292,36,173879,6,0,L|252:208,1,170
140,260,174442,1,8,0:0:0:0:
268,344,174629,2,0,P|308:316|372:296,1,85,0|0,0:0|2:0,0:0:0:0:
440,192,175004,1,0,0:0:0:0:
292,164,175192,1,8,0:0:0:0:
292,164,175285,1,8,0:0:0:0:
292,164,175379,1,8,0:0:0:0:
384,292,175567,5,0,0:0:0:0:
376,128,175754,1,0,0:0:0:0:
260,252,175942,1,8,0:0:0:0:
472,208,176129,2,0,P|480:116|468:32,1,170
344,20,176692,1,8,0:0:0:0:
216,172,176879,6,0,B|264:152|296:112|296:112|328:124|372:120,1,170
432,228,177442,2,0,P|380:236|332:260,2,85,8|0|0,0:0|0:0|0:0,0:0:0:0:
416,364,178004,1,0,0:0:0:0:
256,304,178192,1,8,0:0:0:0:
372,152,178379,1,0,0:0:0:0:
336,344,178567,38,0,P|264:360|148:332,1,170,0|8,0:0|0:0,0:0:0:0:
44,364,179129,2,0,P|104:336|160:224,1,170
108,132,179692,1,8,0:0:0:0:
304,112,179879,6,0,B|352:151|360:190|360:190|338:227|345:283,1,170
424,360,180442,1,8,0:0:0:0:
272,355,180629,2,0,P|249:320|236:280,1,85,0|0,0:0|2:0,0:0:0:0:
264,104,181004,1,0,0:0:0:0:
424,176,181192,2,0,P|410:216|387:251,1,85,8|0,0:0|2:0,0:0:0:0:
152,200,181567,38,0,P|188:180|316:176,1,170,0|8,0:0|0:0,0:0:0:0:
376,332,182129,2,0,P|328:308|292:272,1,85,0|0,0:0|2:0,0:0:0:0:
416,152,182504,1,0,0:0:0:0:
496,272,182692,1,8,0:0:0:0:
272,380,182879,6,0,L|228:192,1,170
260,72,183442,1,8,0:0:0:0:
104,140,183629,2,0,P|84:224|88:320,1,170
268,380,184192,1,8,0:0:0:0:
184,208,184379,1,0,0:0:0:0:
184,208,184473,1,0,0:0:0:0:
184,208,184567,37,0,0:0:0:0:
304,56,184754,1,0,0:0:0:0:
420,208,184942,2,0,L|448:256,2,42.5,8|8|8,0:0|0:0|0:0,0:0:0:0:
312,276,185317,2,0,L|284:324,2,42.5,8|8|8,0:0|0:0|0:0,0:0:0:0:
184,128,185692,5,0,0:0:0:0:
380,48,185879,1,0,0:0:0:0:
320,176,186067,1,0,0:0:0:0:
212,16,186254,1,0,0:0:0:0:
440,316,186629,37,8,0:0:0:0:
440,316,186723,1,8,0:0:0:0:
440,316,186817,1,8,0:0:0:0:
263,291,187004,1,0,0:0:0:0:
421,207,187192,1,8,0:0:0:0:
343,368,187379,1,0,0:0:0:0:
311,191,187567,21,4,0:0:0:0:
144,152,193567,21,0,0:0:0:0:
312,152,193754,1,0,0:0:0:0:
212,228,193942,1,0,0:0:0:0:
232,72,194129,1,0,0:0:0:0:
320,200,194317,1,0,0:0:0:0:
156,120,194504,1,0,0:0:0:0:
244,256,194692,1,0,0:0:0:0:
284,64,194879,1,0,0:0:0:0:
152,240,195067,5,0,0:0:0:0:
192,44,195254,1,0,0:0:0:0:
336,228,195442,1,0,0:0:0:0:
124,128,195629,1,0,0:0:0:0:
320,96,195817,1,0,0:0:0:0:
216,292,196004,37,0,0:0:0:0:
139,94,196192,1,0,0:0:0:0:
346,128,196379,1,0,0:0:0:0:
346,128,196473,1,0,0:0:0:0:
346,128,196567,6,0,B|396:164|448:172|448:172|464:216|488:240,2,170,4|8|0,0:0|0:0|0:0,0:0:0:0:
240,196,197504,1,0,0:0:0:0:
256,324,197692,2,0,B|312:312|340:272|340:272|376:300|436:288,1,170,8|0,0:0|0:0,0:0:0:0:
508,112,198254,37,0,0:0:0:0:
404,188,198442,1,8,0:0:0:0:
504,288,198629,1,0,0:0:0:0:
408,144,198817,1,0,0:0:0:0:
324,272,199004,1,0,0:0:0:0:
488,208,199192,1,8,0:0:0:0:
304,152,199379,1,0,0:0:0:0:
404,336,199567,5,0,0:0:0:0:
392,112,199754,1,8,0:0:0:0:
367,91,199847,1,8,0:0:0:0:
339,75,199941,1,8,0:0:0:0:
309,65,200035,1,8,0:0:0:0:
278,60,200129,1,8,0:0:0:0:
8,232,200504,1,0,0:0:0:0:
376,312,200879,38,0,P|424:252|456:160,1,170
344,8,201442,1,0,0:0:0:0:
332,200,201629,1,0,0:0:0:0:
504,88,201817,1,0,0:0:0:0:
475,79,201910,1,0,0:0:0:0:
445,75,202004,1,0,0:0:0:0:
416,79,202098,1,0,0:0:0:0:
388,89,202192,1,0,0:0:0:0:
359,98,202285,1,0,0:0:0:0:
329,100,202379,1,0,0:0:0:0:
300,93,202473,1,0,0:0:0:0:
273,80,202567,6,0,P|236:64|180:60,1,85,0|4,0:0|0:0,0:0:0:0:
96,296,203879,37,0,0:0:0:0:
96,296,203973,1,0,0:0:0:0:
96,296,204067,2,0,B|132:324|132:324|184:320|184:320|224:276,2,127.5
393,58,205567,6,0,B|428:96|446:140|446:140|420:179|420:230,1,170,4|8,0:0|0:0,0:0:0:0:
298,300,206129,1,0,0:0:0:0:
308,172,206317,1,0,0:0:0:0:
426,323,206504,1,0,0:0:0:0:
267,328,206692,1,8,0:0:0:0:
421,206,206879,1,0,0:0:0:0:
279,142,207067,38,0,P|223:132|164:131,1,85
114,250,207442,2,0,P|170:260|229:261,2,85,8|0|0,0:0|0:0|0:0,0:0:0:0:
114,122,208004,1,0,0:0:0:0:
198,261,208192,1,8,0:0:0:0:
29,196,208379,1,0,0:0:0:0:
29,196,208473,1,0,0:0:0:0:
29,196,208567,6,0,P|20:139|36:17,1,170,0|8,0:0|0:0,0:0:0:0:
139,97,209129,1,0,0:0:0:0:
157,223,209317,2,0,P|134:263|100:305,1,85
29,196,209692,1,8,0:0:0:0:
175,85,209879,38,0,L|353:79,1,170
419,183,210442,1,8,0:0:0:0:
268,121,210629,1,0,0:0:0:0:
418,1,210817,2,0,P|440:39|452:92,1,85
342,230,211192,1,8,0:0:0:0:
215,360,211379,6,0,B|213:306|253:272|253:272|240:229|253:181,1,170
148,120,211942,1,8,0:0:0:0:
117,109,212035,1,8,0:0:0:0:
90,93,212129,1,8,0:0:0:0:
68,70,212223,1,8,0:0:0:0:
51,43,212317,1,8,0:0:0:0:
20,192,212504,1,8,0:0:0:0:
20,192,212598,1,8,0:0:0:0:
20,192,212692,1,8,0:0:0:0:
168,20,212879,38,0,P|224:8|372:20,1,170
456,168,213442,1,8,0:0:0:0:
284,120,213629,1,0,0:0:0:0:
440,40,213817,1,0,0:0:0:0:
316,212,214004,21,0,0:0:0:0:
486,135,214192,1,0,0:0:0:0:
335,26,214379,1,0,0:0:0:0:
156,160,214567,6,0,B|116:208|112:256|112:256|140:280|152:324,1,170,4|8,0:0|0:0,0:0:0:0:
272,332,215129,1,0,0:0:0:0:
352,232,215317,2,0,P|313:210|256:204,1,85
376,344,215692,1,8,0:0:0:0:
423,167,215879,38,0,P|357:130|246:110,1,170
176,200,216442,1,8,0:0:0:0:
344,76,216629,1,0,0:0:0:0:
180,64,216817,1,0,0:0:0:0:
316,192,217004,2,0,P|344:232|364:272,2,85,0|8|0,0:0|0:0|0:0,0:0:0:0:
132,140,217567,5,0,0:0:0:0:
308,60,217754,1,0,0:0:0:0:
236,260,217942,1,8,0:0:0:0:
216,92,218129,2,0,P|211:51|213:4,2,85
344,256,218692,37,8,0:0:0:0:
328,88,218879,1,0,0:0:0:0:
184,216,219067,2,0,P|152:256|128:308,2,85,0|0|8,0:0|0:0|0:0,0:0:0:0:
348,164,219629,5,0,0:0:0:0:
236,300,219817,1,0,0:0:0:0:
200,132,220004,1,0,0:0:0:0:
444,84,220192,1,8,0:0:0:0:
451,114,220285,1,8,0:0:0:0:
456,146,220379,1,8,0:0:0:0:
458,178,220473,1,8,0:0:0:0:
456,210,220567,38,0,B|452:256|424:296|424:296|384:288|312:308,1,170,0|8,0:0|0:0,0:0:0:0:
252,216,221129,1,0,0:0:0:0:
136,272,221317,2,0,P|120:220|120:168,1,85
289,95,221692,2,0,P|284:137|271:177,1,85,8|0,0:0|0:0,0:0:0:0:
252,216,221973,1,0,0:0:0:0:
252,216,222067,6,0,B|236:288|264:344|264:344|296:336|332:336,1,170,0|8,0:0|0:0,0:0:0:0:
460,236,222629,1,8,0:0:0:0:
460,236,222723,1,8,0:0:0:0:
460,236,222817,1,8,0:0:0:0:
332,248,223004,1,0,0:0:0:0:
428,344,223192,1,8,0:0:0:0:
392,160,223379,1,0,0:0:0:0:
324,344,223567,37,4,0:0:0:0:
232,184,223754,1,0,0:0:0:0:
376,252,223942,1,0,0:0:0:0:
212,328,224129,1,0,0:0:0:0:
308,136,224317,1,0,0:0:0:0:
304,328,224504,1,0,0:0:0:0:
188,152,224692,1,0,0:0:0:0:
372,204,224879,1,0,0:0:0:0:
216,296,225067,5,8,0:0:0:0:
200,112,225254,1,8,0:0:0:0:
80,280,225442,1,8,0:0:0:0:
240,200,225629,1,8,0:0:0:0:
72,128,225817,1,8,0:0:0:0:
72,128,225910,1,8,0:0:0:0:
72,128,226004,1,8,0:0:0:0:
184,304,226192,1,8,0:0:0:0:
200,112,226379,1,8,0:0:0:0:
200,112,226473,1,8,0:0:0:0:
200,112,226567,6,0,P|208:64|208:24,2,85,0|0|8,0:0|0:0|0:0,0:0:0:0:
336,212,227129,1,0,0:0:0:0:
336,212,227223,1,0,0:0:0:0:
336,212,227317,2,0,P|336:254|344:296,2,85,0|0|8,0:0|0:0|0:0,0:0:0:0:
468,152,227879,6,0,B|464:204|436:240|436:240|468:272|484:312,1,170
496,340,228348,1,0,0:0:0:0:
496,340,228442,1,8,0:0:0:0:
336,304,228629,1,0,0:0:0:0:
488,240,228817,1,0,0:0:0:0:
396,372,229004,1,0,0:0:0:0:
344,200,229192,2,0,P|340:148|344:108,1,85,8|0,0:0|2:0,0:0:0:0:
176,52,229567,5,0,0:0:0:0:
228,168,229754,1,0,0:0:0:0:
396,24,229942,2,0,P|340:16|300:20,1,85,8|0,0:0|0:0,0:0:0:0:
270,27,230223,1,0,0:0:0:0:
270,27,230317,1,0,0:0:0:0:
296,216,230504,1,0,0:0:0:0:
352,100,230692,1,8,0:0:0:0:
160,24,230879,6,0,L|136:220,1,170
252,340,231442,1,8,0:0:0:0:
252,340,231629,1,0,0:0:0:0:
232,192,231817,1,0,0:0:0:0:
232,192,232004,1,0,0:0:0:0:
52,196,232192,2,0,P|52:244|64:296,1,85,8|0,0:0|2:0,0:0:0:0:
240,152,232567,6,0,P|247:110|246:67,2,85,0|0|8,0:0|2:0|0:0,0:0:0:0:
384,236,233129,1,0,0:0:0:0:
384,236,233223,1,0,0:0:0:0:
384,236,233316,2,0,P|376:194|377:151,2,85,0|0|8,0:0|2:0|0:0,0:0:0:0:
212,340,233879,6,0,B|220:288|208:244|208:244|172:228|152:168,1,170
152,148,234348,1,0,0:0:0:0:
152,148,234442,1,8,0:0:0:0:
248,32,234629,1,0,0:0:0:0:
252,156,234817,1,8,0:0:0:0:
140,40,235004,1,0,0:0:0:0:
352,44,235192,1,8,0:0:0:0:
382,51,235285,1,8,0:0:0:0:
412,62,235379,1,8,0:0:0:0:
441,77,235473,1,8,0:0:0:0:
467,94,235567,5,0,0:0:0:0:
364,292,235754,1,0,0:0:0:0:
328,304,236129,1,0,0:0:0:0:
328,304,236223,1,0,0:0:0:0:
328,304,236317,2,0,P|280:312|216:300,1,85,0|0,0:0|2:0,0:0:0:0:
180,96,236692,5,0,0:0:0:0:
276,212,236879,1,0,0:0:0:0:
116,200,237067,1,0,0:0:0:0:
352,104,237254,5,0,0:0:0:0:
