osu file format v14

[General]
AudioFilename: audio.mp3
AudioLeadIn: 0
PreviewTime: 138443
Countdown: 0
SampleSet: None
StackLeniency: 0.7
Mode: 0
LetterboxInBreaks: 0
WidescreenStoryboard: 1

[Editor]
Bookmarks: 25567,49574,100568,124567,163564,187564,193564
DistanceSpacing: 1
BeatDivisor: 4
GridSize: 4
TimelineZoom: 1.8

[Metadata]
Title:Yuudachi
TitleUnicode:夕立ち
Artist:soraru x mafumafu
ArtistUnicode:そらる×まふまふ
Creator:hanyuu_nanodesu
Version:Easy
Source:
Tags:After the rain soramafu そらまふ utaite evening rain
BeatmapID:2093901
BeatmapSetID:1000469

[Difficulty]
HPDrainRate:2.5
CircleSize:2.7
OverallDifficulty:2
ApproachRate:3
SliderMultiplier:1
SliderTickRate:1

[Events]
//Background and Video events
0,0,"yuudachi bg.jpg",0,0
//Break Periods
2,88767,99127
2,187767,192127
//Storyboard Layer 0 (Background)
//Storyboard Layer 1 (Fail)
//Storyboard Layer 2 (Pass)
//Storyboard Layer 3 (Foreground)
//Storyboard Sound Samples

[TimingPoints]
67.1481481481501,375,4,1,0,100,1,0
817,-100,4,2,0,30,0,0
24817,-100,4,3,0,30,0,0
46567,-100,4,1,0,50,0,0
64567,-100,4,1,0,60,0,1
88567,-100,4,1,0,60,0,0
100567,-100,4,1,0,35,0,0
111629,-100,4,1,0,50,0,0
139567,-100,4,1,0,60,0,1
163567,-100,4,1,0,60,0,0
193379,-100,4,1,0,40,0,0
194317,-100,4,1,0,45,0,0
195067,-100,4,1,0,50,0,0
205567,-100,4,1,0,60,0,1
226567,-100,4,1,0,50,0,0

[Colours]
Combo1 : 216,216,216
Combo2 : 49,49,185
Combo3 : 119,109,239
Combo4 : 126,126,126

[HitObjects]
57,65,817,6,0,P|109:56|173:71,1,100
243,110,1567,5,2,0:0:0:0:
452,325,2692,1,0,0:0:0:0:
354,346,3067,38,0,P|309:358|248:343,2,100,2|0|0,0:0|0:0|0:0,0:0:0:0:
304,258,4192,1,0,0:0:0:0:
348,168,4567,6,0,B|311:155|272:156|241:184|241:184|209:155|149:149,1,200,2|0,0:0|0:0,0:0:0:0:
435,66,6817,38,0,P|427:112|433:169,1,100
474,255,7567,5,2,0:0:0:0:
292,338,8317,2,0,P|228:361|151:324,2,150
228,260,9817,38,0,P|222:219|234:159,1,100
243,62,10567,6,0,P|321:117|319:213,1,200,2|0,0:0|0:0,0:0:0:0:
54,311,12817,38,0,P|43:260|56:206,1,100
141,260,13567,5,2,0:0:0:0:
392,96,14692,1,0,0:0:0:0:
490,115,15067,38,0,P|470:158|419:192,1,100,2|0,0:0|0:0,0:0:0:0:
329,174,15817,2,0,P|289:203|268:248,1,100
209,323,16567,6,0,P|304:338|367:266,1,200,2|0,0:0|0:0,0:0:0:0:
120,59,19192,37,0,0:0:0:0:
63,141,19567,6,0,P|56:196|125:279,2,150,2|0|0,0:0|0:0|0:0,0:0:0:0:
154,181,21067,38,0,P|199:173|254:124,1,100,2|0,0:0|0:0,0:0:0:0:
313,71,21817,2,0,P|352:41|401:31,1,100
391,131,22567,6,0,B|444:224|360:224|420:332,1,200,2|0,0:0|0:0,0:0:0:0:
14,318,24817,6,0,P|6:266|33:208,1,100
105,277,25567,6,0,P|146:284|239:157,1,200
142,184,26692,1,0,1:0:0:0:
188,95,27067,38,0,P|220:82|297:96,1,100,0|0,0:0|1:0,0:0:0:0:
384,84,27817,2,0,P|379:118|328:177,1,100,0|0,0:0|1:0,0:0:0:0:
404,248,28567,6,0,B|285:313|285:209|161:250,1,250
90,316,29879,38,0,P|67:270|102:168,1,150,0|0,1:0|1:0,0:0:0:0:
177,127,30817,2,0,P|229:121|277:81,1,100,0|0,0:0|1:0,0:0:0:0:
330,17,31567,6,0,P|359:55|362:125,1,100,0|0,0:0|1:0,0:0:0:0:
310,188,32317,2,0,P|292:227|325:328,2,150,0|0|0,0:0|0:0|1:0,0:0:0:0:
389,248,33817,38,0,P|443:242|490:201,1,100,0|0,0:0|1:0,0:0:0:0:
405,148,34567,6,0,B|389:97|335:70|276:87|276:87|246:45|178:43,1,250
104,11,35879,38,0,P|100:63|176:139,1,150,0|0,1:0|1:0,0:0:0:0:
121,226,36817,2,0,P|160:233|233:203,1,100,0|0,0:0|1:0,0:0:0:0:
297,156,37567,6,0,P|343:139|392:145,1,100,0|0,0:0|1:0,0:0:0:0:
355,238,38317,2,0,P|366:294|451:350,2,150,0|0|0,0:0|0:0|1:0,0:0:0:0:
454,248,39817,38,0,P|479:219|490:154,1,100,0|0,0:0|1:0,0:0:0:0:
438,74,40567,6,0,P|400:66|338:89,1,100,2|0,0:0|1:0,0:0:0:0:
258,139,41317,2,0,P|211:155|112:110,2,150,0|0|0,0:0|1:0|1:0,0:0:0:0:
351,175,42817,37,0,0:0:0:0:
314,268,43192,1,0,1:0:0:0:
392,329,43567,6,0,P|353:360|292:365,1,100,0|0,0:0|1:0,0:0:0:0:
214,323,44317,2,0,P|164:302|62:338,2,150,0|0|0,0:0|0:0|1:0,0:0:0:0:
293,262,45817,37,0,0:0:0:0:
266,165,46192,1,0,0:0:0:0:
331,89,46567,6,0,P|379:69|441:78,1,100
395,171,47317,2,0,P|407:221|352:308,2,150
305,216,48817,6,0,P|267:204|202:219,1,100
175,309,49567,6,0,P|124:268|116:178,1,150
71,96,50504,2,0,P|118:87|182:117,1,100
295,256,51629,38,0,P|347:303|438:290,1,150,0|0,2:0|0:0,0:0:0:0:
380,208,52567,6,0,P|405:130|369:63,1,150
305,140,53504,1,0,0:0:0:0:
208,115,53879,38,0,P|163:115|88:203,1,150
186,214,54817,2,0,P|177:268|204:324,1,100
275,254,55567,6,0,P|321:231|387:243,1,100
435,310,56317,2,0,P|462:268|465:219,1,100
494,123,57067,38,0,P|444:120|400:141,1,100
309,99,57817,2,0,P|264:120|215:117,1,100
132,62,58567,6,0,B|110:89|109:137|127:169|127:169|92:200|92:262,1,200
150,328,59692,1,0,0:0:0:0:
248,311,60067,37,0,0:0:0:0:
338,352,60442,2,0,P|381:367|445:350,2,100
390,267,61567,6,0,B|416:196|360:196|383:118,1,150
476,152,62504,1,0,0:0:0:0:
457,53,62879,6,0,P|392:20|285:87,1,200
44,23,64567,6,0,P|11:68|9:133,1,100,4|0,0:0|0:0,0:0:0:0:
104,102,65317,2,0,P|137:147|139:212,1,100
114,285,66067,37,0,0:0:0:0:
56,366,66442,2,0,P|25:327|16:278,2,100
114,285,67567,6,0,P|160:298|220:279,1,100
304,253,68317,1,0,0:0:0:0:
403,257,68692,1,0,0:0:0:0:
479,192,69067,38,0,P|495:143|481:82,2,100
396,135,70192,1,0,0:0:0:0:
309,84,70567,6,0,P|263:73|201:94,1,100
113,91,71317,2,0,P|126:136|175:179,1,100
262,177,72067,38,0,P|249:224|215:261,2,100
259,77,73192,1,0,0:0:0:0:
349,33,73567,6,0,P|402:23|453:44,1,100
393,123,74317,2,0,P|377:183|420:265,1,150
473,179,75254,37,0,0:0:0:0:
512,272,75629,2,0,P|484:332|395:356,1,150
324,300,76567,22,0,P|275:276|225:281,1,100,4|0,0:0|0:0,0:0:0:0:
152,341,77317,2,0,P|136:302|148:233,1,100
202,166,78067,5,0,0:0:0:0:
285,111,78442,2,0,P|301:72|289:3,2,100
202,55,79567,38,0,P|153:42|95:56,1,100
40,127,80317,1,0,0:0:0:0:
93,211,80692,1,0,0:0:0:0:
23,283,81067,6,0,P|16:337|39:388,2,100
115,322,82192,1,0,0:0:0:0:
209,290,82567,38,0,B|308:248|308:336|409:285,1,200
458,205,83692,1,0,0:0:0:0:
503,114,84067,6,0,P|407:117|358:200,1,200
292,274,85192,1,0,0:0:0:0:
210,332,85567,38,0,P|149:336|104:310,1,100
65,233,86317,1,0,0:0:0:0:
124,152,86692,1,0,0:0:0:0:
73,65,87067,6,0,P|119:51|186:70,1,100
239,130,87817,1,0,0:0:0:0:
335,103,88192,1,0,0:0:0:0:
413,164,88567,37,4,0:0:0:0:
144,73,100567,22,0,P|119:110|189:243,1,200,4|0,0:0|0:0,0:0:0:0:
212,145,101692,1,0,0:0:0:0:
306,111,102067,6,0,P|350:102|411:123,1,100
501,125,102817,2,0,P|486:167|438:209,1,100
485,298,103567,38,0,P|390:285|347:200,1,200
262,146,104692,1,0,0:0:0:0:
262,46,105067,6,0,P|187:82|174:192,1,200
254,247,106192,1,0,0:0:0:0:
346,208,106567,38,0,P|416:203|486:320,2,200
387,299,108442,5,0,0:0:0:0:
287,290,108817,2,0,P|255:252|249:185,1,100
299,118,109567,38,0,P|246:103|144:204,1,200
203,270,110692,1,0,0:0:0:0:
140,348,111067,6,0,P|198:370|285:328,1,150
346,267,112004,2,0,P|412:235|482:257,1,150
422,338,112942,37,0,0:0:0:0:
326,367,113317,2,0,P|279:343|249:243,2,150
346,267,114817,6,0,P|361:218|350:162,1,100
408,86,115567,38,0,P|359:71|303:82,1,100
217,112,116317,2,0,P|177:126|78:85,2,150
316,110,117817,5,0,0:0:0:0:
359,200,118192,1,0,0:0:0:0:
458,206,118567,38,0,P|449:245|401:292,1,100
308,287,119317,2,0,P|268:241|277:144,2,150
359,200,120817,6,0,P|391:164|399:99,1,100
450,26,121567,38,0,P|400:14|342:33,1,100
270,80,122317,2,0,P|221:130|127:125,2,150
178,38,123817,22,0,P|122:34|67:65,1,100
52,146,124567,6,0,L|60:306,1,150
144,348,125504,2,0,P|176:362|257:357,1,100
440,365,126629,38,0,P|440:302|402:219,1,150
442,130,127567,6,0,P|371:128|310:192,1,150
224,220,128504,1,0,0:0:0:0:
152,290,128879,38,0,P|125:221|156:148,1,150
235,99,129817,2,0,P|283:84|323:41,1,100
413,19,130567,22,0,P|471:12|514:32,1,100
451,110,131317,2,0,P|486:156|490:203,1,100
432,277,132067,6,0,P|396:230|392:183,1,100
292,178,132817,2,0,P|309:131|347:99,1,100
304,9,133567,38,0,P|239:63|188:174,1,200
220,260,134692,1,0,0:0:0:0:
319,255,135067,5,0,0:0:0:0:
403,308,135442,2,0,P|450:328|509:319,2,100
463,228,136567,38,0,P|480:141|440:74,1,150
363,46,137504,1,0,0:0:0:0:
265,67,137879,22,0,B|213:67|168:37|168:37|139:79|83:94,1,200
91,342,139567,6,0,P|141:329|200:345,1,100
263,273,140317,2,0,P|311:282|359:269,1,100
459,263,141067,2,0,P|442:216|407:181,2,100
413,352,142192,1,0,0:0:0:0:
314,366,142567,38,0,P|259:356|200:373,1,100
161,281,143317,2,0,P|112:290|63:280,1,100
11,194,144067,5,0,0:0:0:0:
52,103,144442,1,0,0:0:0:0:
149,83,144817,2,0,P|202:99|262:84,1,100
328,36,145567,38,0,P|343:83|331:143,1,100
282,217,146317,2,0,P|266:264|274:313,1,100
365,273,147067,6,0,P|413:262|452:231,2,100
274,313,148192,1,0,0:0:0:0:
178,343,148567,38,0,P|178:279|206:237,1,100
244,161,149317,2,0,P|250:85|190:18,1,150,0|0,0:0|0:0,0:0:0:0:
156,113,150254,5,0,0:0:0:0:
156,213,150629,2,0,P|218:256|306:237,1,150,0|0,0:0|0:0,0:0:0:0:
360,318,151567,6,0,P|409:295|463:298,1,100
504,209,152317,2,0,P|513:163|493:102,1,100
413,163,153067,6,0,P|362:173|298:148,2,100
365,74,154192,1,0,0:0:0:0:
265,79,154567,38,0,P|232:112|220:174,1,100
279,242,155317,2,0,P|267:290|232:325,1,100
137,294,156067,5,0,0:0:0:0:
37,285,156442,1,0,0:0:0:0:
6,189,156817,2,0,P|-4:139|20:85,1,100
101,48,157567,38,0,B|202:98|203:7|309:65,1,200
349,140,158692,1,0,0:0:0:0:
398,228,159067,2,0,P|302:230|249:151,1,200
173,84,160192,1,0,0:0:0:0:
74,100,160567,6,0,P|40:130|20:199,1,100
85,256,161317,1,0,0:0:0:0:
118,350,161692,1,0,0:0:0:0:
217,339,162067,38,0,P|265:332|321:356,1,100
412,341,162817,1,0,0:0:0:0:
461,254,163192,1,0,0:0:0:0:
385,188,163567,22,0,P|358:116|397:37,1,150
458,118,164504,1,0,0:0:0:0:
490,212,164879,6,0,P|461:261|364:291,1,150
291,240,165817,1,0,0:0:0:0:
192,259,166192,1,0,0:0:0:0:
103,212,166567,38,0,B|76:139|132:139|105:59,1,150
198,25,167504,1,0,0:0:0:0:
291,61,167879,6,0,B|350:75|387:62|387:62|437:90|449:149,1,200
492,230,169004,2,0,P|433:242|357:183,1,150
279,251,169942,38,0,P|221:205|149:215,1,150
82,289,170879,6,0,P|53:246|81:137,1,150
136,81,171817,1,0,0:0:0:0:
234,96,172192,1,0,0:0:0:0:
324,52,172567,38,0,P|387:46|456:105,1,150
364,145,173504,1,0,0:0:0:0:
405,235,173879,6,0,P|342:241|273:182,1,150
224,104,174817,2,0,P|175:81|117:90,1,100
77,169,175567,6,0,L|87:327,1,150
171,371,176504,1,0,0:0:0:0:
269,353,176879,6,0,P|344:361|400:313,1,150
358,223,177817,1,0,0:0:0:0:
421,145,178192,1,0,0:0:0:0:
370,58,178567,38,0,P|322:28|230:48,1,150
199,138,179504,1,0,0:0:0:0:
171,235,179879,6,0,P|264:214|298:125,1,200
234,44,181004,2,0,B|196:39|147:20|147:20|114:42|79:53,1,150
39,131,181942,2,0,L|29:296,1,150
101,351,182879,38,0,P|147:328|261:353,1,150
341,349,183817,2,0,P|391:332|421:289,1,100
403,196,184567,5,0,0:0:0:0:
132,66,185692,1,0,0:0:0:0:
78,150,186067,1,0,0:0:0:0:
447,302,187567,5,4,0:0:0:0:
155,334,193567,22,0,P|125:289|126:243,1,100
27,222,194317,2,0,P|50:173|91:151,1,100
156,77,195067,6,0,P|202:90|260:73,1,100
351,83,195817,2,0,P|337:130|302:165,1,100
214,213,196567,38,0,B|238:262|293:268|293:268|326:310|386:305,1,200
474,268,197692,1,0,0:0:0:0:
461,168,198067,5,0,0:0:0:0:
375,115,198442,2,0,P|366:71|385:15,2,100
306,188,199567,38,0,B|266:199|237:231|237:231|207:205|169:199,1,150
87,245,200504,1,0,0:0:0:0:
0,284,200879,6,0,P|72:341|163:309,1,200
412,63,202942,38,0,B|437:112|401:167|401:167|456:215|456:215|411:263|437:333,1,300
33,314,205567,6,0,P|19:271|36:215,1,100
112,159,206317,1,0,0:0:0:0:
207,188,206692,1,0,0:0:0:0:
299,151,207067,38,0,P|346:140|401:156,2,100
345,240,208192,1,0,0:0:0:0:
392,327,208567,6,0,P|345:338|290:322,1,100
243,240,209317,2,0,P|195:227|146:238,1,100
97,150,210067,38,0,P|48:160|0:148,2,100
183,100,211192,1,0,0:0:0:0:
254,30,211567,6,0,P|278:67|276:134,1,100
215,198,212317,2,0,P|269:222|357:189,1,150
439,146,213254,1,0,0:0:0:0:
510,215,213629,2,0,P|524:279|487:363,1,150
394,344,214567,6,0,P|346:330|292:342,1,100
230,265,215317,2,0,P|181:274|133:260,1,100
51,203,216067,6,0,P|32:250|41:301,2,100
129,140,217192,1,0,0:0:0:0:
226,119,217567,38,0,P|270:136|337:119,1,100
421,122,218317,1,0,0:0:0:0:
476,205,218692,1,0,0:0:0:0:
408,278,219067,6,0,P|403:337|422:381,2,100
319,231,220192,1,0,0:0:0:0:
219,234,220567,38,0,P|174:250|66:161,1,200
165,149,221692,1,0,0:0:0:0:
111,64,222067,6,0,P|156:48|264:137,1,200
327,210,223192,1,0,0:0:0:0:
324,310,223567,38,0,P|372:299|409:266,1,100
458,178,224317,1,0,0:0:0:0:
399,97,224692,1,0,0:0:0:0:
300,82,225067,6,0,P|250:87|204:66,1,100
106,56,225817,1,0,0:0:0:0:
45,135,226192,1,0,0:0:0:0:
9,228,226567,6,0,P|66:231|111:207,1,100
186,156,227317,2,0,P|240:127|328:154,2,150
257,225,228817,2,0,P|260:281|299:328,1,100
352,243,229567,6,0,P|398:212|420:155,1,100
388,78,230317,2,0,P|456:79|515:145,2,150
296,117,231817,1,0,0:0:0:0:
201,84,232192,1,0,0:0:0:0:
127,151,232567,6,0,P|109:200|126:263,1,100
211,209,233317,2,0,P|273:232|310:305,2,150
211,309,234817,2,0,P|168:332|105:329,1,100
44,264,235567,5,0,0:0:0:0:
273,70,236692,2,0,B|322:53|322:53|373:54|373:54|426:37,1,150
