osu file format v14

[General]
AudioFilename: audio.mp3
AudioLeadIn: 0
PreviewTime: 103363
Countdown: 0
SampleSet: Soft
StackLeniency: 0.2
Mode: 0
LetterboxInBreaks: 0
WidescreenStoryboard: 0

[Editor]
Bookmarks: 14488,34813,92488,94738,98488,107188,115738,178288,181663,182113,182188,183313,188938,190888
DistanceSpacing: 0.2
BeatDivisor: 4
GridSize: 8
TimelineZoom: 2.2

[Metadata]
Title:HIBANA
TitleUnicode:ヒバナ
Artist:soraru x mafumafu
ArtistUnicode:そらる×まふまふ
Creator:Testo
Version:Spark
Source:
Tags:SPARKS 火花 HATSUNE MIKU 10th Anniversary Album Re:Start DECO*27 Vocaloid 初音ミク Akitoshi Djulus
BeatmapID:1524357
BeatmapSetID:691103

[Difficulty]
HPDrainRate:6
CircleSize:4
OverallDifficulty:9
ApproachRate:9.5
SliderMultiplier:1.8
SliderTickRate:1

[Events]
//Background and Video events
0,0,"DECO228.png",0,0
//Break Periods
2,65113,71648
2,122713,126998
//Storyboard Layer 0 (Background)
//Storyboard Layer 1 (Fail)
//Storyboard Layer 2 (Pass)
//Storyboard Layer 3 (Foreground)
//Storyboard Sound Samples

[TimingPoints]
323,300,4,2,1,75,1,0
323,-66.6666666666667,4,2,1,75,0,0
2423,-333.333333333333,4,2,1,75,0,0
2723,-100,4,2,1,75,0,0
7523,-100,4,2,1,75,0,0
17123,-125,4,2,1,65,0,0
21323,-125,4,2,2,75,0,0
21623,-125,4,2,1,55,0,0
22373,-100,4,2,2,55,0,0
23123,-125,4,2,1,55,0,0
23573,-125,4,2,2,55,0,0
23873,-125,4,2,1,55,0,0
24323,-125,4,2,1,55,0,0
25523,-100,4,2,1,55,0,0
26723,-100,4,2,1,65,0,0
36323,-125,4,2,1,65,0,0
41123,-100,4,2,1,75,0,0
44423,-76.9230769230769,4,2,1,75,0,0
45323,-76.9230769230769,4,2,1,55,0,0
45923,-83.3333333333333,4,2,1,75,0,1
63923,-83.3333333333333,4,2,1,75,0,0
65123,-100,4,2,1,75,0,0
72173,-125,4,2,1,65,0,0
74723,-125,4,2,1,55,0,0
82973,-100,4,2,1,65,0,0
84323,-100,4,2,1,65,0,0
93923,-125,4,2,1,65,0,0
98723,-100,4,2,1,75,0,0
102023,-125,4,2,1,75,0,0
102173,-125,4,2,1,55,0,0
103523,-83.3333333333333,4,2,1,75,0,1
121523,-83.3333333333333,4,2,1,75,0,0
122723,-142.857142857143,4,2,1,75,0,0
127523,-100,4,2,1,55,0,0
131723,-142.857142857143,4,2,1,55,0,0
132323,-76.9230769230769,4,2,1,75,0,0
136523,-200,4,2,1,75,0,0
137048,-200,4,2,1,10,0,0
137123,-76.9230769230769,4,2,1,75,0,0
143123,-125,4,2,1,65,0,0
144023,-100,4,2,1,65,0,0
144923,-125,4,2,1,65,0,0
147923,-100,4,2,1,75,0,0
150323,-100,4,2,1,65,0,0
155123,-125,4,2,1,55,0,0
164723,-100,4,2,1,65,0,0
169523,-100,4,2,1,65,0,0
171923,-100,4,2,1,75,0,0
173123,-50,4,2,1,75,0,0
173723,-83.3333333333333,4,2,1,45,0,0
174023,-83.3333333333333,4,2,1,55,0,0
174323,-83.3333333333333,4,2,1,75,0,1
200573,-83.3333333333333,4,2,1,75,0,0

[Colours]
Combo1 : 0,128,255
Combo2 : 0,128,64
Combo3 : 193,193,0
Combo4 : 210,0,142
Combo5 : 128,0,255
Combo6 : 217,0,44

[HitObjects]
79,296,323,6,0,B|84:236|84:236|62:184|62:184|70:100,2,180.000006866455,4|0|0,3:2|3:0|3:0,0:0:0:0:
310,243,923,6,0,B|305:183|305:183|327:131|327:131|319:47,2,180.000006866455,0|0|0,1:2|3:0|3:0,0:0:0:0:
79,296,1523,6,0,B|84:236|84:236|62:184|62:184|70:100,2,180.000006866455,4|0|0,3:2|3:0|3:0,0:0:0:0:
310,243,2123,6,0,B|305:183|305:183|327:131|327:131|319:47,1,180.000006866455,0|0,1:2|0:0,0:0:0:0:
328,53,2423,6,2,L|332:100,1,40.4999987640381,2|2,3:0|3:0,0:0:0:0:
337,169,2723,5,12,3:2:0:0:
292,166,2798,1,0,3:0:0:0:
253,187,2873,1,0,3:0:0:0:
233,226,2948,1,0,3:0:0:0:
236,271,3023,1,0,3:0:0:0:
215,310,3098,1,0,3:0:0:0:
181,339,3173,1,0,3:0:0:0:
138,352,3248,1,0,3:0:0:0:
94,346,3323,1,0,3:0:0:0:
55,324,3398,1,0,3:0:0:0:
29,288,3473,1,0,3:0:0:0:
19,244,3548,1,0,3:0:0:0:
28,200,3623,1,0,3:0:0:0:
53,163,3698,1,0,3:0:0:0:
91,139,3773,1,0,3:0:0:0:
135,133,3848,1,0,3:0:0:0:
178,144,3923,5,10,3:2:0:0:
137,159,3998,1,0,3:0:0:0:
94,148,4073,1,0,3:0:0:0:
65,115,4148,1,0,3:0:0:0:
61,71,4223,1,0,3:0:0:0:
83,32,4298,1,0,3:0:0:0:
123,13,4373,1,0,3:0:0:0:
166,20,4448,1,0,3:0:0:0:
198,52,4523,1,0,3:0:0:0:
233,79,4598,1,0,3:0:0:0:
277,87,4673,1,0,3:0:0:0:
319,73,4748,1,0,3:0:0:0:
349,40,4823,1,0,3:0:0:0:
380,8,4898,1,0,3:0:0:0:
424,1,4973,1,0,3:0:0:0:
464,20,5048,1,0,3:0:0:0:
486,59,5123,6,0,P|485:91|479:118,1,45,12|0,3:2|3:0,0:0:0:0:
332,119,5273,1,0,3:0:0:0:
327,118,5348,1,0,3:0:0:0:
322,117,5423,2,0,P|318:94|318:72,1,45,8|0,3:2|3:0,0:0:0:0:
467,248,5573,5,0,3:0:0:0:
472,247,5648,1,0,3:0:0:0:
477,246,5723,2,0,P|480:223|480:201,1,45,8|0,3:2|3:0,0:0:0:0:
328,294,5873,1,0,3:0:0:0:
323,293,5948,1,0,3:0:0:0:
318,292,6023,2,0,P|314:269|314:247,1,45,8|0,3:2|3:0,0:0:0:0:
459,384,6173,5,0,3:0:0:0:
464,383,6248,1,0,3:0:0:0:
469,382,6323,1,0,1:0:0:0:
322,117,6773,5,0,1:0:0:0:
102,285,7223,5,0,1:0:0:0:
102,285,7523,6,0,P|110:242|96:196,1,90,4|0,3:2|0:0,0:0:0:0:
19,152,7823,2,0,P|62:173|170:85,1,180,8|0,0:0|3:0,0:0:0:0:
260,27,8273,2,0,P|247:69|255:113,1,90,0|8,1:0|0:0,0:0:0:0:
307,188,8573,1,0,0:0:0:0:
368,300,8723,6,0,B|398:193|337:223|368:124,1,180,0|8,3:0|0:0,0:0:0:0:
458,307,9173,2,0,P|464:262|463:217,1,90,0|0,0:0|3:0,0:0:0:0:
406,382,9473,1,0,0:0:0:0:
285,255,9623,1,8,0:0:0:0:
164,382,9773,1,8,0:0:0:0:
56,176,9923,6,0,P|106:184|160:166,1,90,4|0,3:2|0:0,0:0:0:0:
159,42,10223,2,0,P|67:125|55:181,1,180,8|0,0:0|3:0,0:0:0:0:
168,306,10673,2,0,P|159:262|137:223,1,90,0|8,1:0|0:0,0:0:0:0:
96,359,10973,1,0,0:0:0:0:
250,266,11123,6,0,B|289:274|321:251|321:251|360:271|360:271|384:252|418:254,1,180,0|8,3:0|0:0,0:0:0:0:
491,165,11573,2,0,P|481:121|488:77,1,90,0|0,0:0|3:0,0:0:0:0:
400,156,11873,1,0,0:0:0:0:
300,78,12023,1,8,3:2:0:0:
278,71,12098,1,8,3:2:0:0:
256,68,12173,1,8,3:2:0:0:
233,69,12248,1,8,3:2:0:0:
212,75,12323,6,0,L|205:171,1,90,4|0,3:2|0:0,0:0:0:0:
334,258,12623,2,0,B|330:204|330:204|342:162|342:162|325:134|325:134|320:68,1,180,8|0,0:0|3:0,0:0:0:0:
153,46,13073,2,0,P|197:54|241:46,1,90,0|8,1:0|0:0,0:0:0:0:
312,4,13373,1,0,0:0:0:0:
417,185,13523,6,0,P|341:147|242:199,1,180,0|8,3:0|0:0,0:0:0:0:
172,309,13973,2,0,P|182:266|177:222,1,90,0|0,0:0|3:0,0:0:0:0:
90,129,14273,1,0,0:0:0:0:
190,52,14423,1,8,0:0:0:0:
290,129,14573,1,0,3:0:0:0:
297,134,14648,1,0,3:0:0:0:
304,140,14723,5,8,3:2:0:0:
183,47,14873,1,0,3:0:0:0:
160,198,15023,1,0,3:0:0:0:
311,146,15173,5,8,3:2:0:0:
176,41,15323,1,0,3:0:0:0:
158,207,15473,1,0,3:0:0:0:
293,312,15623,5,8,3:2:0:0:
318,152,15773,1,0,3:0:0:0:
202,348,15923,5,8,3:0:0:0:
167,123,16073,1,8,3:0:0:0:
165,115,16148,1,8,3:0:0:0:
163,107,16223,1,8,3:0:0:0:
388,72,16373,1,8,3:0:0:0:
423,297,16523,1,8,3:0:0:0:
211,253,16673,5,0,3:0:0:0:
278,161,16823,1,0,3:0:0:0:
370,228,16973,1,0,3:0:0:0:
274,156,17123,6,0,P|263:97|289:17,1,144,4|0,0:0|0:0,0:0:0:0:
167,57,17573,1,0,0:0:0:0:
167,57,17723,2,0,P|175:99|167:139,1,72,0|0,0:0|0:0,0:0:0:0:
108,188,18023,1,0,0:0:0:0:
203,248,18173,2,0,P|149:228|72:271,2,144,2|0|0,0:0|0:0|0:0,0:0:0:0:
203,248,19073,5,0,0:0:0:0:
277,276,19223,1,0,0:0:0:0:
351,248,19373,1,0,0:0:0:0:
422,335,19523,6,0,P|405:265|420:196,1,144,2|0,0:0|0:0,0:0:0:0:
481,134,19973,1,0,0:0:0:0:
481,134,20123,2,0,P|475:94|481:62,1,72,0|0,0:0|0:0,0:0:0:0:
420,195,20423,1,0,0:0:0:0:
309,109,20573,2,0,P|317:147|294:255,2,144,2|0|0,0:0|0:0|0:0,0:0:0:0:
220,37,21323,5,0,0:0:0:0:
211,36,21398,1,0,0:0:0:0:
202,35,21473,1,0,0:0:0:0:
192,35,21548,1,0,0:0:0:0:
183,35,21623,2,0,B|171:78|171:78|184:112|184:112|175:145,1,108,4|0,3:0|0:0,0:0:0:0:
161,209,21923,5,8,3:0:0:0:
375,181,22073,1,8,3:0:0:0:
375,181,22373,5,0,0:0:0:0:
370,180,22448,1,0,0:0:0:0:
365,179,22523,1,2,0:0:0:0:
293,246,22673,5,0,0:0:0:0:
298,245,22748,1,0,0:0:0:0:
303,244,22823,1,2,0:0:0:0:
245,169,22973,5,0,0:0:0:0:
240,168,23048,1,0,0:0:0:0:
235,167,23123,1,8,3:2:0:0:
448,138,23273,1,8,3:0:0:0:
448,138,23573,5,0,0:0:0:0:
443,137,23648,1,0,0:0:0:0:
438,136,23723,1,2,0:0:0:0:
343,120,23873,1,0,0:0:0:0:
271,170,24023,2,2,B|233:176|233:176|194:164,1,72,2|2,0:0|0:0,0:0:0:0:
438,136,24323,5,12,3:0:0:0:
401,349,24473,2,0,P|374:358|315:348,1,72,8|0,3:0|0:0,0:0:0:0:
257,247,24773,1,0,3:0:0:0:
270,244,24848,1,0,3:0:0:0:
281,243,24923,5,8,3:2:0:0:
455,211,25073,1,8,3:0:0:0:
270,244,25223,5,8,3:0:0:0:
415,352,25373,1,8,3:0:0:0:
339,83,25523,6,0,P|337:108|342:138,1,45,8|0,0:0|0:0,0:0:0:0:
426,82,25673,2,0,P|379:74|334:84,1,90,4|0,3:2|0:0,0:0:0:0:
270,244,25973,2,0,P|317:252|362:242,1,90,4|0,3:2|0:0,0:0:0:0:
144,90,26273,6,0,P|119:88|89:93,1,45,4|0,3:2|0:0,0:0:0:0:
47,175,26423,2,0,P|84:154|32:153,1,135,8|0,0:0|0:0,0:0:0:0:
16,245,26723,6,0,B|81:273|138:218|138:218|166:223|194:252,1,180,4|8,0:0|0:0,0:0:0:0:
267,332,27173,2,0,P|261:288|269:244,1,90,0|0,0:0|3:0,0:0:0:0:
399,146,27473,1,0,0:0:0:0:
470,291,27623,1,8,0:0:0:0:
399,146,27773,6,0,P|405:101|397:57,1,90,0|0,0:0|3:0,0:0:0:0:
248,154,28073,2,0,P|283:181|325:196,1,90,0|8,0:0|0:0,0:0:0:0:
316,18,28373,2,0,P|274:34|240:63,1,90,0|0,0:0|3:0,0:0:0:0:
200,274,28673,5,0,0:0:0:0:
166,116,28823,1,8,0:0:0:0:
42,234,28973,1,8,3:2:0:0:
221,361,29123,6,0,B|318:321|308:374|406:333,1,180,0|8,3:0|0:0,0:0:0:0:
468,191,29573,1,0,0:0:0:0:
306,190,29723,1,0,0:0:0:0:
396,336,29873,2,0,P|396:291|381:249,1,90,0|8,0:0|0:0,0:0:0:0:
216,180,30173,6,0,P|210:231|212:289,1,90,0|0,0:0|3:0,0:0:0:0:
155,113,30473,2,0,P|124:154|97:205,1,90,0|8,0:0|0:0,0:0:0:0:
135,24,30773,2,0,P|87:44|38:75,1,90,0|0,0:0|3:0,0:0:0:0:
220,51,31073,5,0,0:0:0:0:
351,129,31223,2,0,P|402:123|460:125,1,90,8|0,0:0|0:0,0:0:0:0:
195,219,31523,6,0,B|187:175|213:143|213:143|198:117|198:117|224:79|219:28,1,180,4|8,3:2|0:0,0:0:0:0:
332,14,31973,1,0,0:0:0:0:
437,149,32123,5,0,3:0:0:0:
272,198,32273,1,0,0:0:0:0:
374,335,32423,1,8,0:0:0:0:
192,355,32574,6,0,P|199:311|217:270,1,90,0|0,0:0|3:0,0:0:0:0:
349,249,32873,2,0,P|366:290|373:334,1,90,0|8,0:0|0:0,0:0:0:0:
184,356,33173,2,0,P|190:311|208:270,1,90,0|0,0:0|3:0,0:0:0:0:
272,198,33473,1,0,0:0:0:0:
462,325,33623,1,8,0:0:0:0:
462,325,33923,5,4,3:2:0:0:
431,165,34073,1,0,0:0:0:0:
272,198,34223,2,0,P|223:193|169:173,1,90,8|0,0:0|0:0,0:0:0:0:
340,100,34523,5,0,3:0:0:0:
379,291,34673,1,0,0:0:0:0:
184,180,34823,1,8,0:0:0:0:
146,372,34973,1,0,0:0:0:0:
250,109,35123,5,12,3:2:0:0:
379,291,35273,1,8,3:0:0:0:
383,298,35348,1,8,3:0:0:0:
387,305,35423,1,8,3:0:0:0:
155,364,35573,1,8,0:0:0:0:
347,132,35723,1,8,3:2:0:0:
480,375,35873,1,0,3:0:0:0:
264,299,36023,5,8,3:0:0:0:
259,286,36098,1,0,3:0:0:0:
255,273,36173,1,8,3:0:0:0:
254,259,36248,1,0,3:0:0:0:
254,246,36323,6,0,P|267:201|267:166,1,72,4|0,0:0|0:0,0:0:0:0:
349,145,36623,2,0,P|351:180|362:214,1,72,8|0,0:0|0:0,0:0:0:0:
367,220,36848,1,0,3:0:0:0:
371,225,36923,1,0,3:0:0:0:
478,107,37073,2,0,P|446:92|411:85,1,72,0|8,3:0|0:0,0:0:0:0:
168,128,37373,5,0,1:0:0:0:
168,128,37673,1,0,1:0:0:0:
144,237,37823,1,8,0:0:0:0:
168,346,37973,1,0,3:0:0:0:
170,348,38048,1,0,3:0:0:0:
172,350,38123,2,0,P|205:338|258:333,1,72,0|0,3:0|3:0,0:0:0:0:
92,286,38423,2,0,P|114:259|157:228,1,72,8|0,0:0|3:0,0:0:0:0:
367,225,38723,6,0,P|371:179|386:147,1,72,4|0,0:0|3:0,0:0:0:0:
245,167,39023,2,0,P|257:200|258:236,1,72,8|0,0:0|0:0,0:0:0:0:
257,243,39248,1,0,3:0:0:0:
255,249,39323,1,0,3:0:0:0:
147,111,39473,2,0,P|148:75|160:41,1,72,0|8,3:0|0:0,0:0:0:0:
40,254,39773,5,0,1:0:0:0:
40,254,40073,1,0,1:0:0:0:
149,278,40223,1,8,0:0:0:0:
258,302,40373,1,0,3:0:0:0:
391,169,40523,5,0,3:0:0:0:
282,193,40673,1,0,0:0:0:0:
401,348,40823,2,0,P|404:312|414:278,1,72,8|0,0:0|3:0,0:0:0:0:
494,200,41048,1,0,3:0:0:0:
500,193,41123,5,8,3:2:0:0:
318,310,41273,1,0,3:0:0:0:
488,207,41423,5,8,1:2:0:0:
274,210,41573,1,0,3:0:0:0:
482,214,41723,5,8,1:2:0:0:
285,101,41873,1,0,3:0:0:0:
476,221,42023,5,8,1:2:0:0:
349,12,42173,1,0,3:0:0:0:
318,310,42323,5,8,0:0:0:0:
279,79,42473,1,0,3:0:0:0:
230,289,42623,5,8,1:2:0:0:
366,99,42773,1,0,3:0:0:0:
183,214,42923,5,8,1:2:0:0:
414,175,43073,1,0,3:0:0:0:
203,127,43223,5,8,0:0:0:0:
393,263,43373,1,0,3:0:0:0:
394,271,43448,1,0,3:0:0:0:
395,279,43523,5,8,1:2:0:0:
247,346,43673,1,0,3:0:0:0:
94,288,43823,1,0,3:0:0:0:
396,287,43973,5,8,1:2:0:0:
233,360,44123,1,0,3:0:0:0:
64,296,44273,1,0,3:0:0:0:
397,295,44423,5,8,1:2:0:0:
397,295,45323,5,0,1:0:0:0:
373,312,45398,1,8,3:0:0:0:
345,319,45473,1,0,1:0:0:0:
316,316,45548,1,8,3:0:0:0:
290,303,45623,1,0,1:0:0:0:
270,282,45698,1,8,3:0:0:0:
259,255,45773,2,0,P|248:232|218:203,1,58.4999973220826,0|8,1:0|3:0,0:0:0:0:
78,73,45923,6,0,P|122:73|191:35,1,107.999996704102,4|0,3:2|0:0,0:0:0:0:
287,154,46223,2,0,P|265:192|263:270,1,107.999996704102,8|0,0:0|0:0,0:0:0:0:
112,294,46523,2,0,P|90:255|22:215,1,107.999996704102,0|0,3:0|3:0,0:0:0:0:
162,172,46823,5,8,0:0:0:0:
345,319,46973,2,2,B|415:277|496:331|496:331|480:364|430:360,1,215.999993408203,2|0,1:1|3:1,0:0:0:0:
202,369,47423,1,8,0:0:0:0:
290,184,47573,1,0,0:0:0:0:
85,165,47723,6,0,P|86:226|101:276,1,107.999996704102,0|0,1:0|3:0,0:0:0:0:
290,184,48023,2,0,B|332:116|278:35|278:35|245:51|249:78,1,215.999993408203,8|4,0:0|3:2,0:0:0:0:
348,274,48473,6,0,P|391:255|461:263,1,107.999996704102,0|8,0:0|0:0,0:0:0:0:
290,184,48773,1,0,0:0:0:0:
202,369,48923,2,0,P|159:350|89:358,1,107.999996704102,0|0,3:0|3:0,0:0:0:0:
289,194,49223,5,8,0:0:0:0:
99,353,49373,2,0,P|113:272|59:130,1,215.999993408203,4|0,0:0|3:0,0:0:0:0:
241,180,49823,1,8,3:0:0:0:
288,204,49898,1,8,3:0:0:0:
342,206,49973,1,8,3:0:0:0:
391,186,50048,1,8,3:0:0:0:
427,146,50123,1,0,3:0:0:0:
321,56,50273,5,0,3:0:0:0:
208,142,50423,1,0,3:0:0:0:
203,145,50498,1,0,3:0:0:0:
199,148,50573,2,0,P|167:149|125:139,1,53.9999983520508,0|0,3:0|3:0,0:0:0:0:
47,316,50723,6,0,P|99:299|180:314,1,107.999996704102,4|0,3:2|0:0,0:0:0:0:
327,234,51023,2,0,P|273:237|222:220,1,107.999996704102,8|0,0:0|0:0,0:0:0:0:
40,159,51323,2,0,P|90:142|144:145,1,107.999996704102,0|0,3:0|3:0,0:0:0:0:
323,80,51623,5,8,0:0:0:0:
205,271,51773,2,2,P|61:203|38:155,1,215.999993408203,2|0,1:1|3:1,0:0:0:0:
120,359,52223,1,8,0:0:0:0:
254,182,52373,1,0,0:0:0:0:
396,329,52523,6,0,P|402:284|387:207,1,107.999996704102,0|0,1:0|3:0,0:0:0:0:
153,141,52823,2,0,P|257:152|334:81,1,215.999993408203,12|4,0:0|3:2,0:0:0:0:
73,214,53273,6,0,P|63:267|69:320,1,107.999996704102,0|0,3:0|3:0,0:0:0:0:
146,132,53573,1,0,3:0:0:0:
334,230,53723,5,8,1:2:0:0:
139,123,53873,1,0,3:0:0:0:
334,22,54023,1,8,1:2:0:0:
403,294,54173,6,0,B|339:344|274:303|274:303|237:293|189:317,1,215.999993408203,4|0,0:0|3:0,0:0:0:0:
35,115,54623,1,8,3:0:0:0:
86,130,54698,1,8,3:0:0:0:
139,123,54773,1,8,3:0:0:0:
186,96,54848,1,8,3:0:0:0:
218,54,54923,1,12,3:0:0:0:
338,124,55073,5,0,3:0:0:0:
377,258,55223,2,0,B|340:273|303:250|303:250|295:268|295:268|267:251|201:256,1,161.999995056153,8|0,0:0|0:0,0:0:0:0:
181,350,55523,6,0,P|200:305|99:172,2,215.999993408203,4|8|0,0:0|0:0|3:0,0:0:0:0:
90,284,56273,1,0,3:0:0:0:
266,151,56423,2,0,P|290:165|379:171,1,107.999996704102,8|0,0:0|0:0,0:0:0:0:
461,327,56723,6,0,B|379:278|309:321|309:321|331:355|375:347,2,215.999993408203,0|8|0,3:0|0:0|3:0,0:0:0:0:
492,213,57473,1,0,3:0:0:0:
300,224,57623,1,8,0:0:0:0:
388,50,57773,5,8,3:0:0:0:
196,61,57923,2,0,P|179:114|185:183,1,107.999996704102,0|0,3:0|0:0,0:0:0:0:
347,299,58223,2,0,P|311:259|264:234,1,107.999996704102,8|0,0:0|0:0,0:0:0:0:
64,310,58523,2,0,P|116:298|162:270,1,107.999996704102,0|0,3:0|3:0,0:0:0:0:
331,145,58823,5,8,0:0:0:0:
428,369,58973,2,0,B|383:327|328:334|328:334|283:373|223:350,1,215.999993408203,4|0,0:0|3:0,0:0:0:0:
16,212,59423,5,8,0:0:0:0:
218,135,59573,1,0,3:0:0:0:
228,352,59723,1,8,1:2:0:0:
228,352,60023,2,0,P|240:304|274:253,1,107.999996704102,8|0,1:2|0:0,0:0:0:0:
432,168,60323,6,0,B|311:207|346:123|185:172,2,215.999993408203,4|8|0,0:0|0:0|3:0,0:0:0:0:
381,72,61073,1,0,3:0:0:0:
271,255,61223,2,0,B|276:289|282:302|282:302|276:315|276:315|287:334|286:358,1,107.999996704102,8|0,0:0|0:0,0:0:0:0:
325,167,61523,6,0,B|243:155|243:155|197:175|197:175|123:136,2,215.999993408203,0|8|0,3:0|0:0|3:0,0:0:0:0:
432,180,62273,1,0,3:0:0:0:
257,41,62423,1,8,0:0:0:0:
121,249,62573,6,0,B|206:262|206:262|256:241|256:241|352:255,1,215.999993408203,4|0,3:2|3:0,0:0:0:0:
352,110,63023,5,8,1:2:0:0:
140,144,63173,1,0,3:0:0:0:
458,130,63323,5,8,1:2:0:0:
246,96,63473,1,0,3:0:0:0:
240,95,63548,1,0,3:0:0:0:
234,94,63623,2,0,L|245:161,1,53.9999983520508,8|0,3:2|3:0,0:0:0:0:
431,286,63773,2,2,L|439:232,1,53.9999983520508,10|2,3:0|3:0,0:0:0:0:
172,355,63923,5,4,1:2:0:0:
118,21,64823,5,0,3:0:0:0:
167,35,72173,5,0,3:0:0:0:
80,97,72323,2,0,B|83:125|66:151|66:151|87:190|87:190|55:213|55:213|76:248|60:295,1,216,4|8,1:2|3:0,0:0:0:0:
64,292,72823,1,8,3:0:0:0:
64,296,72873,1,8,3:0:0:0:
64,300,72923,1,8,3:0:0:0:
64,304,72973,1,8,3:0:0:0:
420,361,73373,2,0,L|426:307,1,36,0|0,3:0|3:0,0:0:0:0:
488,178,73523,5,8,3:2:0:0:
429,145,73623,1,8,3:2:0:0:
366,168,73723,1,8,3:2:0:0:
333,226,73823,1,8,3:2:0:0:
273,258,73923,1,8,3:2:0:0:
205,258,74023,1,8,3:2:0:0:
156,211,74123,1,8,3:2:0:0:
60,317,74423,5,2,0:0:0:0:
60,317,74723,6,0,P|67:276|15:181,1,144,4|0,0:0|1:0,0:0:0:0:
54,106,75173,1,0,1:0:0:0:
131,68,75323,2,0,P|171:69|205:55,1,72,0|0,3:0|0:0,0:0:0:0:
285,70,75623,1,0,1:0:0:0:
342,134,75773,6,0,B|289:170|235:136|235:136|211:136|180:150,1,144,0|0,3:0|3:0,0:0:0:0:
134,190,76223,1,0,1:0:0:0:
154,272,76373,2,0,P|152:237|145:201,1,72,0|0,1:0|3:0,0:0:0:0:
173,357,76673,5,0,0:0:0:0:
253,326,76823,2,0,P|277:299|297:269,1,72,0|0,1:0|0:0,0:0:0:0:
349,182,77123,6,0,P|339:252|362:320,1,144,0|0,3:0|1:0,0:0:0:0:
397,109,77573,1,0,1:0:0:0:
310,104,77723,2,0,P|274:111|238:112,1,72,0|0,3:0|0:0,0:0:0:0:
153,96,78023,1,0,1:0:0:0:
86,151,78173,6,0,B|77:210|77:210|87:236|87:236|77:306,1,144,0|0,3:0|3:0,0:0:0:0:
144,348,78623,1,0,1:0:0:0:
229,335,78773,2,0,L|300:324,1,72,4|0,1:0|3:0,0:0:0:0:
144,348,79073,5,0,0:0:0:0:
157,262,79223,2,0,L|167:190,1,72,0|0,1:0|0:0,0:0:0:0:
285,63,79523,6,0,B|298:148|298:148|283:178|253:179,1,144,4|0,0:0|1:0,0:0:0:0:
167,190,79973,1,0,1:0:0:0:
93,143,80123,2,0,P|94:108|85:73,1,72,0|0,3:0|0:0,0:0:0:0:
167,190,80423,1,0,1:0:0:0:
85,230,80573,6,0,P|75:264|77:300,1,72,0|0,3:0|0:0,0:0:0:0:
202,343,80873,2,0,P|203:308|194:273,1,72,0|0,3:0|1:0,0:0:0:0:
307,204,81173,1,0,1:0:0:0:
288,335,81323,1,0,3:0:0:0:
288,335,81623,2,0,P|322:330|380:333,1,72,0|0,1:0|0:0,0:0:0:0:
456,240,81923,6,0,P|448:206|454:148,1,72,4|0,3:2|0:0,0:0:0:0:
348,64,82223,1,0,1:0:0:0:
250,87,82373,1,0,1:0:0:0:
196,172,82523,2,0,P|149:173|117:164,1,72,0|0,3:0|0:0,0:0:0:0:
250,87,82823,1,0,1:0:0:0:
246,276,82973,5,8,1:2:0:0:
70,165,83123,1,0,1:0:0:0:
258,83,83273,1,0,3:0:0:0:
266,79,83348,1,0,3:0:0:0:
274,75,83423,1,8,3:0:0:0:
410,242,83573,1,0,3:0:0:0:
282,71,83723,5,8,3:0:0:0:
246,281,83873,1,8,3:2:0:0:
247,287,83948,1,8,3:2:0:0:
248,292,84023,1,8,3:2:0:0:
410,242,84173,1,8,3:2:0:0:
410,236,84248,1,8,3:2:0:0:
411,231,84323,6,0,P|351:245|263:155,1,180,4|8,0:0|0:0,0:0:0:0:
280,82,84773,1,0,0:0:0:0:
194,111,84923,2,0,P|160:114|92:104,1,90,0|0,3:0|0:0,0:0:0:0:
285,70,85223,1,8,0:0:0:0:
230,246,85373,6,0,P|239:203|261:164,1,90,0|0,0:0|3:0,0:0:0:0:
85,193,85673,2,0,P|118:224|141:263,1,90,0|8,0:0|0:0,0:0:0:0:
202,94,85973,2,0,P|160:106|115:107,1,90,0|0,0:0|3:0,0:0:0:0:
140,262,86273,5,0,0:0:0:0:
317,231,86423,1,8,0:0:0:0:
202,94,86573,1,8,3:0:0:0:
102,356,86723,6,0,B|210:373|174:314|307:329,1,180,0|8,3:0|0:0,0:0:0:0:
455,336,87173,1,0,0:0:0:0:
317,231,87323,1,0,3:0:0:0:
475,146,87473,2,0,P|479:194|476:246,1,90,0|8,0:0|0:0,0:0:0:0:
259,154,87773,6,0,P|300:135|345:137,1,90,0|0,0:0|3:0,0:0:0:0:
170,138,88073,2,0,P|185:96|218:66,1,90,0|8,0:0|0:0,0:0:0:0:
95,190,88373,2,0,P|76:149|78:104,1,90,0|0,0:0|3:0,0:0:0:0:
119,24,88673,1,0,0:0:0:0:
345,137,88823,1,8,3:2:0:0:
345,137,89123,6,0,L|353:233,1,90,4|0,0:0|0:0,0:0:0:0:
209,260,89423,2,0,L|216:170,1,90,8|0,0:0|0:0,0:0:0:0:
313,319,89723,1,0,3:0:0:0:
133,331,89873,1,0,3:0:0:0:
216,170,90023,1,8,0:0:0:0:
46,120,90174,6,0,P|51:165|71:205,1,90,0|0,0:0|3:0,0:0:0:0:
200,82,90473,2,0,P|158:64|114:62,1,90,0|8,0:0|0:0,0:0:0:0:
155,234,90773,2,0,P|190:207|215:169,1,90,0|0,0:0|3:0,0:0:0:0:
287,115,91073,1,0,0:0:0:0:
131,143,91223,1,8,0:0:0:0:
249,255,91373,5,8,3:0:0:0:
438,293,91523,2,0,P|448:244|446:182,1,90,4|0,0:0|0:0,0:0:0:0:
253,267,91823,1,8,3:0:0:0:
373,381,91973,2,0,P|357:333|324:280,1,90,0|0,0:0|3:0,0:0:0:0:
155,371,92273,1,0,0:0:0:0:
257,279,92423,1,8,0:0:0:0:
80,233,92573,5,0,3:0:0:0:
77,232,92648,1,0,3:0:0:0:
73,230,92723,1,8,3:2:0:0:
215,103,92873,5,0,3:0:0:0:
218,101,92948,1,0,3:0:0:0:
222,100,93023,1,0,3:0:0:0:
260,289,93173,1,8,3:0:0:0:
421,151,93323,5,0,1:0:0:0:
237,193,93473,1,0,3:0:0:0:
279,377,93623,1,0,3:0:0:0:
463,335,93773,1,0,3:0:0:0:
237,193,93923,6,0,P|203:186|157:184,1,72,4|0,0:0|0:0,0:0:0:0:
163,96,94223,2,0,P|198:93|234:86,1,72,8|0,0:0|0:0,0:0:0:0:
240,83,94448,1,0,3:0:0:0:
246,79,94523,1,0,3:0:0:0:
91,143,94673,2,0,P|55:140|19:133,1,72,0|8,0:0|0:0,0:0:0:0:
169,272,94973,1,0,1:0:0:0:
169,272,95273,5,0,1:0:0:0:
246,191,95423,1,8,0:0:0:0:
323,272,95573,1,0,3:0:0:0:
324,275,95648,1,0,3:0:0:0:
325,278,95723,2,0,L|400:264,1,72,0|0,3:0|3:0,0:0:0:0:
181,258,96023,2,0,L|233:206,1,72,8|0,0:0|0:0,0:0:0:0:
329,86,96323,6,0,P|293:91|240:66,1,72,4|0,0:0|0:0,0:0:0:0:
201,144,96623,2,0,P|223:172|228:231,1,72,8|0,0:0|0:0,0:0:0:0:
230,214,96848,1,0,3:0:0:0:
228,221,96923,1,0,3:0:0:0:
349,281,97073,2,0,P|362:247|410:213,1,72,0|8,3:0|0:0,0:0:0:0:
212,351,97373,5,0,1:0:0:0:
212,351,97673,1,0,1:0:0:0:
104,319,97823,1,8,0:0:0:0:
186,243,97973,1,0,3:0:0:0:
294,275,98123,2,0,P|340:267|377:253,1,72,0|0,3:0|0:0,0:0:0:0:
179,240,98423,2,0,P|133:232|96:218,1,72,8|0,0:0|3:0,0:0:0:0:
66,119,98648,1,0,3:0:0:0:
67,110,98723,5,8,0:0:0:0:
271,45,98873,1,0,3:0:0:0:
123,48,99023,5,8,1:2:0:0:
327,113,99173,1,0,3:0:0:0:
109,223,99323,5,8,1:2:0:0:
313,288,99473,1,0,3:0:0:0:
165,285,99623,5,8,1:2:0:0:
369,220,99773,1,0,3:0:0:0:
168,127,99923,5,8,1:2:0:0:
313,288,100073,1,0,3:0:0:0:
274,69,100223,5,8,1:2:0:0:
313,296,100373,1,0,3:0:0:0:
389,102,100523,5,8,1:2:0:0:
313,304,100673,1,0,3:0:0:0:
446,206,100823,5,8,0:0:0:0:
313,312,100973,1,0,3:0:0:0:
313,320,101048,1,0,3:0:0:0:
313,328,101123,5,8,1:2:0:0:
212,152,101273,1,0,3:0:0:0:
454,206,101423,1,0,3:0:0:0:
313,336,101573,5,8,1:2:0:0:
204,152,101723,1,0,3:0:0:0:
462,206,101873,1,0,3:0:0:0:
313,344,102023,5,8,1:2:0:0:
196,152,102173,1,0,3:0:0:0:
188,152,102248,1,0,3:0:0:0:
180,152,102323,2,0,P|178:183|182:210,3,36,0|0|0|0,3:0|3:0|3:0|3:0,0:0:0:0:
310,67,102623,2,0,P|279:65|252:69,3,36,8|0|0|0,3:0|3:0|3:0|3:0,0:0:0:0:
431,219,102923,5,8,3:2:0:0:
428,132,103073,1,0,3:0:0:0:
316,258,103223,5,8,3:2:0:0:
313,344,103373,1,0,3:0:0:0:
200,172,103523,6,0,P|140:164|73:179,1,107.999996704102,4|0,3:2|0:0,0:0:0:0:
316,258,103823,2,0,P|376:266|443:251,1,107.999996704102,8|0,0:0|0:0,0:0:0:0:
311,140,104123,1,0,3:0:0:0:
206,303,104273,1,0,3:0:0:0:
88,148,104423,5,8,0:0:0:0:
309,46,104573,2,2,P|329:130|314:262,1,215.999993408203,2|0,1:1|3:1,0:0:0:0:
94,330,105023,1,8,0:0:0:0:
190,161,105173,1,0,0:0:0:0:
377,109,105323,6,0,P|426:128|480:126,1,107.999996704102,0|0,1:0|3:0,0:0:0:0:
230,70,105623,2,0,B|106:53|150:124|21:98,1,215.999993408203,8|4,0:0|3:2,0:0:0:0:
279,163,106073,6,0,P|294:224|288:278,1,107.999996704102,0|8,0:0|0:0,0:0:0:0:
313,60,106373,1,0,0:0:0:0:
194,226,106523,2,0,P|239:182|289:160,1,107.999996704102,0|0,3:0|3:0,0:0:0:0:
451,263,106823,5,8,0:0:0:0:
231,325,106973,2,0,B|154:346|95:280|95:280|47:279|23:323,1,215.999993408203,4|0,0:0|3:0,0:0:0:0:
103,137,107423,1,8,3:0:0:0:
153,154,107498,1,8,3:0:0:0:
206,148,107573,1,8,3:0:0:0:
252,120,107648,1,8,3:0:0:0:
282,75,107723,1,0,3:0:0:0:
174,30,107873,5,0,3:0:0:0:
371,129,108023,1,0,3:0:0:0:
375,131,108098,1,0,3:0:0:0:
379,133,108173,2,0,L|440:124,1,53.9999983520508,0|0,3:0|3:0,0:0:0:0:
333,331,108323,6,0,L|220:314,1,107.999996704102,4|0,3:2|0:0,0:0:0:0:
379,133,108623,2,0,L|420:238,1,107.999996704102,8|0,0:0|0:0,0:0:0:0:
184,192,108923,1,0,3:0:0:0:
295,32,109073,1,0,3:0:0:0:
101,15,109223,5,8,0:0:0:0:
60,287,109373,2,2,B|142:275|142:275|188:295|188:295|262:256,1,215.999993408203,2|0,1:1|3:1,0:0:0:0:
389,134,109823,1,8,0:0:0:0:
193,81,109973,1,0,0:0:0:0:
379,235,110123,6,0,B|399:196|399:196|388:133,1,107.999996704102,0|0,1:0|3:0,0:0:0:0:
235,337,110423,2,0,B|314:323|314:323|351:344|351:344|442:327,1,215.999993408203,12|4,0:0|3:2,0:0:0:0:
158,255,110873,6,0,B|119:275|119:275|56:264,1,107.999996704102,0|8,3:0|3:0,0:0:0:0:
259,196,111173,1,0,3:0:0:0:
105,176,111323,5,8,1:2:0:0:
266,46,111473,1,0,3:0:0:0:
396,207,111623,1,8,1:2:0:0:
235,337,111773,6,0,B|161:356|88:322|88:322|86:287|126:253,1,215.999993408203,4|0,0:0|3:0,0:0:0:0:
371,115,112223,1,8,3:0:0:0:
424,114,112298,1,8,3:0:0:0:
469,143,112373,1,8,3:0:0:0:
491,191,112448,1,8,3:0:0:0:
484,244,112523,1,12,3:0:0:0:
379,339,112673,1,0,3:0:0:0:
255,240,112823,2,0,B|220:234|201:248|201:248|177:234|177:234|163:257|163:257|138:252|101:269,1,161.999995056153,8|0,0:0|0:0,0:0:0:0:
58,358,113123,6,0,P|76:318|24:155,2,215.999993408203,4|8|0,0:0|0:0|3:0,0:0:0:0:
152,143,113873,1,0,3:0:0:0:
294,308,114023,2,0,P|345:309|401:280,1,107.999996704102,8|0,0:0|0:0,0:0:0:0:
443,73,114323,6,0,B|422:144|475:213|475:213|512:157,2,215.999993408203,0|8|0,3:0|0:0|3:0,0:0:0:0:
349,17,115073,1,0,3:0:0:0:
308,206,115223,1,8,0:0:0:0:
156,84,115373,5,0,3:0:0:0:
115,273,115523,2,0,P|109:230|66:170,1,107.999996704102,0|0,3:0|0:0,0:0:0:0:
308,206,115823,2,0,P|273:232|243:299,1,107.999996704102,8|0,0:0|0:0,0:0:0:0:
153,72,116123,2,0,P|193:88|266:81,1,107.999996704102,0|0,3:0|3:0,0:0:0:0:
447,28,116423,5,8,0:0:0:0:
403,233,116573,2,0,B|337:213|290:243|290:243|237:255|178:226,1,215.999993408203,4|0,0:0|3:0,0:0:0:0:
45,83,117023,5,8,0:0:0:0:
259,141,117173,1,0,0:0:0:0:
133,322,117323,1,8,1:2:0:0:
133,322,117623,2,0,P|198:319|258:353,1,107.999996704102,8|0,1:2|0:0,0:0:0:0:
468,301,117923,6,0,B|449:336|416:344|416:344|371:321|355:258|383:208,2,215.999993408203,4|8|0,0:0|0:0|3:0,0:0:0:0:
281,357,118673,1,0,3:0:0:0:
142,207,118823,2,0,P|88:202|37:218,1,107.999996704102,8|0,0:0|0:0,0:0:0:0:
293,173,119123,6,0,P|411:194|499:126,2,215.999993408203,0|8|0,3:0|0:0|3:0,0:0:0:0:
163,48,119873,1,0,3:0:0:0:
375,57,120023,1,8,0:0:0:0:
251,272,120173,6,0,L|274:28,1,215.999993408203,4|0,0:0|3:0,0:0:0:0:
377,334,120623,5,8,1:2:0:0:
127,358,120773,1,0,3:0:0:0:
384,340,120923,1,8,1:2:0:0:
155,197,121073,1,0,3:0:0:0:
149,197,121148,1,0,3:0:0:0:
143,198,121223,2,0,L|75:204,1,53.9999983520508,8|0,3:2|3:0,0:0:0:0:
283,98,121373,2,0,L|311:36,1,53.9999983520508,0|0,3:0|3:0,0:0:0:0:
299,269,121523,1,4,1:2:0:0:
89,203,122423,5,0,3:0:0:0:
133,111,127523,5,0,3:0:0:0:
200,40,127673,2,0,L|207:11,2,30,2|2|2,3:0|0:0|0:0,0:0:0:0:
221,133,127823,2,0,L|248:232,1,90,2|0,3:0|3:0,0:0:0:0:
276,312,128123,1,0,3:0:0:0:
356,351,128273,6,2,L|473:333,1,90,2|2,3:0|3:0,0:0:0:0:
276,312,128573,2,2,L|159:294,1,90,2|2,3:0|3:0,0:0:0:0:
356,273,128873,1,2,3:0:0:0:
277,232,129023,1,2,3:0:0:0:
273,231,129098,1,2,0:0:0:0:
269,230,129173,1,2,3:0:0:0:
363,190,129323,5,2,0:0:0:0:
367,191,129398,1,2,0:0:0:0:
371,192,129473,2,0,L|411:185,2,22.5,2|0|0,3:0|0:0|0:0,0:0:0:0:
283,146,129623,1,0,3:0:0:0:
194,132,129773,1,2,3:0:0:0:
105,146,129923,5,0,3:0:0:0:
104,151,129998,1,0,3:0:0:0:
103,156,130073,1,0,3:0:0:0:
103,162,130148,1,0,3:0:0:0:
102,167,130223,1,0,3:0:0:0:
102,172,130298,1,0,3:0:0:0:
101,178,130373,1,0,3:0:0:0:
101,183,130448,1,0,3:0:0:0:
100,189,130523,1,0,3:0:0:0:
100,194,130598,1,0,3:0:0:0:
99,199,130673,1,0,3:0:0:0:
99,205,130748,1,0,3:0:0:0:
98,210,130823,1,0,3:0:0:0:
98,215,130898,1,0,3:0:0:0:
97,221,130973,1,0,3:0:0:0:
97,226,131048,1,0,3:0:0:0:
96,232,131123,1,8,3:0:0:0:
96,232,131723,6,0,L|127:228,1,31.4999990386963,2|0,0:0|0:0,0:0:0:0:
100,246,131873,2,0,L|131:242,1,31.4999990386963,2|0,0:0|0:0,0:0:0:0:
297,147,132023,6,0,L|265:143,1,31.4999990386963,2|0,0:0|0:0,0:0:0:0:
293,161,132173,2,0,L|261:157,1,31.4999990386963,2|0,0:0|0:0,0:0:0:0:
405,256,132323,6,0,P|395:223|404:179,1,58.4999973220826,4|0,0:0|0:0,0:0:0:0:
482,95,132473,2,0,P|482:124|473:151,1,58.4999973220826,0|0,3:0|0:0,0:0:0:0:
304,339,132623,2,2,P|399:286|479:360,1,233.999989288331,2|2,3:0|0:0,0:0:0:0:
191,373,133073,2,2,P|166:328|95:304,1,116.999994644165,2|2,0:0|0:0,0:0:0:0:
0,191,133373,5,0,3:0:0:0:
53,170,133448,1,0,3:0:0:0:
83,121,133523,1,8,1:3:0:0:
235,41,133673,6,2,P|236:75|250:109,1,58.4999973220826,2|2,0:0|0:0,0:0:0:0:
352,171,133823,1,2,0:0:0:0:
353,165,133898,1,2,0:0:0:0:
355,159,133973,1,2,0:0:0:0:
228,256,134123,1,2,0:0:0:0:
230,262,134198,2,2,L|242:297,4,29.2499986610413,2|2|2|2|2,0:0|0:0|0:0|0:0|0:0,0:0:0:0:
357,153,134423,6,0,P|358:126|373:81,1,58.4999973220826,2|0,0:0|0:0,0:0:0:0:
410,276,134573,2,0,P|432:290|464:325,1,58.4999973220826,2|0,0:0|0:0,0:0:0:0:
226,250,134723,6,0,P|202:262|146:257,1,58.4999973220826,4|0,0:0|0:0,0:0:0:0:
83,121,134873,2,0,P|106:133|163:128,1,58.4999973220826,0|0,3:0|0:0,0:0:0:0:
343,42,135023,2,2,P|333:89|485:167,1,233.999989288331,2|2,3:0|0:0,0:0:0:0:
382,363,135473,2,2,P|313:350|262:367,1,116.999994644165,2|2,0:0|0:0,0:0:0:0:
74,275,135773,6,2,P|73:252|68:237,2,29.2499986610413,2|2|2,0:0|0:0|0:0,0:0:0:0:
15,191,135923,2,0,P|66:206|141:163,1,116.999994644165,8|0,1:3|0:0,0:0:0:0:
271,81,136223,6,0,P|248:82|233:87,2,29.2499986610413,0|0|0,0:0|0:0|0:0,0:0:0:0:
395,229,136373,1,0,0:0:0:0:
396,223,136448,1,0,0:0:0:0:
397,217,136523,2,0,P|341:246|342:170,1,157.5,8|0,1:3|0:0,0:0:0:0:
421,323,137123,6,0,P|371:337|297:319,1,116.999994644165,4|0,0:0|3:0,0:0:0:0:
235,275,137323,1,0,0:0:0:0:
231,281,137373,1,0,0:0:0:0:
228,288,137423,2,2,B|200:324|154:312|154:312|143:325|143:325|132:313|132:313|85:265|-4:292,1,233.999989288331,2|2,3:0|0:0,0:0:0:0:
101,134,137873,2,0,P|152:128|217:83,1,116.999994644165,0|0,0:0|0:0,0:0:0:0:
397,50,138173,5,0,3:0:0:0:
445,81,138248,1,0,3:0:0:0:
503,89,138323,1,8,1:3:0:0:
494,271,138473,2,0,P|457:278|427:292,1,58.4999973220826,2|0,0:0|0:0,0:0:0:0:
303,353,138623,1,2,0:0:0:0:
297,351,138698,1,2,0:0:0:0:
291,350,138773,1,2,0:0:0:0:
200,242,138923,1,2,0:0:0:0:
206,240,138998,2,2,L|241:227,4,29.2499986610413,2|2|2|2|2,0:0|0:0|0:0|0:0|0:0,0:0:0:0:
93,308,139223,6,0,P|96:279|114:239,1,58.4999973220826,2|0,0:0|0:0,0:0:0:0:
270,90,139373,2,0,P|280:117|283:146,1,58.4999973220826,2|0,0:0|0:0,0:0:0:0:
381,347,139523,6,0,P|381:315|396:273,1,58.4999973220826,4|0,0:0|0:0,0:0:0:0:
490,186,139673,2,0,P|497:214|496:243,1,58.4999973220826,0|0,3:0|0:0,0:0:0:0:
303,363,139823,2,0,B|299:320|309:258|342:207|342:207|311:234|274:231,1,233.999989288331,2|0,3:0|0:0,0:0:0:0:
50,211,140273,2,0,P|107:223|163:206,1,116.999994644165,2|0,0:0|0:0,0:0:0:0:
8,101,140574,5,2,0:0:0:0:
148,34,140723,2,0,P|203:16|260:28,1,116.999994644165,8|0,3:0|0:0,0:0:0:0:
264,32,140948,1,2,0:0:0:0:
268,35,141023,1,0,3:0:0:0:
368,151,141173,1,0,3:0:0:0:
268,267,141323,5,0,3:0:0:0:
218,290,141398,1,0,3:0:0:0:
181,250,141473,1,0,3:0:0:0:
207,202,141548,1,0,3:0:0:0:
261,213,141623,1,8,3:2:0:0:
163,302,141773,5,8,3:2:0:0:
139,259,143123,6,0,P|135:224|140:188,1,72,4|0,0:0|0:0,0:0:0:0:
276,267,143423,2,0,P|248:288|215:303,1,72,0|0,3:0|0:0,0:0:0:0:
214,144,143723,2,0,P|246:158|275:179,1,72,0|0,3:0|0:0,0:0:0:0:
43,171,144023,5,0,3:0:0:0:
145,57,144173,2,0,P|181:42|240:34,1,90,0|0,1:2|0:0,0:0:0:0:
405,167,144473,1,0,1:0:0:0:
214,144,144623,5,0,3:0:0:0:
312,93,144773,1,0,0:0:0:0:
214,144,144923,2,0,P|209:195|219:239,1,72,0|0,3:0|0:0,0:0:0:0:
263,284,145223,1,0,3:0:0:0:
105,262,145373,1,0,1:0:0:0:
263,284,145523,6,0,L|341:273,1,72,4|0,0:0|0:0,0:0:0:0:
192,237,145823,2,0,L|239:174,1,72,0|0,3:0|0:0,0:0:0:0:
108,253,146123,2,0,L|97:174,1,72,0|0,3:0|0:0,0:0:0:0:
169,339,146423,1,0,3:0:0:0:
278,273,146573,5,8,3:0:0:0:
285,271,146648,1,0,3:0:0:0:
292,270,146723,1,0,3:0:0:0:
364,174,146873,1,8,3:0:0:0:
357,173,146948,1,0,3:0:0:0:
350,172,147023,1,0,3:0:0:0:
426,278,147173,5,0,1:0:0:0:
343,171,147323,1,0,3:0:0:0:
271,275,147473,1,0,3:0:0:0:
354,382,147623,2,0,P|352:339|348:294,1,72,0|0,3:0|0:0,0:0:0:0:
121,138,147923,5,12,3:0:0:0:
153,167,147998,1,0,3:0:0:0:
197,176,148073,1,0,3:0:0:0:
239,160,148148,1,0,3:0:0:0:
267,126,148223,1,8,3:0:0:0:
294,91,148298,1,0,3:0:0:0:
336,75,148373,1,0,3:0:0:0:
380,84,148448,1,0,3:0:0:0:
413,114,148523,1,8,3:0:0:0:
440,148,148598,1,0,3:0:0:0:
446,192,148673,1,0,3:0:0:0:
428,233,148748,1,0,3:0:0:0:
391,258,148823,1,8,3:0:0:0:
370,296,148898,1,0,3:0:0:0:
377,340,148973,1,0,3:0:0:0:
411,368,149048,1,0,3:0:0:0:
455,368,149123,5,12,3:0:0:0:
426,334,149198,1,0,3:0:0:0:
384,317,149273,1,0,3:0:0:0:
340,322,149348,1,0,3:0:0:0:
303,347,149423,1,8,3:0:0:0:
266,372,149498,1,0,3:0:0:0:
222,377,149573,1,0,3:0:0:0:
180,360,149648,1,0,3:0:0:0:
151,326,149723,1,8,3:0:0:0:
132,285,149798,1,0,3:0:0:0:
138,241,149873,1,0,3:0:0:0:
166,206,149948,1,0,3:0:0:0:
208,192,150023,1,8,3:0:0:0:
246,170,150098,1,0,3:0:0:0:
268,131,150173,1,0,3:0:0:0:
265,87,150248,1,0,3:0:0:0:
239,51,150323,6,0,P|189:40|108:143,1,180,12|0,3:0|3:0,0:0:0:0:
138,241,150773,1,2,3:0:0:0:
138,241,150923,2,0,L|235:230,1,90,0|0,3:0|0:0,0:0:0:0:
284,127,151223,2,0,B|217:120|217:120|183:131|183:131|99:122,4,180,2|0|0|0|0,3:0|3:0|3:0|3:0|3:0,0:0:0:0:
391,134,152573,5,0,0:0:0:0:
339,219,152723,2,0,P|352:267|348:348,2,90,2|0|0,3:0|0:0|0:0,0:0:0:0:
284,127,153173,2,0,P|235:114|167:70,2,90,2|0|0,3:0|0:0|0:0,0:0:0:0:
391,125,153623,2,0,P|426:89|498:52,1,90,2|0,3:0|0:0,0:0:0:0:
147,94,154973,5,0,0:0:0:0:
86,208,155123,2,0,P|81:247|81:285,1,72,4|0,0:0|0:0,0:0:0:0:
217,280,155423,2,0,P|216:244|211:208,1,72,0|0,3:0|0:0,0:0:0:0:
147,94,155723,2,0,P|197:107|286:68,2,144,0|0|0,3:0|3:0|3:0,0:0:0:0:
38,60,156473,1,0,0:0:0:0:
38,60,156623,2,0,P|43:111|31:144,1,72,0|0,3:0|0:0,0:0:0:0:
78,207,156923,2,0,P|129:202|162:214,1,72,0|0,3:0|0:0,0:0:0:0:
211,266,157223,2,0,P|183:223|207:122,1,144,0|0,3:0|3:0,0:0:0:0:
277,103,157673,5,0,0:0:0:0:
277,103,157823,2,0,L|350:93,1,72,0|0,3:0|0:0,0:0:0:0:
345,182,158123,2,0,L|273:191,1,72,0|0,3:0|0:0,0:0:0:0:
347,268,158423,1,0,3:0:0:0:
347,268,158573,2,0,L|418:277,1,72,0|0,0:0|3:0,0:0:0:0:
283,327,158873,1,0,0:0:0:0:
283,326,159023,2,0,L|211:335,1,72,0|0,3:0|0:0,0:0:0:0:
137,291,159323,2,0,L|158:136,1,144,0|0,3:0|3:0,0:0:0:0:
172,63,159773,5,0,0:0:0:0:
302,37,159923,2,0,P|341:31|388:30,1,72,0|0,3:0|0:0,0:0:0:0:
279,145,160223,2,0,P|310:168|344:200,1,72,0|0,3:0|0:0,0:0:0:0:
186,205,160523,2,0,P|192:244|188:363,2,144,0|0|0,3:0|3:0|3:0,0:0:0:0:
120,147,161273,1,0,0:0:0:0:
120,147,161423,2,0,P|85:152|49:149,1,72,0|0,3:0|0:0,0:0:0:0:
191,98,161723,2,0,P|217:103|277:96,1,72,0|0,3:0|0:0,0:0:0:0:
319,35,162023,2,0,B|291:115|344:94|313:186,1,144,0|0,3:0|3:0,0:0:0:0:
290,258,162473,5,0,0:0:0:0:
290,258,162623,2,0,L|205:267,1,72,0|0,3:0|0:0,0:0:0:0:
166,132,162923,2,0,L|237:139,1,72,0|0,3:0|0:0,0:0:0:0:
98,186,163223,1,0,3:0:0:0:
98,186,163373,2,0,L|26:193,1,72,0|0,0:0|3:0,0:0:0:0:
146,258,163673,1,0,0:0:0:0:
146,258,163823,2,0,L|217:265,1,72,0|0,3:0|0:0,0:0:0:0:
276,336,164123,2,0,B|304:308|304:308|315:199,1,144,0|0,3:0|3:0,0:0:0:0:
314,203,164723,6,0,P|356:189|401:184,1,90,4|0,3:2|0:0,0:0:0:0:
235,158,165023,2,0,P|189:143|139:139,1,90,0|0,3:0|0:0,0:0:0:0:
314,112,165323,2,0,P|360:97|410:93,1,90,0|0,3:0|0:0,0:0:0:0:
235,66,165623,5,0,3:0:0:0:
147,46,165773,1,0,3:0:0:0:
71,94,165923,2,0,P|62:141|68:192,1,90,0|0,3:0|0:0,0:0:0:0:
160,282,166223,2,0,P|163:237|154:194,1,90,0|0,3:0|0:0,0:0:0:0:
121,364,166523,5,0,3:0:0:0:
210,358,166673,1,0,3:0:0:0:
302,259,166823,1,0,3:0:0:0:
391,265,166973,1,0,3:0:0:0:
302,259,167123,6,0,P|297:208|301:155,1,90,0|0,3:0|0:0,0:0:0:0:
161,56,167423,2,0,P|203:74|240:99,1,90,0|0,3:0|0:0,0:0:0:0:
406,35,167723,2,0,P|369:61|329:82,1,90,0|0,3:0|0:0,0:0:0:0:
161,56,168023,5,0,3:0:0:0:
72,74,168173,1,0,3:0:0:0:
21,149,168323,2,0,L|13:253,1,90,0|0,3:0|0:0,0:0:0:0:
150,262,168623,2,0,L|143:172,1,90,0|0,3:0|0:0,0:0:0:0:
14,238,168923,5,0,3:0:0:0:
7,327,169073,1,0,3:0:0:0:
157,351,169223,1,0,3:0:0:0:
150,262,169373,1,0,3:0:0:0:
143,173,169523,5,0,3:0:0:0:
143,173,169673,1,0,3:0:0:0:
256,100,169823,5,0,3:0:0:0:
256,100,169973,1,0,3:0:0:0:
369,173,170123,5,0,3:0:0:0:
369,173,170273,1,0,3:0:0:0:
256,246,170423,5,0,3:0:0:0:
256,246,170573,1,0,3:0:0:0:
369,319,170723,5,0,3:0:0:0:
369,319,170873,1,0,3:0:0:0:
482,246,171023,5,0,3:0:0:0:
482,246,171173,1,0,3:0:0:0:
369,173,171323,5,0,3:0:0:0:
369,173,171473,1,0,3:0:0:0:
256,246,171623,5,0,3:0:0:0:
256,246,171773,1,0,3:0:0:0:
143,173,171923,5,0,3:0:0:0:
109,167,171998,1,0,3:0:0:0:
76,174,172073,1,0,3:0:0:0:
48,191,172148,1,0,3:0:0:0:
27,218,172223,1,0,3:0:0:0:
17,250,172298,1,0,3:0:0:0:
19,283,172373,1,0,3:0:0:0:
32,314,172448,1,0,3:0:0:0:
55,339,172523,1,0,3:0:0:0:
85,353,172598,1,0,3:0:0:0:
119,357,172673,1,0,3:0:0:0:
151,348,172748,1,0,3:0:0:0:
179,329,172823,1,0,3:0:0:0:
205,308,172898,1,0,3:0:0:0:
237,299,172973,1,0,3:0:0:0:
271,304,173048,1,0,3:0:0:0:
300,320,173123,6,0,P|300:291|292:265,1,45,0|0,3:0|3:0,0:0:0:0:
333,321,173198,2,0,P|323:294|306:272,1,45,0|0,3:0|3:0,0:0:0:0:
363,306,173273,2,0,P|344:284|321:269,1,45,0|0,3:0|3:0,0:0:0:0:
382,279,173348,2,0,P|357:264|330:258,1,45,0|0,3:0|3:0,0:0:0:0:
386,246,173423,2,0,P|357:241|330:244,1,45,0|0,3:0|3:0,0:0:0:0:
374,215,173498,2,0,P|345:219|321:232,1,45,0|0,3:0|3:0,0:0:0:0:
349,193,173573,2,0,P|324:207|305:227,1,45,0|0,3:0|3:0,0:0:0:0:
317,186,173648,2,0,P|298:207|287:233,1,45,0|0,3:0|3:0,0:0:0:0:
284,190,173723,1,2,0:0:0:0:
55,339,174023,5,8,3:0:0:0:
90,218,174173,1,0,3:0:0:0:
186,38,174323,6,0,P|232:43|307:9,1,107.999996704102,4|0,0:0|0:0,0:0:0:0:
394,206,174623,2,0,P|348:201|273:235,1,107.999996704102,8|0,0:0|0:0,0:0:0:0:
463,327,174923,1,0,3:0:0:0:
478,112,175073,1,0,3:0:0:0:
290,220,175223,1,8,0:0:0:0:
101,112,175373,6,2,B|56:113|30:143|30:143|5:192|56:312,1,215.999993408203,2|0,1:1|3:1,0:0:0:0:
253,322,175823,1,8,0:0:0:0:
329,108,175973,1,0,0:0:0:0:
367,311,176123,5,0,1:0:0:0:
219,138,176273,1,0,3:0:0:0:
438,79,176423,2,0,B|460:125|439:177|439:177|462:191|462:191|444:240|481:299,1,215.999993408203,8|4,0:0|3:2,0:0:0:0:
267,357,176873,6,0,P|224:350|158:369,1,107.999996704102,0|8,0:0|0:0,0:0:0:0:
39,209,177173,1,0,0:0:0:0:
232,230,177323,5,0,3:0:0:0:
55,301,177473,1,0,3:0:0:0:
225,91,177623,5,8,0:0:0:0:
415,282,177773,2,0,B|463:209|429:124|429:124|394:142|378:199,1,215.999993408203,4|0,0:0|3:0,0:0:0:0:
232,230,178223,1,8,3:0:0:0:
185,254,178298,1,8,3:0:0:0:
131,256,178373,1,8,3:0:0:0:
82,236,178448,1,8,3:0:0:0:
46,196,178523,1,0,3:0:0:0:
152,106,178673,5,0,3:0:0:0:
232,230,178823,1,8,3:0:0:0:
235,225,178898,1,0,3:0:0:0:
238,221,178973,2,0,P|239:189|229:147,1,53.9999983520508,0|0,3:0|3:0,0:0:0:0:
53,384,179123,6,0,P|103:357|177:354,1,107.999996704102,4|0,0:0|0:0,0:0:0:0:
420,248,179423,2,0,P|371:218|332:155,1,107.999996704102,8|0,0:0|0:0,0:0:0:0:
103,40,179723,1,0,3:0:0:0:
33,242,179873,1,0,3:0:0:0:
235,167,180023,5,8,0:0:0:0:
437,242,180173,2,2,B|471:265|462:308|462:308|428:348|346:341|324:286,1,215.999993408203,2|0,1:1|3:1,0:0:0:0:
232,151,180623,1,8,0:0:0:0:
463,110,180773,1,0,0:0:0:0:
229,135,180923,5,0,1:0:0:0:
437,242,181073,1,0,3:0:0:0:
229,349,181223,2,0,P|162:358|27:264,1,215.999993408203,12|4,0:0|3:2,0:0:0:0:
158,69,181673,6,0,P|198:45|270:47,1,107.999996704102,0|8,3:0|3:0,0:0:0:0:
69,168,181973,1,0,3:0:0:0:
281,253,182123,5,8,1:2:0:0:
54,162,182273,1,0,3:0:0:0:
269,45,182423,1,8,1:2:0:0:
166,311,182573,6,0,B|208:180|120:223|166:85,1,215.999993408203,4|0,0:0|3:0,0:0:0:0:
370,150,183023,1,8,3:0:0:0:
400,194,183098,1,8,3:0:0:0:
412,246,183173,1,8,3:0:0:0:
404,299,183248,1,8,3:0:0:0:
377,345,183323,1,12,3:0:0:0:
281,253,183473,5,0,3:0:0:0:
377,136,183623,2,0,B|350:132|350:132|344:139|344:139|335:131|335:131|309:139|309:139|301:124|301:124|261:138|227:115,1,161.999995056153,8|0,0:0|0:0,0:0:0:0:
196,18,183923,6,0,P|214:95|131:218,2,215.999993408203,4|8|0,0:0|0:0|3:0,0:0:0:0:
82,89,184673,1,0,3:0:0:0:
49,253,184823,2,0,P|48:285|72:358,1,107.999996704102,8|0,0:0|0:0,0:0:0:0:
262,325,185123,6,0,B|321:310|365:354|365:354|424:376|488:332,2,215.999993408203,0|8|0,3:0|0:0|3:0,0:0:0:0:
406,252,185873,1,0,3:0:0:0:
275,79,186023,1,8,0:0:0:0:
170,268,186173,1,0,0:0:0:0:
398,137,186323,6,0,L|513:149,1,107.999996704102,0|0,3:0|0:0,0:0:0:0:
182,162,186623,2,0,L|67:174,1,107.999996704102,8|0,0:0|0:0,0:0:0:0:
272,59,186923,1,0,3:0:0:0:
296,273,187073,1,0,3:0:0:0:
475,79,187223,5,8,0:0:0:0:
448,338,187373,2,0,B|371:347|371:347|338:373|338:373|219:386,1,215.999993408203,4|0,0:0|3:0,0:0:0:0:
82,249,187823,1,8,0:0:0:0:
296,273,187973,1,0,3:0:0:0:
213,73,188123,1,8,1:2:0:0:
213,73,188423,2,0,P|216:137|188:192,1,107.999996704102,8|0,1:2|0:0,0:0:0:0:
296,273,188723,6,0,B|315:308|348:316|348:316|393:293|409:230|381:180,2,215.999993408203,4|8|0,0:0|0:0|3:0,0:0:0:0:
343,88,189473,1,0,3:0:0:0:
125,116,189623,2,0,P|84:115|6:86,1,107.999996704102,8|0,0:0|0:0,0:0:0:0:
303,188,189923,6,0,P|223:296|147:330,2,215.999993408203,0|8|0,3:0|0:0|3:0,0:0:0:0:
350,58,190673,1,0,3:0:0:0:
138,117,190823,1,8,0:0:0:0:
364,273,190973,6,0,L|349:46,1,215.999993408203,4|0,0:0|3:0,0:0:0:0:
130,103,191423,1,8,0:0:0:0:
113,347,191573,1,0,3:0:0:0:
122,89,191723,5,8,3:0:0:0:
364,273,191873,1,0,3:0:0:0:
114,75,192023,5,8,0:0:0:0:
349,57,192173,2,0,L|357:186,1,107.999996704102,0|0,0:0|3:0,0:0:0:0:
364,273,192473,1,0,0:0:0:0:
109,170,192623,5,8,0:0:0:0:
110,266,192773,1,0,0:0:0:0:
241,327,192923,5,8,3:0:0:0:
242,231,193073,1,0,3:0:0:0:
243,135,193223,2,0,B|284:97|284:97|328:123|328:123|393:113,1,161.999995056153,8|0,0:0|0:0,0:0:0:0:
455,195,193523,6,0,P|428:158|492:0,2,215.999993408203,4|8|0,0:0|0:0|3:0,0:0:0:0:
325,33,194273,1,0,3:0:0:0:
153,155,194423,2,0,P|115:168|20:146,1,107.999996704102,8|0,0:0|0:0,0:0:0:0:
261,289,194723,6,0,B|331:247|412:301|412:301|396:334|346:330,2,215.999993408203,0|8|0,3:0|0:0|3:0,0:0:0:0:
123,357,195473,1,0,3:0:0:0:
237,170,195623,1,8,0:0:0:0:
24,132,195773,1,8,3:0:0:0:
133,365,195923,6,0,P|188:368|243:354,1,107.999996704102,0|0,3:0|0:0,0:0:0:0:
343,179,196223,2,0,P|288:182|233:168,1,107.999996704102,8|0,0:0|0:0,0:0:0:0:
21,116,196523,1,0,3:0:0:0:
222,34,196673,1,0,3:0:0:0:
162,273,196823,5,8,0:0:0:0:
445,142,196973,2,0,B|462:266|391:222|417:351,1,215.999993408203,4|0,0:0|3:0,0:0:0:0:
407,38,197423,1,8,0:0:0:0:
270,246,197573,1,0,3:0:0:0:
510,308,197723,1,8,1:2:0:0:
510,308,198023,2,0,P|468:313|411:360,1,107.999996704102,8|0,1:2|0:0,0:0:0:0:
161,292,198323,6,0,P|156:256|112:198,1,107.999996704102,8|0,1:2|0:0,0:0:0:0:
418,173,198623,2,0,P|389:195|361:262,1,107.999996704102,8|0,1:2|0:0,0:0:0:0:
186,9,198923,2,0,P|236:25|289:14,1,107.999996704102,8|0,1:2|3:0,0:0:0:0:
85,50,199223,5,8,1:2:0:0:
255,182,199373,1,0,3:0:0:0:
65,285,199523,2,0,P|61:230|81:160,1,107.999996704102,8|0,0:0|0:0,0:0:0:0:
435,56,199823,2,0,P|446:108|442:162,1,107.999996704102,8|0,1:2|0:0,0:0:0:0:
172,278,200123,5,0,1:2:0:0:
239,50,200273,1,0,3:0:0:0:
374,245,200423,1,0,1:2:0:0:
377,249,200498,1,0,1:0:0:0:
380,253,200573,1,4,1:2:0:0:
