osu file format v14

[General]
AudioFilename: audio.mp3
AudioLeadIn: 0
PreviewTime: 103363
Countdown: 0
SampleSet: Soft
StackLeniency: 0.4
Mode: 0
LetterboxInBreaks: 0
WidescreenStoryboard: 1

[Editor]
Bookmarks: 3613,193513
DistanceSpacing: 1
BeatDivisor: 4
GridSize: 8
TimelineZoom: 1.2

[Metadata]
Title:HIBANA
TitleUnicode:ヒバナ
Artist:soraru x mafumafu
ArtistUnicode:そらる×まふまふ
Creator:Testo
Version:Insane
Source:
Tags:SPARKS 火花 HATSUNE MIKU 10th Anniversary Album Re:Start DECO*27 Vocaloid 初音ミク Akitoshi Djulus
BeatmapID:1539202
BeatmapSetID:691103

[Difficulty]
HPDrainRate:5
CircleSize:3.8
OverallDifficulty:8
ApproachRate:9
SliderMultiplier:1.5
SliderTickRate:1

[Events]
//Background and Video events
0,0,"DECO228.png",0,0
//Break Periods
2,65113,71723
2,122713,126923
2,143113,147323
2,155113,163823
//Storyboard Layer 0 (Background)
//Storyboard Layer 1 (Fail)
//Storyboard Layer 2 (Pass)
//Storyboard Layer 3 (Foreground)
//Storyboard Sound Samples

[TimingPoints]
323,300,4,2,1,75,1,0
323,-100,4,2,1,75,0,0
2423,-166.666666666667,4,2,1,75,0,0
2723,-100,4,2,1,75,0,0
6323,-166.666666666667,4,2,1,75,0,0
7523,-100,4,2,1,75,0,0
17123,-125,4,2,1,65,0,0
21923,-111.111111111111,4,2,1,65,0,0
26723,-100,4,2,1,65,0,0
36323,-125,4,2,1,65,0,0
41123,-100,4,2,1,65,0,0
43523,-100,4,2,1,75,0,0
45923,-90.9090909090909,4,2,1,75,0,1
63923,-100,4,2,1,75,0,0
64523,-76.9230769230769,4,2,1,75,0,0
65123,-100,4,2,1,75,0,0
74723,-142.857142857143,4,2,1,55,0,0
84323,-100,4,2,1,65,0,0
93923,-125,4,2,1,65,0,0
98723,-111.111111111111,4,2,1,75,0,0
101123,-100,4,2,1,75,0,0
103523,-90.9090909090909,4,2,1,75,0,1
121523,-100,4,2,1,75,0,0
122123,-76.9230769230769,4,2,1,75,0,0
122723,-200,4,2,1,75,0,0
127523,-200,4,2,1,55,0,0
128723,-125,4,2,1,55,0,0
129923,-100,4,2,1,55,0,0
131723,-66.6666666666667,4,2,1,55,0,0
132323,-83.3333333333333,4,2,1,75,0,0
136523,-166.666666666667,4,2,1,75,0,0
137048,-166.666666666667,4,2,1,10,0,0
137123,-83.3333333333333,4,2,1,75,0,0
142523,-76.9230769230769,4,2,1,75,0,0
143123,-111.111111111111,4,2,1,65,0,0
147923,-100,4,2,1,75,0,0
150323,-100,4,2,1,65,0,0
155123,-200,4,2,1,55,0,0
164723,-125,4,2,1,65,0,0
169523,-111.111111111111,4,2,1,65,0,0
171923,-100,4,2,1,75,0,0
173123,-100,4,2,1,75,0,0
173723,-200,4,2,1,45,0,0
174023,-100,4,2,1,55,0,0
174323,-90.9090909090909,4,2,1,75,0,1
200573,-100,4,2,1,75,0,0

[Colours]
Combo1 : 0,128,255
Combo2 : 0,128,64
Combo3 : 193,193,0
Combo4 : 210,0,142
Combo5 : 128,0,255
Combo6 : 217,0,44

[HitObjects]
277,90,323,6,0,L|386:83,2,100,4|0|0,3:2|3:0|3:0,0:0:0:0:
203,172,923,2,0,L|94:165,2,100,0|0|0,1:2|3:0|3:0,0:0:0:0:
277,254,1523,2,0,L|386:247,2,100,4|0|0,3:2|3:0|3:0,0:0:0:0:
203,336,2123,1,0,1:2:0:0:
203,336,2423,5,2,3:0:0:0:
203,336,2723,6,0,P|145:320|52:356,1,150,12|0,3:2|3:0,0:0:0:0:
11,256,3173,1,0,3:0:0:0:
13,251,3248,1,0,3:0:0:0:
16,247,3323,2,0,P|20:206|13:164,1,75,0|0,3:0|3:0,0:0:0:0:
116,87,3623,2,0,P|111:124|115:161,1,75,0|0,3:0|3:0,0:0:0:0:
234,245,3923,6,0,B|320:208|307:264|400:225,1,150,10|0,3:2|3:0,0:0:0:0:
473,133,4373,1,0,3:0:0:0:
473,133,4448,1,0,3:0:0:0:
473,133,4523,2,0,L|486:50,1,75,0|0,3:0|3:0,0:0:0:0:
380,232,4823,2,0,L|391:306,1,75,0|0,3:0|3:0,0:0:0:0:
338,138,5123,6,0,L|293:131,3,37.5,12|0|0|0,3:2|3:0|3:0|3:0,0:0:0:0:
234,245,5423,2,0,L|278:238,3,37.5,8|0|0|0,3:2|3:0|3:0|3:0,0:0:0:0:
197,126,5723,6,0,L|152:119,3,37.5,8|0|0|0,3:2|3:0|3:0|3:0,0:0:0:0:
93,233,6023,2,0,L|137:226,3,37.5,8|0|0|0,3:2|3:0|3:0|3:0,0:0:0:0:
49,107,6323,5,0,1:0:0:0:
234,245,6773,1,0,1:0:0:0:
49,107,7223,1,0,1:0:0:0:
49,107,7523,6,0,P|91:117|144:102,1,75,4|0,3:2|0:0,0:0:0:0:
204,45,7823,2,0,P|171:108|206:200,1,150,8|0,0:0|3:0,0:0:0:0:
252,256,8273,2,0,L|326:247,1,75,0|8,1:0|0:0,0:0:0:0:
158,280,8573,1,0,0:0:0:0:
189,181,8723,6,0,L|372:159,1,150,0|8,3:0|0:0,0:0:0:0:
405,82,9173,2,0,L|221:60,1,150,0|0,0:0|0:0,0:0:0:0:
141,51,9623,1,8,0:0:0:0:
51,59,9773,1,8,0:0:0:0:
7,176,9923,6,0,P|9:232|20:278,1,75,4|0,3:2|0:0,0:0:0:0:
96,314,10223,2,0,B|150:302|175:328|175:328|213:336|260:296,1,150,8|0,0:0|3:0,0:0:0:0:
321,248,10673,2,0,P|270:236|235:218,1,75,0|8,1:0|0:0,0:0:0:0:
184,163,10973,1,0,0:0:0:0:
368,311,11123,6,0,P|340:266|321:163,1,150,0|8,3:0|0:0,0:0:0:0:
229,102,11573,2,0,P|217:175|181:241,1,150,0|0,0:0|0:0,0:0:0:0:
16,344,12023,1,8,3:2:0:0:
17,332,12098,1,8,3:2:0:0:
18,321,12173,1,8,3:2:0:0:
19,310,12248,1,8,3:2:0:0:
21,299,12323,6,0,P|58:290|102:295,1,75,4|0,3:2|0:0,0:0:0:0:
181,241,12623,2,0,P|126:247|31:196,1,150,8|0,0:0|3:0,0:0:0:0:
20,120,13073,2,0,L|34:46,1,75,0|8,1:0|0:0,0:0:0:0:
106,144,13373,1,0,0:0:0:0:
183,100,13523,6,0,P|264:110|342:86,1,150,0|8,3:0|0:0,0:0:0:0:
410,212,13973,2,0,P|337:194|263:204,1,150,0|0,0:0|0:0,0:0:0:0:
197,266,14423,2,0,P|167:270|114:261,1,75,8|0,0:0|3:0,0:0:0:0:
91,243,14648,5,0,3:0:0:0:
91,243,14723,2,0,L|83:169,1,75,8|0,3:2|3:0,0:0:0:0:
74,78,15023,1,0,3:0:0:0:
197,266,15173,2,0,L|189:192,1,75,8|0,3:2|3:0,0:0:0:0:
180,101,15473,1,0,3:0:0:0:
303,289,15623,2,0,L|295:215,1,75,8|0,3:2|3:0,0:0:0:0:
292,12,15923,6,0,L|284:86,1,75,8|8,3:0|3:0,0:0:0:0:
284,124,16149,1,8,3:0:0:0:
284,124,16224,1,8,3:0:0:0:
380,113,16373,1,8,3:0:0:0:
294,214,16523,5,8,3:0:0:0:
198,203,16672,1,0,3:0:0:0:
284,304,16823,6,0,L|358:296,1,75,0|0,3:0|3:0,0:0:0:0:
188,315,17123,6,0,P|143:300|71:325,1,120,4|0,0:0|0:0,0:0:0:0:
19,246,17573,1,0,0:0:0:0:
19,246,17723,2,0,P|28:205|29:181,1,60,0|0,0:0|0:0,0:0:0:0:
56,100,18023,1,0,0:0:0:0:
137,137,18173,2,0,B|165:134|190:147|190:147|222:143|251:107,2,120,2|0|0,0:0|0:0|0:0,0:0:0:0:
156,283,19073,6,0,L|150:223,2,60,0|0|0,0:0|0:0|0:0,0:0:0:0:
236,328,19523,2,0,P|284:316|371:333,1,120,2|0,0:0|0:0,0:0:0:0:
452,280,19973,1,0,0:0:0:0:
452,280,20123,2,0,L|456:209,1,60,0|0,0:0|0:0,0:0:0:0:
417,137,20423,1,0,0:0:0:0:
349,196,20573,2,0,B|310:218|310:218|226:213,2,120,2|0|0,0:0|0:0|0:0,0:0:0:0:
331,112,21323,2,0,L|304:97,4,30,0|0|0|0|4,0:0|0:0|0:0|0:0|3:0,0:0:0:0:
331,112,21923,5,8,3:0:0:0:
417,137,22073,1,8,3:0:0:0:
171,143,22373,2,0,L|138:148,2,33.7499989700318,0|0|2,0:0|0:0|0:0,0:0:0:0:
235,208,22673,2,0,L|268:213,2,33.7499989700318,0|0|2,0:0|0:0|0:0,0:0:0:0:
171,273,22973,1,0,0:0:0:0:
166,282,23048,1,0,0:0:0:0:
161,291,23123,1,8,3:2:0:0:
78,283,23273,1,8,3:0:0:0:
4,134,23573,6,0,L|37:130,2,33.7499989700318,0|0|2,0:0|0:0|0:0,0:0:0:0:
130,87,23873,2,0,L|163:90,2,33.7499989700318,0|0|2,0:0|0:0|0:0,0:0:0:0:
233,165,24173,1,2,0:0:0:0:
325,91,24323,5,12,3:0:0:0:
245,75,24473,1,8,3:0:0:0:
382,193,24623,2,0,P|418:184|448:169,1,67.4999979400635,0|0,0:0|3:0,0:0:0:0:
461,140,24848,1,0,3:0:0:0:
461,140,24923,1,8,3:2:0:0:
385,86,25073,1,8,3:0:0:0:
292,82,25223,1,8,3:0:0:0:
220,141,25373,1,8,3:0:0:0:
313,276,25523,5,8,0:0:0:0:
313,276,25673,2,0,P|349:275|390:264,1,67.4999979400635,4|0,3:2|0:0,0:0:0:0:
154,270,25973,2,0,P|177:246|195:218,1,67.4999979400635,4|0,3:2|0:0,0:0:0:0:
220,141,26273,1,4,3:2:0:0:
72,274,26423,1,8,0:0:0:0:
56,295,26723,6,0,P|69:229|43:147,1,150,4|8,0:0|0:0,0:0:0:0:
77,66,27173,1,0,0:0:0:0:
160,99,27323,2,0,P|197:88|241:88,1,75,0|0,3:0|0:0,0:0:0:0:
317,119,27623,1,8,0:0:0:0:
401,207,27773,6,0,B|453:177|505:198|505:198|501:228|473:249,2,150,0|0|0,0:0|0:0|0:0,0:0:0:0:
334,267,28523,2,0,P|274:262|230:244,1,75,0|0,3:0|0:0,0:0:0:0:
178,296,28823,5,8,0:0:0:0:
98,252,28973,1,8,3:2:0:0:
33,343,29123,2,0,P|47:271|22:202,1,150,0|8,3:0|0:0,0:0:0:0:
48,114,29573,1,0,0:0:0:0:
120,60,29723,1,0,0:0:0:0:
189,117,29873,2,0,P|231:105|274:110,1,75,0|8,0:0|0:0,0:0:0:0:
216,261,30173,6,0,P|188:235|171:203,1,75,0|0,0:0|3:0,0:0:0:0:
328,165,30473,2,0,P|320:202|301:234,1,75,0|8,0:0|0:0,0:0:0:0:
153,318,30773,2,0,P|118:283|79:179,1,150,0|0,0:0|0:0,0:0:0:0:
167,56,31223,6,0,P|158:93|142:127,1,75,8|0,0:0|0:0,0:0:0:0:
281,125,31523,2,0,L|430:108,1,150,4|8,3:2|0:0,0:0:0:0:
243,206,31973,1,0,0:0:0:0:
161,243,32123,2,0,L|71:232,1,75,0|0,3:0|0:0,0:0:0:0:
243,206,32423,1,8,0:0:0:0:
311,264,32573,6,0,L|400:253,1,75,0|0,0:0|3:0,0:0:0:0:
182,250,32873,2,0,L|254:196,1,75,0|8,0:0|0:0,0:0:0:0:
56,303,33173,2,0,L|92:220,1,75,0|0,0:0|3:0,0:0:0:0:
126,84,33473,5,0,0:0:0:0:
126,84,33623,2,0,L|135:159,1,75,8|0,0:0|0:0,0:0:0:0:
232,303,33923,5,4,3:2:0:0:
242,205,34073,1,0,0:0:0:0:
365,146,34223,5,8,0:0:0:0:
355,48,34373,1,0,0:0:0:0:
326,266,34523,5,0,3:0:0:0:
276,117,34673,1,0,0:0:0:0:
242,205,34823,5,8,0:0:0:0:
379,148,34973,1,0,0:0:0:0:
393,150,35048,1,0,0:0:0:0:
407,152,35123,2,0,P|422:194|428:257,1,75,12|8,3:2|3:0,0:0:0:0:
424,261,35348,1,8,3:0:0:0:
424,261,35423,1,8,3:0:0:0:
287,280,35573,1,8,0:0:0:0:
178,357,35723,6,0,P|141:350|106:336,1,75,8|0,3:2|3:0,0:0:0:0:
38,182,36023,1,8,3:0:0:0:
126,163,36173,1,8,3:0:0:0:
253,249,36323,6,0,L|341:259,1,60,4|0,0:0|0:0,0:0:0:0:
429,151,36623,2,0,L|310:165,1,120,8|0,0:0|3:0,0:0:0:0:
191,89,37073,2,0,L|251:96,1,60,0|8,3:0|0:0,0:0:0:0:
106,162,37373,5,0,1:0:0:0:
86,161,37673,1,0,1:0:0:0:
28,242,37823,1,8,0:0:0:0:
86,323,37973,1,0,3:0:0:0:
86,323,38048,1,0,3:0:0:0:
86,323,38123,2,0,P|122:325|151:321,1,60,0|0,3:0|3:0,0:0:0:0:
272,262,38423,2,0,P|242:259|213:263,1,60,8|0,0:0|3:0,0:0:0:0:
399,182,38723,6,0,P|393:145|396:113,1,60,4|0,0:0|3:0,0:0:0:0:
323,67,39023,2,0,P|287:78|208:53,1,120,8|0,0:0|3:0,0:0:0:0:
99,143,39473,2,0,P|126:131|156:128,1,60,0|8,3:0|0:0,0:0:0:0:
256,179,39773,5,0,1:0:0:0:
236,178,40073,1,0,1:0:0:0:
349,183,40223,1,8,0:0:0:0:
462,188,40373,1,0,3:0:0:0:
401,281,40523,6,0,P|409:323|415:366,1,60,0|0,3:0|0:0,0:0:0:0:
353,187,40823,1,8,0:0:0:0:
353,187,40973,1,0,3:0:0:0:
236,178,41123,6,0,P|201:168|145:166,1,75,8|0,3:2|3:0,0:0:0:0:
327,296,41423,2,0,P|362:286|418:284,1,75,8|0,1:2|3:0,0:0:0:0:
188,352,41723,6,0,L|193:274,1,75,8|0,1:2|3:0,0:0:0:0:
323,117,42023,2,0,L|327:191,1,75,8|0,1:2|3:0,0:0:0:0:
111,351,42323,6,0,L|121:189,1,150,8|8,0:0|1:2,0:0:0:0:
127,57,42773,1,0,3:0:0:0:
290,82,42923,2,0,P|327:83|367:68,1,75,8|0,1:2|3:0,0:0:0:0:
193,189,43223,2,0,P|156:188|116:203,1,75,8|0,0:0|3:0,0:0:0:0:
292,345,43523,5,8,1:2:0:0:
332,272,43673,1,0,3:0:0:0:
310,191,43823,1,0,3:0:0:0:
215,108,43973,5,8,1:2:0:0:
193,189,44123,1,0,3:0:0:0:
233,262,44273,1,0,3:0:0:0:
283,62,44423,6,0,B|204:95|214:36|104:74,1,150,8|0,1:2|0:0,0:0:0:0:
387,289,45323,5,0,1:0:0:0:
388,277,45398,1,8,3:0:0:0:
389,266,45473,1,0,1:0:0:0:
390,255,45548,1,8,3:0:0:0:
373,221,45623,5,0,1:0:0:0:
372,210,45698,1,8,3:0:0:0:
371,199,45773,1,0,1:0:0:0:
370,188,45848,1,8,3:0:0:0:
369,176,45923,6,0,P|327:180|283:157,1,82.5000025177003,4|0,3:2|0:0,0:0:0:0:
160,208,46223,2,0,P|177:171|210:147,1,82.5000025177003,8|0,0:0|0:0,0:0:0:0:
235,11,46523,2,0,P|258:44|263:84,1,82.5000025177003,0|0,3:0|3:0,0:0:0:0:
160,208,46823,1,8,0:0:0:0:
36,105,46973,6,0,P|36:195|48:272,1,165.000005035401,2|0,1:1|3:1,0:0:0:0:
173,349,47423,1,8,0:0:0:0:
254,336,47573,1,0,0:0:0:0:
349,216,47723,2,0,P|307:221|236:197,1,82.5000025177003,0|0,1:0|3:0,0:0:0:0:
203,117,48023,2,0,P|222:176|202:275,1,165.000005035401,8|4,0:0|3:2,0:0:0:0:
92,362,48473,6,0,P|87:320|94:277,1,82.5000025177003,0|8,0:0|0:0,0:0:0:0:
120,202,48773,1,0,0:0:0:0:
203,117,48923,2,0,B|271:127|271:127|309:110|309:110|393:121,1,165.000005035401,0|8,3:0|0:0,0:0:0:0:
482,318,49373,6,0,B|443:313|413:328|413:328|375:311|375:311|350:328|291:322,1,165.000005035401,4|0,0:0|3:0,0:0:0:0:
171,345,49823,1,8,3:0:0:0:
150,342,49898,1,8,3:0:0:0:
129,340,49973,1,8,3:0:0:0:
109,338,50048,1,8,3:0:0:0:
88,336,50123,1,0,3:0:0:0:
7,322,50273,1,0,3:0:0:0:
58,257,50423,1,0,3:0:0:0:
60,254,50498,1,0,3:0:0:0:
62,251,50573,2,0,P|63:223|53:181,1,41.2500012588501,0|0,3:0|3:0,0:0:0:0:
155,103,50723,6,0,P|199:110|257:83,1,82.5000025177003,4|0,3:2|0:0,0:0:0:0:
357,166,51023,2,0,P|317:159|278:170,1,82.5000025177003,8|0,0:0|0:0,0:0:0:0:
150,241,51323,2,0,P|190:248|229:238,1,82.5000025177003,0|0,3:0|3:0,0:0:0:0:
88,186,51623,1,8,0:0:0:0:
17,290,51773,6,0,P|40:211|26:131,1,165.000005035401,2|0,1:1|3:1,0:0:0:0:
154,38,52223,1,8,0:0:0:0:
139,119,52373,1,0,0:0:0:0:
258,207,52523,2,0,P|297:196|338:190,1,82.5000025177003,0|0,1:0|3:0,0:0:0:0:
201,267,52823,2,0,P|156:254|36:251,1,165.000005035401,12|4,0:0|3:2,0:0:0:0:
198,360,53273,6,0,P|159:344|119:338,1,82.5000025177003,0|0,3:0|3:0,0:0:0:0:
273,326,53573,1,0,3:0:0:0:
348,361,53723,2,0,P|386:345|426:339,1,82.5000025177003,8|0,1:2|3:0,0:0:0:0:
269,310,54023,1,8,1:2:0:0:
338,173,54173,6,0,B|306:195|260:189|260:189|221:156|143:174,1,165.000005035401,4|0,0:0|3:0,0:0:0:0:
48,281,54623,1,8,3:0:0:0:
45,260,54698,1,8,3:0:0:0:
42,240,54773,1,8,3:0:0:0:
40,219,54848,1,8,3:0:0:0:
37,199,54923,1,12,3:0:0:0:
26,117,55073,1,0,3:0:0:0:
75,51,55223,1,8,0:0:0:0:
75,51,55523,6,0,P|160:48|246:40,2,165.000005035401,4|8|0,0:0|0:0|3:0,0:0:0:0:
26,117,56273,1,0,3:0:0:0:
37,199,56423,2,0,L|50:290,1,82.5000025177003,8|0,0:0|0:0,0:0:0:0:
147,351,56723,6,0,L|173:167,2,165.000005035401,0|8|0,3:0|0:0|3:0,0:0:0:0:
224,380,57473,1,0,3:0:0:0:
289,329,57623,2,0,L|380:316,1,82.5000025177003,8|8,0:0|3:0,0:0:0:0:
464,202,57923,6,0,P|424:202|381:181,1,82.5000025177003,0|0,3:0|0:0,0:0:0:0:
239,154,58223,2,0,P|280:153|318:137,1,82.5000025177003,8|0,0:0|0:0,0:0:0:0:
169,109,58523,1,0,3:0:0:0:
162,191,58673,1,0,3:0:0:0:
232,56,58823,1,8,0:0:0:0:
92,145,58973,6,0,B|54:177|54:177|60:305,1,165.000005035401,4|0,0:0|3:0,0:0:0:0:
189,361,59423,2,0,L|107:358,1,82.5000025177003,8|0,0:0|3:0,0:0:0:0:
265,327,59723,1,8,1:2:0:0:
265,327,60023,2,0,L|347:323,1,82.5000025177003,8|0,1:2|0:0,0:0:0:0:
462,167,60323,6,0,B|375:186|396:125|285:147,2,165.000005035401,4|8|0,0:0|0:0|3:0,0:0:0:0:
334,233,61073,1,0,3:0:0:0:
260,270,61223,2,0,L|158:258,1,82.5000025177003,8|0,0:0|0:0,0:0:0:0:
59,182,61523,6,0,B|96:138|96:138|205:126,2,165.000005035401,0|8|0,3:0|0:0|3:0,0:0:0:0:
146,222,62273,1,0,3:0:0:0:
228,43,62423,1,8,0:0:0:0:
308,242,62573,6,0,P|228:226|145:221,1,165.000005035401,4|0,3:2|3:0,0:0:0:0:
382,380,63023,2,0,P|378:339|369:299,1,82.5000025177003,8|0,1:2|3:0,0:0:0:0:
435,153,63323,2,0,P|426:194|422:235,1,82.5000025177003,8|0,1:2|3:0,0:0:0:0:
390,85,63623,5,8,3:2:0:0:
464,305,63773,1,10,3:0:0:0:
464,310,63848,1,2,3:0:0:0:
464,315,63923,1,4,1:2:0:0:
247,315,64823,5,0,3:0:0:0:
156,145,72323,6,0,L|394:129,1,225,4|8,1:2|3:0,0:0:0:0:
380,129,72823,6,0,L|404:130,3,25,8|8|8|8,3:0|3:0|3:0|3:0,0:0:0:0:
162,353,73373,2,0,L|158:311,1,37.5,0|0,3:0|3:0,0:0:0:0:
186,147,73523,6,0,P|185:175|177:213,1,50,8|8,3:2|3:2,0:0:0:0:
131,77,73723,1,8,3:2:0:0:
131,77,73823,2,0,P|107:62|78:36,1,50,8|8,3:2|3:2,0:0:0:0:
219,64,74023,1,8,3:2:0:0:
219,64,74123,2,0,P|243:50|280:38,1,50,8|0,3:2|0:0,0:0:0:0:
439,127,74423,5,2,0:0:0:0:
439,127,74723,6,0,L|446:243,1,104.999996795654,4|0,0:0|1:0,0:0:0:0:
384,337,75173,2,0,L|388:285,2,52.4999983978272,0|0|0,1:0|3:0|0:0,0:0:0:0:
297,368,75623,1,0,1:0:0:0:
297,368,75773,6,0,P|233:354|188:373,1,104.999996795654,0|0,3:0|3:0,0:0:0:0:
110,322,76223,1,0,1:0:0:0:
110,322,76373,2,0,L|114:266,1,52.4999983978272,0|0,1:0|3:0,0:0:0:0:
162,157,76673,2,0,L|166:210,2,52.4999983978272,0|0|0,0:0|1:0|0:0,0:0:0:0:
111,97,77123,6,0,P|167:108|223:81,1,104.999996795654,0|0,3:0|1:0,0:0:0:0:
287,111,77573,2,0,P|328:117|352:124,2,52.4999983978272,0|0|0,1:0|3:0|0:0,0:0:0:0:
210,91,78023,1,0,1:0:0:0:
210,91,78173,6,0,P|206:132|200:157,1,52.4999983978272,0|0,3:0|0:0,0:0:0:0:
273,240,78473,2,0,P|268:214|267:188,1,52.4999983978272,0|0,3:0|1:0,0:0:0:0:
210,284,78773,2,0,P|208:311|204:337,1,52.4999983978272,4|0,1:0|3:0,0:0:0:0:
273,240,79073,1,0,0:0:0:0:
343,274,79223,2,0,P|375:271|413:264,1,52.4999983978272,0|0,1:0|0:0,0:0:0:0:
459,222,79523,6,0,P|440:269|452:320,1,104.999996795654,4|0,0:0|1:0,0:0:0:0:
422,152,79973,2,0,P|417:116|405:91,2,52.4999983978272,0|0|0,1:0|3:0|0:0,0:0:0:0:
364,206,80423,1,0,1:0:0:0:
296,165,80573,6,0,L|219:158,1,52.4999983978272,0|0,3:0|0:0,0:0:0:0:
134,247,80873,2,0,L|239:238,1,104.999996795654,0|0,3:0|1:0,0:0:0:0:
239,238,81323,1,0,3:0:0:0:
423,266,81623,2,0,P|422:295|416:330,1,52.4999983978272,0|0,1:0|0:0,0:0:0:0:
379,173,81923,6,0,L|389:111,1,52.4999983978272,4|0,3:2|0:0,0:0:0:0:
299,215,82223,2,0,L|276:156,1,52.4999983978272,0|0,1:0|1:0,0:0:0:0:
250,291,82523,2,0,L|201:251,1,52.4999983978272,0|0,3:0|0:0,0:0:0:0:
245,381,82823,1,0,1:0:0:0:
192,174,82973,5,8,1:2:0:0:
115,155,83123,1,0,1:0:0:0:
38,136,83273,1,0,3:0:0:0:
34,135,83348,1,0,3:0:0:0:
30,134,83423,1,8,3:0:0:0:
176,261,83573,5,0,3:0:0:0:
253,242,83723,1,8,3:0:0:0:
330,223,83873,1,8,3:2:0:0:
334,222,83948,1,8,3:2:0:0:
338,221,84023,1,8,3:2:0:0:
408,126,84173,5,8,3:2:0:0:
409,122,84248,1,8,3:2:0:0:
410,118,84323,2,0,P|360:110|327:116,1,75,4|0,0:0|0:0,0:0:0:0:
226,232,84623,2,0,P|251:204|267:171,1,75,8|0,0:0|0:0,0:0:0:0:
218,15,84923,2,0,P|229:50|250:81,1,75,0|0,3:0|0:0,0:0:0:0:
168,148,85223,1,8,0:0:0:0:
58,114,85373,6,0,L|65:197,1,75,0|0,0:0|3:0,0:0:0:0:
235,179,85673,2,0,L|159:143,1,75,0|8,0:0|0:0,0:0:0:0:
90,299,85973,2,0,L|151:256,1,75,0|0,0:0|3:0,0:0:0:0:
10,257,86273,5,0,0:0:0:0:
78,198,86423,1,8,0:0:0:0:
151,256,86573,1,8,3:0:0:0:
252,148,86723,6,0,P|289:141|339:142,1,75,0|0,3:0|0:0,0:0:0:0:
275,296,87023,2,0,P|250:267|226:223,1,75,8|0,0:0|0:0,0:0:0:0:
392,202,87323,2,0,P|379:237|353:280,1,75,0|0,3:0|0:0,0:0:0:0:
415,112,87623,1,8,0:0:0:0:
285,28,87773,6,0,P|251:32|210:57,1,75,0|0,0:0|3:0,0:0:0:0:
415,112,88073,2,0,P|383:98|335:99,1,75,0|8,0:0|0:0,0:0:0:0:
485,249,88373,2,0,B|469:217|427:201|427:201|393:225|382:271,1,150,0|0,0:0|0:0,0:0:0:0:
301,360,88823,2,0,P|268:353|215:363,1,75,8|0,3:2|0:0,0:0:0:0:
80,264,89123,6,0,L|98:107,1,150,4|8,0:0|0:0,0:0:0:0:
97,114,89573,1,0,0:0:0:0:
206,40,89723,2,0,P|249:35|296:44,1,75,0|0,3:0|3:0,0:0:0:0:
364,71,90023,1,8,0:0:0:0:
305,217,90173,6,0,P|304:180|309:143,1,75,0|0,0:0|3:0,0:0:0:0:
238,278,90473,2,0,P|243:315|242:352,1,75,0|8,0:0|0:0,0:0:0:0:
411,365,90773,2,0,P|404:315|425:212,1,150,0|0,0:0|0:0,0:0:0:0:
389,75,91223,2,0,P|356:82|297:84,1,75,8|8,0:0|3:0,0:0:0:0:
128,74,91523,5,4,0:0:0:0:
143,162,91673,1,0,0:0:0:0:
250,231,91823,5,8,3:0:0:0:
235,319,91973,2,0,P|200:323|160:335,1,75,0|0,0:0|3:0,0:0:0:0:
15,264,92273,2,0,P|53:269|89:280,1,75,0|8,0:0|0:0,0:0:0:0:
250,231,92573,5,0,3:0:0:0:
246,232,92648,1,0,3:0:0:0:
242,233,92723,1,8,3:2:0:0:
143,162,92873,5,0,3:0:0:0:
147,163,92948,1,0,3:0:0:0:
151,164,93023,1,0,3:0:0:0:
234,130,93173,1,8,3:0:0:0:
374,94,93323,5,0,1:0:0:0:
291,60,93473,1,0,3:0:0:0:
409,177,93623,5,0,3:0:0:0:
409,177,93773,1,0,3:0:0:0:
229,290,93923,6,0,P|201:290|141:300,1,60,4|0,0:0|0:0,0:0:0:0:
53,192,94223,2,0,P|101:205|172:206,1,120,8|0,0:0|3:0,0:0:0:0:
244,132,94673,2,0,P|273:126|303:125,1,60,0|8,0:0|0:0,0:0:0:0:
437,255,94973,5,0,1:0:0:0:
438,275,95273,1,0,1:0:0:0:
347,338,95423,1,8,0:0:0:0:
255,279,95573,1,0,3:0:0:0:
255,279,95648,1,0,3:0:0:0:
255,279,95723,2,0,P|219:281|193:290,1,60,0|0,3:0|3:0,0:0:0:0:
61,327,96023,2,0,P|91:328|120:337,1,60,8|0,0:0|0:0,0:0:0:0:
83,223,96323,6,0,L|88:155,1,60,4|0,0:0|0:0,0:0:0:0:
159,107,96623,2,0,B|195:118|195:118|282:102,1,120,8|0,0:0|3:0,0:0:0:0:
401,176,97073,2,0,B|374:164|374:164|344:161,1,60,0|8,3:0|0:0,0:0:0:0:
198,264,97373,5,0,1:0:0:0:
178,265,97673,1,0,1:0:0:0:
297,315,97823,1,8,0:0:0:0:
416,265,97973,1,0,3:0:0:0:
304,187,98123,5,0,3:0:0:0:
304,187,98273,1,0,0:0:0:0:
195,384,98423,5,8,0:0:0:0:
195,384,98573,1,0,3:0:0:0:
61,232,98723,6,0,P|63:191|73:155,1,67.4999979400635,8|0,0:0|3:0,0:0:0:0:
79,358,99023,2,0,P|109:330|141:312,1,67.4999979400635,8|0,1:2|3:0,0:0:0:0:
312,252,99323,6,0,P|302:218|307:173,1,67.4999979400635,8|0,1:2|3:0,0:0:0:0:
440,316,99623,2,0,P|441:349|431:381,1,67.4999979400635,8|0,1:2|3:0,0:0:0:0:
219,344,99923,6,0,P|286:334|354:336,1,134.999995880127,8|8,1:2|1:2,0:0:0:0:
127,302,100373,1,0,3:0:0:0:
106,161,100523,6,0,P|144:163|181:155,1,67.4999979400635,8|0,1:2|3:0,0:0:0:0:
314,222,100823,2,0,P|281:220|248:226,1,67.4999979400635,8|0,0:0|3:0,0:0:0:0:
478,153,101123,5,8,1:2:0:0:
390,133,101273,1,0,3:0:0:0:
302,113,101423,1,0,3:0:0:0:
240,266,101573,5,8,1:2:0:0:
328,246,101723,1,0,3:0:0:0:
416,226,101873,1,0,3:0:0:0:
186,348,102023,6,0,P|201:302|170:183,1,150,8|0,1:2|3:0,0:0:0:0:
181,201,102398,1,0,3:0:0:0:
178,198,102473,1,0,3:0:0:0:
175,195,102548,1,0,3:0:0:0:
172,192,102623,2,0,L|178:144,3,37.5,8|0|0|0,3:0|3:0|3:0|3:0,0:0:0:0:
257,88,102923,5,8,3:2:0:0:
277,175,103073,1,0,3:0:0:0:
85,175,103223,5,8,3:2:0:0:
105,88,103373,1,0,3:0:0:0:
105,262,103523,6,0,P|104:290|83:358,1,82.5000025177003,4|0,3:2|0:0,0:0:0:0:
22,122,103823,2,0,P|50:151|85:175,1,82.5000025177003,8|0,0:0|0:0,0:0:0:0:
247,173,104123,2,0,P|207:182|170:201,1,82.5000025177003,0|0,3:0|3:0,0:0:0:0:
382,189,104423,1,8,0:0:0:0:
454,273,104573,6,0,B|467:178|409:212|423:117,1,165.000005035401,2|0,1:1|3:1,0:0:0:0:
318,31,105023,1,8,0:0:0:0:
236,45,105173,1,0,0:0:0:0:
186,184,105323,2,0,P|140:190|96:217,1,82.5000025177003,0|0,1:0|3:0,0:0:0:0:
284,357,105623,2,0,P|298:303|286:189,1,165.000005035401,8|4,0:0|3:2,0:0:0:0:
220,68,106073,6,0,P|212:108|219:149,1,82.5000025177003,0|8,0:0|0:0,0:0:0:0:
285,17,106373,1,0,0:0:0:0:
139,73,106523,2,0,B|82:89|25:60|25:60|67:30,1,165.000005035401,0|8,3:0|0:0,0:0:0:0:
290,174,106973,6,0,P|275:244|291:375,1,165.000005035401,4|0,0:0|3:0,0:0:0:0:
112,358,107423,1,8,3:0:0:0:
116,337,107498,1,8,3:0:0:0:
119,317,107573,1,8,3:0:0:0:
123,297,107648,1,8,3:0:0:0:
126,276,107723,1,0,3:0:0:0:
142,195,107873,1,0,3:0:0:0:
236,101,108023,1,0,3:0:0:0:
236,101,108098,1,0,3:0:0:0:
236,101,108173,2,0,P|206:102|185:95,1,41.2500012588501,0|0,3:0|3:0,0:0:0:0:
29,124,108323,6,0,P|41:170|46:230,1,82.5000025177003,4|0,3:2|0:0,0:0:0:0:
83,346,108623,2,0,P|88:305|100:266,1,82.5000025177003,8|0,0:0|0:0,0:0:0:0:
231,184,108923,2,0,P|242:223|247:264,1,82.5000025177003,0|0,3:0|3:0,0:0:0:0:
251,346,109223,1,8,0:0:0:0:
405,375,109373,6,0,P|409:321|459:207,1,165.000005035401,2|0,1:1|3:1,0:0:0:0:
366,80,109823,1,8,0:0:0:0:
284,94,109973,1,0,0:0:0:0:
200,206,110123,2,0,L|297:218,1,82.5000025177003,0|0,1:0|3:0,0:0:0:0:
441,305,110423,2,0,L|264:326,1,165.000005035401,12|4,0:0|3:2,0:0:0:0:
77,334,110873,6,0,P|87:293|77:249,1,82.5000025177003,0|8,3:0|3:0,0:0:0:0:
38,182,111173,1,0,3:0:0:0:
200,206,111323,2,0,P|240:194|273:163,1,82.5000025177003,8|0,1:2|3:0,0:0:0:0:
126,128,111623,1,8,1:2:0:0:
228,295,111773,6,0,P|279:281|372:213,1,165.000005035401,4|0,0:0|3:0,0:0:0:0:
373,67,112223,1,8,3:0:0:0:
352,64,112298,1,8,3:0:0:0:
332,62,112373,1,8,3:0:0:0:
311,59,112448,1,8,3:0:0:0:
291,57,112523,1,12,3:0:0:0:
209,46,112673,1,0,3:0:0:0:
143,96,112823,1,8,0:0:0:0:
143,96,113123,6,0,L|153:271,2,165.000005035401,4|8|0,0:0|0:0|3:0,0:0:0:0:
61,183,113873,1,0,3:0:0:0:
152,260,114023,2,0,L|234:264,1,82.5000025177003,8|0,0:0|0:0,0:0:0:0:
334,176,114323,6,0,P|286:241|294:322,2,165.000005035401,0|8|0,3:0|0:0|3:0,0:0:0:0:
440,209,115073,1,0,3:0:0:0:
420,100,115223,2,0,P|426:60|447:18,1,82.5000025177003,8|0,0:0|3:0,0:0:0:0:
292,109,115523,6,0,L|202:101,1,82.5000025177003,0|0,3:0|0:0,0:0:0:0:
76,174,115823,2,0,L|159:167,1,82.5000025177003,8|0,0:0|0:0,0:0:0:0:
339,293,116123,1,0,3:0:0:0:
256,285,116273,1,0,3:0:0:0:
404,240,116423,1,8,0:0:0:0:
191,338,116573,6,0,L|13:322,1,165.000005035401,4|0,0:0|3:0,0:0:0:0:
256,285,117023,2,0,L|203:221,1,82.5000025177003,8|0,0:0|0:0,0:0:0:0:
275,369,117323,1,8,1:2:0:0:
275,369,117623,2,0,P|316:363|364:372,1,82.5000025177003,8|0,1:2|0:0,0:0:0:0:
463,270,117923,6,0,B|455:198|455:198|433:181|433:181|426:95,2,165.000005035401,4|8|0,0:0|0:0|3:0,0:0:0:0:
344,172,118673,1,0,3:0:0:0:
214,259,118823,2,0,P|178:248|116:244,1,82.5000025177003,8|0,0:0|0:0,0:0:0:0:
13,159,119123,6,0,P|72:148|139:61,2,165.000005035401,0|8|0,3:0|0:0|3:0,0:0:0:0:
176,181,119873,1,0,3:0:0:0:
27,255,120023,1,8,0:0:0:0:
262,357,120173,2,0,P|269:271|272:178,1,165.000005035401,4|0,0:0|3:0,0:0:0:0:
355,41,120623,6,0,P|357:84|368:132,1,82.5000025177003,8|0,1:2|3:0,0:0:0:0:
165,262,120923,2,0,P|173:221|175:180,1,82.5000025177003,8|0,1:2|3:0,0:0:0:0:
370,35,121223,5,8,3:2:0:0:
370,55,121298,1,0,3:0:0:0:
371,76,121373,1,0,3:0:0:0:
375,96,121448,1,0,3:0:0:0:
380,116,121523,1,4,1:2:0:0:
219,286,122423,5,0,3:0:0:0:
256,192,127523,12,8,131123,3:0:0:0:
148,97,131723,5,2,0:0:0:0:
148,97,131873,1,2,0:0:0:0:
192,177,132023,1,2,0:0:0:0:
192,177,132173,1,2,0:0:0:0:
103,294,132323,6,0,B|166:280|166:280|182:292|182:292|264:275,1,134.999995880127,4|0,0:0|0:0,0:0:0:0:
301,338,132623,2,0,P|278:276|325:179,1,179.999994506836,2|2,3:0|0:0,0:0:0:0:
476,122,133073,6,0,P|429:123|387:112,1,89.9999972534181,2|2,0:0|0:0,0:0:0:0:
265,47,133373,1,0,3:0:0:0:
265,47,133448,1,0,3:0:0:0:
265,47,133523,1,8,1:3:0:0:
121,80,133673,5,2,0:0:0:0:
121,80,133823,2,0,L|71:74,2,44.999998626709,2|2|2,0:0|0:0|0:0,0:0:0:0:
154,180,134123,6,0,L|184:176,4,22.4999993133545,2|0|2|2|2,0:0|0:0|0:0|0:0|0:0,0:0:0:0:
109,272,134423,1,2,0:0:0:0:
234,260,134573,1,2,0:0:0:0:
391,358,134723,6,0,B|381:306|381:306|415:219,1,134.999995880127,4|0,0:0|0:0,0:0:0:0:
483,175,135023,2,0,B|444:194|404:192|373:155|373:155|346:171|312:161,1,179.999994506836,2|2,3:0|0:0,0:0:0:0:
167,105,135473,2,0,P|212:106|256:95,1,89.9999972534181,2|2,0:0|0:0,0:0:0:0:
64,56,135773,6,0,L|60:86,2,22.4999993133545,2|2|2,0:0|0:0|0:0,0:0:0:0:
55,49,135923,2,0,L|68:153,1,89.9999972534181,8|0,1:3|0:0,0:0:0:0:
233,314,136223,6,0,L|229:284,2,22.4999993133545,0|0|0,0:0|0:0|0:0,0:0:0:0:
224,321,136373,2,0,L|237:216,1,89.9999972534181,0|8,0:0|1:3,0:0:0:0:
235,231,137123,6,0,B|185:245|185:245|170:238|170:238|153:245|153:245|89:222,1,134.999995880127,4|0,0:0|0:0,0:0:0:0:
49,159,137423,2,0,B|96:207|66:284|66:284|51:253|36:250,1,179.999994506836,2|2,3:0|0:0,0:0:0:0:
72,72,137873,6,0,P|122:87|185:75,1,89.9999972534181,0|0,0:0|0:0,0:0:0:0:
288,28,138173,1,0,3:0:0:0:
288,28,138248,1,0,3:0:0:0:
288,28,138323,1,8,1:3:0:0:
413,117,138473,5,2,0:0:0:0:
413,117,138623,2,0,L|407:167,2,44.999998626709,2|2|2,0:0|0:0|0:0,0:0:0:0:
265,238,138923,6,0,L|261:208,4,22.4999993133545,2|0|2|2|2,0:0|0:0|0:0|0:0|0:0,0:0:0:0:
376,349,139223,1,2,0:0:0:0:
209,374,139373,1,2,0:0:0:0:
91,250,139523,6,0,B|116:155|116:155|98:114,1,134.999995880127,4|0,0:0|0:0,0:0:0:0:
29,65,139823,2,0,P|98:90|186:21,1,179.999994506836,2|0,3:0|0:0,0:0:0:0:
304,66,140273,6,0,P|300:124|311:167,1,89.9999972534181,2|0,0:0|0:0,0:0:0:0:
386,251,140573,1,2,0:0:0:0:
264,333,140723,6,0,P|227:320|164:326,1,89.9999972534181,8|0,3:0|0:0,0:0:0:0:
139,346,140948,1,2,0:0:0:0:
139,346,141023,1,0,3:0:0:0:
53,233,141173,6,0,L|58:199,6,22.4999993133545,0|0|0|0|0|0|0,3:0|0:0|0:0|0:0|3:0|0:0|3:0,0:0:0:0:
136,119,141473,6,0,L|139:141,2,22.4999993133545,0|0|0,3:0|0:0|3:0,0:0:0:0:
37,60,141623,5,8,3:2:0:0:
246,184,141773,1,8,3:2:0:0:
421,139,147923,6,0,P|384:143|339:133,1,75,12|0,3:0|3:0,0:0:0:0:
313,152,148148,1,0,3:0:0:0:
308,155,148223,2,0,P|271:148|234:152,1,75,8|0,3:0|3:0,0:0:0:0:
130,255,148523,6,0,P|167:259|212:249,1,75,8|0,3:0|3:0,0:0:0:0:
238,268,148748,1,0,3:0:0:0:
243,271,148823,2,0,P|279:264|316:268,1,75,8|0,3:0|3:0,0:0:0:0:
421,139,149123,6,0,L|414:97,3,37.5,12|0|0|0,3:0|3:0|3:0|3:0,0:0:0:0:
323,231,149423,2,0,L|316:267,3,37.5,8|0|0|0,3:0|3:0|3:0|3:0,0:0:0:0:
236,134,149723,5,8,3:0:0:0:
217,137,149798,1,0,3:0:0:0:
199,140,149873,1,0,3:0:0:0:
180,143,149948,1,0,3:0:0:0:
146,160,150023,5,8,3:0:0:0:
127,157,150098,1,0,3:0:0:0:
109,154,150173,1,0,3:0:0:0:
90,151,150248,1,0,3:0:0:0:
72,148,150323,6,0,P|93:226|89:305,1,150,12|0,3:0|3:0,0:0:0:0:
162,350,150773,2,0,P|240:329|319:333,1,150,2|0,3:0|0:0,0:0:0:0:
388,289,151223,6,0,B|421:203|367:223|398:134,2,150,2|0|0,3:0|3:0|3:0,0:0:0:0:
169,46,152123,2,0,B|197:126|143:106|176:192,1,150,0|0,3:0|3:0,0:0:0:0:
256,257,152573,1,0,0:0:0:0:
256,257,152723,6,0,P|191:223|125:252,1,150,2|0,3:0|0:0,0:0:0:0:
319,193,153173,2,0,P|368:161|458:201,1,150,2|0,3:0|0:0,0:0:0:0:
256,129,153623,1,2,3:0:0:0:
199,88,164423,5,0,3:0:0:0:
199,88,164723,2,0,L|327:77,1,120,4|0,3:2|3:0,0:0:0:0:
324,282,165323,2,0,L|196:271,1,120,0|0,3:0|3:0,0:0:0:0:
114,261,165773,1,0,3:0:0:0:
114,261,165923,2,0,P|121:217|100:130,2,120,0|0|0,3:0|3:0|3:0,0:0:0:0:
72,348,166673,1,0,3:0:0:0:
161,372,166823,1,0,3:0:0:0:
250,348,166973,1,0,3:0:0:0:
416,366,167123,6,0,P|411:329|420:290,1,60,0|0,3:0|0:0,0:0:0:0:
348,185,167423,2,0,P|352:215|347:245,1,60,0|0,3:0|0:0,0:0:0:0:
401,112,167723,1,0,3:0:0:0:
401,112,168023,1,0,3:0:0:0:
316,103,168173,1,0,3:0:0:0:
265,173,168323,2,0,P|233:170|191:175,1,60,0|0,3:0|0:0,0:0:0:0:
78,232,168623,2,0,P|108:229|138:232,1,60,0|0,3:0|0:0,0:0:0:0:
20,304,168923,1,0,3:0:0:0:
20,304,169073,1,0,3:0:0:0:
32,158,169223,1,0,3:0:0:0:
32,158,169373,1,0,3:0:0:0:
143,63,169523,6,0,L|228:74,1,67.4999979400635,0|0,3:0|3:0,0:0:0:0:
329,124,169823,2,0,L|263:133,1,67.4999979400635,0|0,3:0|3:0,0:0:0:0:
112,168,170123,1,0,3:0:0:0:
101,248,170273,1,0,3:0:0:0:
181,259,170423,1,0,3:0:0:0:
192,179,170573,1,0,3:0:0:0:
230,324,170723,6,0,P|269:317|318:316,1,67.4999979400635,0|0,3:0|3:0,0:0:0:0:
397,233,171023,2,0,P|364:239|331:242,1,67.4999979400635,0|0,3:0|3:0,0:0:0:0:
192,179,171323,1,0,3:0:0:0:
203,99,171473,1,0,3:0:0:0:
283,110,171623,1,0,3:0:0:0:
272,190,171773,1,0,3:0:0:0:
116,127,171923,6,0,L|62:131,3,37.5,0|0|0|0,3:0|3:0|3:0|3:0,0:0:0:0:
25,234,172223,2,0,L|79:238,3,37.5,0|0|0|0,3:0|3:0|3:0|3:0,0:0:0:0:
229,176,172523,6,0,L|175:180,3,37.5,0|0|0|0,3:0|3:0|3:0|3:0,0:0:0:0:
138,283,172823,2,0,L|192:287,3,37.5,0|0|0|0,3:0|3:0|3:0|3:0,0:0:0:0:
323,226,173123,6,0,L|304:227,16,18.75,0|0|0|0|0|0|0|0|0|0|0|0|0|0|0|0|2,3:0|3:0|3:0|3:0|3:0|3:0|3:0|3:0|3:0|3:0|3:0|3:0|3:0|3:0|3:0|3:0|0:0,0:0:0:0:
426,326,174023,5,8,3:0:0:0:
426,326,174323,6,0,P|376:318|328:330,1,82.5000025177003,4|0,0:0|0:0,0:0:0:0:
448,177,174623,2,0,P|466:224|500:259,1,82.5000025177003,8|0,0:0|0:0,0:0:0:0:
285,240,174923,2,0,P|316:200|330:153,1,82.5000025177003,0|0,3:0|3:0,0:0:0:0:
259,59,175223,1,8,0:0:0:0:
113,81,175373,6,0,P|133:156|121:245,1,165.000005035401,2|0,1:1|3:1,0:0:0:0:
209,357,175823,1,8,0:0:0:0:
291,349,175973,1,0,0:0:0:0:
416,243,176123,2,0,P|424:199|426:148,1,82.5000025177003,0|0,1:0|3:0,0:0:0:0:
241,71,176423,2,0,P|246:145|271:236,1,165.000005035401,8|4,0:0|3:2,0:0:0:0:
80,288,176873,6,0,P|89:242|87:201,1,82.5000025177003,0|8,0:0|0:0,0:0:0:0:
61,128,177173,1,0,0:0:0:0:
241,71,177323,2,0,B|336:56|310:105|405:93,1,165.000005035401,0|8,3:0|0:0,0:0:0:0:
474,293,177773,6,0,P|411:275|328:343,1,165.000005035401,4|0,0:0|3:0,0:0:0:0:
208,350,178223,1,8,3:0:0:0:
187,346,178298,1,8,3:0:0:0:
167,343,178373,1,8,3:0:0:0:
146,339,178448,1,8,3:0:0:0:
126,336,178523,1,0,3:0:0:0:
44,324,178673,1,0,3:0:0:0:
100,242,178823,1,8,3:0:0:0:
103,239,178898,1,0,3:0:0:0:
106,236,178973,2,0,L|102:194,1,41.2500012588501,0|0,3:0|3:0,0:0:0:0:
202,74,179123,6,0,P|249:79|292:66,1,82.5000025177003,4|0,0:0|0:0,0:0:0:0:
111,119,179423,2,0,P|140:155|180:176,1,82.5000025177003,8|0,0:0|0:0,0:0:0:0:
14,86,179723,2,0,P|8:133|22:176,1,82.5000025177003,0|0,3:0|3:0,0:0:0:0:
106,18,180023,1,8,0:0:0:0:
170,173,180173,6,0,P|245:154|335:154,1,165.000005035401,2|0,1:1|3:1,0:0:0:0:
450,304,180623,1,8,0:0:0:0:
367,295,180773,1,0,0:0:0:0:
198,365,180923,2,0,P|189:322|167:282,1,82.5000025177003,0|0,1:0|3:0,0:0:0:0:
287,86,181223,2,0,P|229:143|224:224,1,165.000005035401,12|4,0:0|3:2,0:0:0:0:
355,297,181673,6,0,L|436:286,1,82.5000025177003,0|8,3:0|3:0,0:0:0:0:
275,309,181973,1,0,3:0:0:0:
121,337,182123,2,0,L|40:327,1,82.5000025177003,8|0,1:2|3:0,0:0:0:0:
202,349,182423,1,8,1:2:0:0:
168,108,182573,6,0,B|177:181|177:181|196:205|196:205|207:303,1,165.000005035401,4|0,0:0|3:0,0:0:0:0:
355,297,183023,1,8,3:0:0:0:
357,276,183098,1,8,3:0:0:0:
360,256,183173,1,8,3:0:0:0:
362,235,183248,1,8,3:0:0:0:
365,215,183323,1,12,3:0:0:0:
374,132,183473,1,0,3:0:0:0:
321,66,183623,1,8,0:0:0:0:
321,66,183923,6,0,P|256:81|157:24,2,165.000005035401,4|8|0,0:0|0:0|3:0,0:0:0:0:
196,154,184673,1,0,3:0:0:0:
294,225,184823,2,0,P|294:277|302:320,1,82.5000025177003,8|0,0:0|0:0,0:0:0:0:
94,350,185123,6,0,P|104:281|79:190,2,165.000005035401,0|8|0,3:0|0:0|3:0,0:0:0:0:
192,304,185873,1,0,3:0:0:0:
294,225,186023,2,0,P|339:225|402:240,1,82.5000025177003,8|0,0:0|0:0,0:0:0:0:
186,93,186323,6,0,L|175:182,1,82.5000025177003,0|0,3:0|0:0,0:0:0:0:
304,306,186623,2,0,L|293:224,1,82.5000025177003,8|0,0:0|0:0,0:0:0:0:
252,371,186923,1,0,3:0:0:0:
333,381,187073,1,0,3:0:0:0:
216,296,187223,1,8,0:0:0:0:
43,374,187373,6,0,L|63:210,1,165.000005035401,4|0,0:0|3:0,0:0:0:0:
186,93,187823,1,8,0:0:0:0:
267,82,187973,1,0,3:0:0:0:
386,165,188123,2,0,L|305:155,1,82.5000025177003,8|0,1:2|0:0,0:0:0:0:
444,223,188423,1,8,1:2:0:0:
444,223,188723,6,0,B|425:272|443:349|443:349|462:312,2,165.000005035401,4|8|0,0:0|0:0|3:0,0:0:0:0:
495,115,189473,1,0,3:0:0:0:
379,55,189623,2,0,P|331:41|288:48,1,82.5000025177003,8|0,0:0|0:0,0:0:0:0:
159,144,189923,6,0,B|248:108|243:166|337:128,2,165.000005035401,0|8|0,3:0|0:0|3:0,0:0:0:0:
282,56,190673,1,0,3:0:0:0:
209,218,190823,1,8,0:0:0:0:
380,343,190973,6,0,P|392:233|393:171,1,165.000005035401,4|0,0:0|3:0,0:0:0:0:
209,218,191423,1,8,0:0:0:0:
231,334,191573,1,0,3:0:0:0:
128,204,191723,2,0,P|169:206|208:217,1,82.5000025177003,8|0,3:0|3:0,0:0:0:0:
49,249,192023,5,8,0:0:0:0:
252,138,192173,2,0,P|245:206|259:317,1,165.000005035401,0|0,0:0|0:0,0:0:0:0:
452,356,192623,5,8,0:0:0:0:
464,274,192773,1,0,0:0:0:0:
340,82,192923,5,8,3:0:0:0:
352,164,193073,1,0,3:0:0:0:
490,22,193223,5,8,0:0:0:0:
490,22,193523,6,0,P|424:40|333:0,2,165.000005035401,4|8|0,0:0|0:0|3:0,0:0:0:0:
370,120,194273,1,0,3:0:0:0:
228,107,194423,2,0,P|183:116|130:135,1,82.5000025177003,8|0,0:0|0:0,0:0:0:0:
122,330,194723,6,0,B|173:321|197:292|197:292|228:334|277:341,2,165.000005035401,0|8|0,3:0|0:0|3:0,0:0:0:0:
288,237,195473,1,0,3:0:0:0:
395,227,195623,1,8,0:0:0:0:
349,328,195773,1,8,3:0:0:0:
491,197,195923,6,0,P|487:147|478:108,1,82.5000025177003,0|0,3:0|0:0,0:0:0:0:
353,10,196223,2,0,P|344:50|342:91,1,82.5000025177003,8|0,0:0|0:0,0:0:0:0:
221,223,196523,1,0,3:0:0:0:
233,141,196673,1,0,3:0:0:0:
284,289,196823,5,8,0:0:0:0:
71,339,196973,2,0,P|61:284|94:166,1,165.000005035401,4|0,0:0|3:0,0:0:0:0:
283,58,197423,1,8,0:0:0:0:
313,178,197573,1,0,3:0:0:0:
26,116,197723,6,0,P|66:98|122:100,1,82.5000025177003,8|0,1:2|0:0,0:0:0:0:
313,178,198023,2,0,P|273:160|217:162,1,82.5000025177003,8|0,1:2|0:0,0:0:0:0:
448,337,198323,6,0,L|443:248,1,82.5000025177003,8|0,1:2|0:0,0:0:0:0:
200,333,198623,2,0,L|279:373,1,82.5000025177003,8|0,1:2|0:0,0:0:0:0:
327,120,198923,2,0,L|252:168,1,82.5000025177003,8|0,1:2|3:0,0:0:0:0:
138,248,199223,5,8,1:2:0:0:
344,258,199373,1,0,3:0:0:0:
476,117,199523,2,0,P|481:79|470:29,1,82.5000025177003,8|0,0:0|0:0,0:0:0:0:
243,260,199823,2,0,P|234:300|239:341,1,82.5000025177003,8|0,1:2|0:0,0:0:0:0:
321,153,200123,5,0,1:2:0:0:
171,161,200273,1,0,3:0:0:0:
21,169,200423,1,0,1:2:0:0:
21,169,200498,1,0,1:0:0:0:
21,169,200573,1,4,1:2:0:0:
