osu file format v14

[General]
AudioFilename: audio.mp3
AudioLeadIn: 0
PreviewTime: 103363
Countdown: 0
SampleSet: Soft
StackLeniency: 0.3
Mode: 0
LetterboxInBreaks: 0
WidescreenStoryboard: 1

[Editor]
Bookmarks: 3613,193513
DistanceSpacing: 1.2
BeatDivisor: 4
GridSize: 8
TimelineZoom: 1.3

[Metadata]
Title:HIBANA
TitleUnicode:ヒバナ
Artist:soraru x mafumafu
ArtistUnicode:そらる×まふまふ
Creator:Testo
Version:Hard
Source:
Tags:SPARKS 火花 HATSUNE MIKU 10th Anniversary Album Re:Start DECO*27 Vocaloid 初音ミク Akitoshi Djulus
BeatmapID:1539594
BeatmapSetID:691103

[Difficulty]
HPDrainRate:4
CircleSize:3.5
OverallDifficulty:7
ApproachRate:8
SliderMultiplier:1.3
SliderTickRate:1

[Events]
//Background and Video events
0,0,"DECO228.png",0,0
//Break Periods
2,17323,23573
2,65113,71573
2,122713,126773
2,143113,147173
2,155113,163673
//Storyboard Layer 0 (Background)
//Storyboard Layer 1 (Fail)
//Storyboard Layer 2 (Pass)
//Storyboard Layer 3 (Foreground)
//Storyboard Sound Samples

[TimingPoints]
323,300,4,2,1,75,1,0
323,-100,4,2,1,75,0,0
2423,-100,4,2,1,75,0,0
2723,-100,4,2,1,75,0,0
6323,-100,4,2,1,75,0,0
7523,-100,4,2,1,75,0,0
17123,-100,4,2,1,65,0,0
21323,-100,4,2,2,75,0,0
21623,-100,4,2,1,55,0,0
21923,-100,4,2,1,55,0,0
22373,-100,4,2,2,55,0,0
23123,-100,4,2,1,55,0,0
23573,-100,4,2,2,55,0,0
23873,-100,4,2,1,55,0,0
26723,-100,4,2,1,65,0,0
36323,-100,4,2,1,65,0,0
41123,-100,4,2,1,75,0,0
43523,-100,4,2,1,75,0,0
45323,-100,4,2,1,55,0,0
45923,-100,4,2,1,75,0,1
63923,-100,4,2,1,75,0,0
64523,-100,4,2,1,75,0,0
65123,-100,4,2,1,75,0,0
72173,-100,4,2,1,65,0,0
74723,-100,4,2,1,55,0,0
82973,-100,4,2,1,65,0,0
84323,-100,4,2,1,65,0,0
93923,-100,4,2,1,65,0,0
98723,-100,4,2,1,75,0,0
101123,-100,4,2,1,75,0,0
102173,-100,4,2,1,55,0,0
103523,-100,4,2,1,75,0,1
121523,-100,4,2,1,75,0,0
122123,-100,4,2,1,75,0,0
122723,-100,4,2,1,75,0,0
127523,-100,4,2,1,55,0,0
128723,-100,4,2,1,55,0,0
129923,-100,4,2,1,55,0,0
131723,-100,4,2,1,55,0,0
132323,-100,4,2,1,75,0,0
136523,-100,4,2,1,75,0,0
137048,-100,4,2,1,10,0,0
137123,-100,4,2,1,75,0,0
142523,-100,4,2,1,75,0,0
143123,-100,4,2,1,65,0,0
147923,-100,4,2,1,75,0,0
150323,-100,4,2,1,65,0,0
155123,-100,4,2,1,55,0,0
164723,-100,4,2,1,65,0,0
169523,-100,4,2,1,65,0,0
171923,-100,4,2,1,75,0,0
173123,-100,4,2,1,75,0,0
173723,-100,4,2,1,45,0,0
174023,-100,4,2,1,55,0,0
174323,-100,4,2,1,75,0,1
200573,-100,4,2,1,75,0,0

[Colours]
Combo1 : 0,128,255
Combo2 : 0,128,64
Combo3 : 193,193,0
Combo4 : 210,0,142
Combo5 : 128,0,255
Combo6 : 217,0,44

[HitObjects]
218,118,323,6,0,L|127:111,2,86.6666666666666,4|0|0,3:2|3:0|3:0,0:0:0:0:
311,165,923,2,0,L|402:158,2,86.6666666666666,0|0|0,1:2|3:0|3:0,0:0:0:0:
218,212,1523,2,0,L|127:205,2,86.6666666666666,4|0|0,3:2|3:0|3:0,0:0:0:0:
311,259,2123,1,0,1:2:0:0:
311,259,2423,5,2,3:0:0:0:
311,259,2723,6,0,B|383:230|376:278|455:244,1,130,12|0,3:2|3:0,0:0:0:0:
479,183,3173,1,0,3:0:0:0:
479,183,3248,1,0,3:0:0:0:
479,183,3323,2,0,P|478:149|485:107,1,65,0|0,3:0|3:0,0:0:0:0:
403,29,3623,2,0,P|408:61|407:94,1,65,0|0,3:0|3:0,0:0:0:0:
360,156,3923,6,0,P|305:147|231:180,1,130,10|0,3:2|3:0,0:0:0:0:
181,227,4373,1,0,3:0:0:0:
181,227,4448,1,0,3:0:0:0:
181,227,4523,2,0,P|140:231|107:220,1,65,0|0,3:0|3:0,0:0:0:0:
58,173,4823,2,0,P|54:132|65:99,1,65,0|0,3:0|3:0,0:0:0:0:
120,59,5123,6,0,L|186:54,1,65,12|0,3:2|3:0,0:0:0:0:
252,93,5423,2,0,L|318:88,1,65,8|0,3:2|3:0,0:0:0:0:
387,170,5723,6,0,L|323:166,1,65,8|0,3:2|3:0,0:0:0:0:
253,202,6023,2,0,L|188:197,1,65,8|0,3:2|3:0,0:0:0:0:
121,238,6323,5,0,1:0:0:0:
121,238,6773,1,0,1:0:0:0:
121,238,7223,1,0,1:0:0:0:
121,238,7523,6,0,L|109:314,1,65,4|0,3:2|0:0,0:0:0:0:
177,343,7823,2,0,L|329:318,1,130,8|0,0:0|3:0,0:0:0:0:
380,343,8273,2,0,P|345:319|362:229,1,130,0|0,1:0|0:0,0:0:0:0:
409,187,8723,6,0,B|426:138|426:138|416:35,1,130,0|8,3:0|0:0,0:0:0:0:
350,22,9173,2,0,B|272:14|272:14|223:31,1,130,0|0,0:0|0:0,0:0:0:0:
166,85,9623,1,8,0:0:0:0:
166,85,9773,1,8,0:0:0:0:
101,129,9923,6,0,L|106:224,1,65,4|0,3:2|0:0,0:0:0:0:
169,237,10223,2,0,P|233:217|303:234,1,130,8|0,0:0|3:0,0:0:0:0:
353,278,10673,2,0,P|341:245|361:151,1,130,0|0,1:0|0:0,0:0:0:0:
387,82,11123,6,0,B|314:63|330:112|243:88,1,130,0|8,3:0|0:0,0:0:0:0:
196,137,11573,2,0,P|158:122|46:152,1,130,0|0,0:0|0:0,0:0:0:0:
37,204,12023,2,0,L|42:258,3,32.5,8|8|8|8,3:2|3:2|3:2|3:2,0:0:0:0:
57,270,12323,6,0,P|103:283|134:281,1,65,4|0,3:2|0:0,0:0:0:0:
187,243,12623,2,0,P|217:229|321:270,1,130,8|0,0:0|3:0,0:0:0:0:
361,308,13073,2,0,L|354:163,1,130,0|0,1:0|0:0,0:0:0:0:
302,120,13523,6,0,L|157:113,1,130,0|8,3:0|0:0,0:0:0:0:
107,167,13973,2,0,B|148:191|148:191|246:197,1,130,0|0,0:0|0:0,0:0:0:0:
308,197,14423,1,8,0:0:0:0:
308,197,14573,1,0,3:0:0:0:
384,214,14723,6,0,L|462:205,2,65,8|0|0,3:2|3:0|3:0,0:0:0:0:
328,283,15173,2,0,L|263:290,2,65,8|0|0,3:2|3:0|3:0,0:0:0:0:
191,247,15623,2,0,L|126:239,1,65,8|0,3:2|3:0,0:0:0:0:
61,196,15923,5,8,3:0:0:0:
56,118,16073,2,0,L|55:75,2,32.5,8|8|8,3:0|3:0|3:0,0:0:0:0:
61,196,16373,1,8,3:0:0:0:
62,273,16523,2,0,L|63:347,1,65,8|0,3:0|3:0,0:0:0:0:
141,336,16823,2,0,L|139:271,1,65,0|0,3:0|3:0,0:0:0:0:
172,199,17123,5,4,0:0:0:0:
144,133,24323,6,0,L|208:127,1,65,12|8,3:0|3:0,0:0:0:0:
268,177,24623,2,0,L|332:171,1,65,0|0,0:0|3:0,0:0:0:0:
407,194,24923,1,8,3:2:0:0:
407,194,25073,1,8,3:0:0:0:
369,262,25223,2,0,L|305:268,1,65,8|8,3:0|3:0,0:0:0:0:
233,301,25523,5,8,0:0:0:0:
233,301,25673,2,0,P|205:295|161:298,1,65,4|0,3:2|0:0,0:0:0:0:
112,241,25973,2,0,P|118:213|115:169,1,65,4|0,3:2|0:0,0:0:0:0:
156,108,26273,1,4,3:2:0:0:
156,108,26423,1,8,0:0:0:0:
156,108,26723,6,0,P|226:95|297:95,1,130,4|8,0:0|0:0,0:0:0:0:
358,127,27173,1,0,0:0:0:0:
358,127,27323,2,0,L|366:201,2,65,0|0|8,3:0|0:0|0:0,0:0:0:0:
284,94,27773,6,0,P|254:87|220:88,1,65,0|0,0:0|3:0,0:0:0:0:
173,151,28073,2,0,P|142:152|109:161,1,65,0|8,0:0|0:0,0:0:0:0:
80,234,28373,2,0,P|50:242|21:260,2,65,0|0|0,0:0|3:0|0:0,0:0:0:0:
148,281,28823,1,8,0:0:0:0:
148,281,28973,1,8,3:2:0:0:
212,324,29123,6,0,P|275:302|344:307,1,130,0|8,3:0|0:0,0:0:0:0:
398,255,29573,1,0,0:0:0:0:
398,255,29723,2,0,L|407:187,2,65,0|0|8,0:0|0:0|0:0,0:0:0:0:
433,324,30173,6,0,P|463:313|495:313,1,65,0|0,0:0|3:0,0:0:0:0:
356,338,30473,2,0,P|322:326|283:329,1,65,0|8,0:0|0:0,0:0:0:0:
222,293,30773,2,0,P|188:305|149:302,2,65,0|0|0,0:0|3:0|0:0,0:0:0:0:
260,225,31223,2,0,L|266:156,1,65,8|0,0:0|0:0,0:0:0:0:
326,111,31523,6,0,P|283:134|208:93,1,130,4|8,3:2|0:0,0:0:0:0:
136,89,31973,1,0,0:0:0:0:
136,89,32123,2,0,P|89:98|68:106,2,65,0|0|8,3:0|0:0|0:0,0:0:0:0:
164,162,32573,6,0,L|156:228,1,65,0|0,0:0|3:0,0:0:0:0:
233,217,32873,2,0,L|242:281,1,65,0|8,0:0|0:0,0:0:0:0:
313,252,33173,2,0,L|338:311,2,65,0|0|0,0:0|3:0|0:0,0:0:0:0:
349,182,33623,1,8,0:0:0:0:
349,182,33773,1,0,0:0:0:0:
398,121,33923,6,0,P|399:90|395:44,1,65,4|0,3:2|0:0,0:0:0:0:
324,25,34223,2,0,P|266:18|189:42,1,130,8|0,0:0|3:0,0:0:0:0:
152,100,34673,1,0,0:0:0:0:
152,100,34823,2,0,P|117:100|69:93,1,65,8|0,0:0|0:0,0:0:0:0:
35,156,35123,6,0,L|40:241,1,65,12|8,3:2|3:0,0:0:0:0:
85,292,35423,1,8,3:0:0:0:
85,292,35573,1,8,0:0:0:0:
161,311,35723,2,0,L|225:314,1,65,8|0,3:2|3:0,0:0:0:0:
287,267,36023,2,0,L|351:270,1,65,8|8,3:0|3:0,0:0:0:0:
409,217,36323,6,0,P|407:180|413:149,1,65,4|0,0:0|0:0,0:0:0:0:
467,97,36623,2,0,P|413:112|353:65,1,130,8|0,0:0|3:0,0:0:0:0:
289,31,37073,2,0,L|216:36,1,65,0|8,3:0|0:0,0:0:0:0:
159,79,37373,6,0,P|155:129|142:215,2,130,0|0|0,1:0|1:0|3:0,0:0:0:0:
91,40,38123,2,0,P|63:37|6:49,1,65,0|0,3:0|3:0,0:0:0:0:
4,116,38423,2,0,P|8:148|5:180,1,65,8|0,0:0|3:0,0:0:0:0:
37,251,38723,6,0,L|121:245,1,65,4|0,0:0|3:0,0:0:0:0:
172,279,39023,2,0,L|319:268,1,130,8|0,0:0|3:0,0:0:0:0:
371,234,39473,2,0,L|377:150,1,65,0|8,3:0|0:0,0:0:0:0:
328,106,39773,6,0,P|282:117|198:84,2,130,0|0|0,1:0|1:0|3:0,0:0:0:0:
390,59,40523,2,0,L|454:52,1,65,0|0,3:0|0:0,0:0:0:0:
509,136,40823,2,0,L|445:129,1,65,8|0,0:0|3:0,0:0:0:0:
385,180,41123,6,0,P|387:232|396:268,1,65,8|0,3:2|3:0,0:0:0:0:
307,322,41423,2,0,P|312:290|312:258,1,65,8|0,1:2|3:0,0:0:0:0:
228,192,41723,2,0,P|228:224|233:257,1,65,8|0,1:2|3:0,0:0:0:0:
285,138,42023,1,8,1:2:0:0:
285,138,42173,1,0,3:0:0:0:
209,117,42323,6,0,L|134:112,1,65,8|0,0:0|3:0,0:0:0:0:
57,191,42623,2,0,L|122:187,1,65,8|0,1:2|3:0,0:0:0:0:
245,241,42923,2,0,L|181:237,1,65,8|0,1:2|3:0,0:0:0:0:
121,287,43223,1,8,0:0:0:0:
121,287,43373,1,0,3:0:0:0:
173,344,43523,6,0,L|318:334,1,130,8|0,1:2|3:0,0:0:0:0:
369,295,43973,2,0,B|398:224|346:235|382:153,1,130,8|0,1:2|3:0,0:0:0:0:
417,102,44423,1,8,1:2:0:0:
417,102,45323,6,0,L|358:97,3,32.5,0|8|0|8,1:0|3:0|1:0|3:0,0:0:0:0:
346,110,45623,6,0,L|313:112,3,32.5,0|8|0|8,1:0|3:0|1:0|3:0,0:0:0:0:
274,120,45923,6,0,L|191:114,1,65,4|0,3:2|0:0,0:0:0:0:
146,162,46223,2,0,L|63:156,1,65,8|0,0:0|0:0,0:0:0:0:
61,232,46523,2,0,L|197:241,1,130,0|8,3:0|0:0,0:0:0:0:
258,279,46973,6,0,L|387:269,1,130,2|0,1:1|3:1,0:0:0:0:
445,216,47423,1,8,0:0:0:0:
445,216,47573,1,0,0:0:0:0:
479,146,47723,2,0,P|481:117|472:81,1,65,0|0,1:0|3:0,0:0:0:0:
396,64,48023,2,0,P|361:67|269:32,1,130,8|4,0:0|3:2,0:0:0:0:
205,73,48473,6,0,P|179:94|147:107,1,65,0|8,0:0|0:0,0:0:0:0:
106,173,48773,1,0,0:0:0:0:
106,173,48923,2,0,P|108:212|100:249,1,65,0|0,3:0|3:0,0:0:0:0:
197,297,49223,1,8,0:0:0:0:
197,297,49373,6,0,P|192:264|209:149,1,130,4|0,0:0|3:0,0:0:0:0:
269,126,49823,2,0,L|343:120,1,65,8|8,3:0|3:0,0:0:0:0:
395,169,50123,2,0,L|469:163,1,65,0|0,3:0|3:0,0:0:0:0:
491,236,50423,1,0,3:0:0:0:
491,236,50573,1,0,3:0:0:0:
468,309,50723,6,0,P|435:317|380:312,1,65,4|0,3:2|0:0,0:0:0:0:
333,283,51023,2,0,P|300:283|269:290,1,65,8|0,0:0|0:0,0:0:0:0:
212,344,51323,2,0,P|234:304|212:222,1,130,0|8,3:0|0:0,0:0:0:0:
174,158,51773,6,0,B|245:130|240:173|315:143,1,130,2|0,1:1|3:1,0:0:0:0:
372,114,52223,1,8,0:0:0:0:
372,114,52373,1,0,0:0:0:0:
443,144,52523,2,0,P|449:186|445:220,1,65,0|0,1:0|3:0,0:0:0:0:
397,268,52823,2,0,P|335:276|263:252,1,130,12|4,0:0|3:2,0:0:0:0:
195,237,53273,6,0,L|130:244,1,65,0|0,3:0|3:0,0:0:0:0:
244,173,53573,1,0,3:0:0:0:
244,173,53723,2,0,L|320:182,1,65,8|0,1:2|3:0,0:0:0:0:
189,111,54023,1,8,1:2:0:0:
189,111,54173,6,0,L|29:129,1,130,4|0,0:0|3:0,0:0:0:0:
31,199,54623,2,0,L|21:276,1,65,8|8,3:0|3:0,0:0:0:0:
56,334,54923,2,0,L|132:324,1,65,12|0,3:0|3:0,0:0:0:0:
197,313,55223,1,8,0:0:0:0:
197,313,55523,6,0,P|256:320|334:348,2,130,4|8|0,0:0|0:0|3:0,0:0:0:0:
149,250,56273,1,0,3:0:0:0:
149,250,56423,2,0,P|145:199|140:179,1,65,8|0,0:0|0:0,0:0:0:0:
182,119,56723,6,0,P|244:134|337:127,2,130,0|8|0,3:0|0:0|3:0,0:0:0:0:
109,89,57473,1,0,3:0:0:0:
109,89,57623,2,0,P|70:91|45:95,1,65,8|8,0:0|3:0,0:0:0:0:
19,168,57923,6,0,L|13:244,1,65,0|0,3:0|0:0,0:0:0:0:
69,288,58223,2,0,L|133:282,1,65,8|0,0:0|0:0,0:0:0:0:
206,253,58523,2,0,L|270:258,1,65,0|0,3:0|3:0,0:0:0:0:
333,314,58823,1,8,0:0:0:0:
333,314,58973,6,0,P|313:262|337:166,1,130,4|0,0:0|3:0,0:0:0:0:
365,123,59423,2,0,L|358:52,1,65,8|0,0:0|3:0,0:0:0:0:
285,104,59723,2,0,L|278:33,1,65,8|0,1:2|0:0,0:0:0:0:
205,85,60023,1,8,1:2:0:0:
205,85,60323,6,0,B|150:76|150:76|49:95,2,130,4|8|0,0:0|0:0|3:0,0:0:0:0:
244,163,61073,1,0,3:0:0:0:
244,163,61223,2,0,P|237:202|241:228,1,65,8|0,0:0|0:0,0:0:0:0:
304,268,61523,6,0,P|263:254|162:289,2,130,0|8|0,3:0|0:0|3:0,0:0:0:0:
370,327,62273,1,0,3:0:0:0:
370,327,62423,1,8,0:0:0:0:
423,264,62573,6,0,B|441:182|391:213|411:124,1,130,4|0,3:2|3:0,0:0:0:0:
352,82,63023,2,0,P|315:81|273:70,1,65,8|0,1:2|3:0,0:0:0:0:
225,121,63323,2,0,P|188:122|146:133,1,65,8|0,1:2|3:0,0:0:0:0:
103,181,63623,2,0,P|66:180|24:169,1,65,8|10,3:2|3:0,0:0:0:0:
169,232,63923,5,4,1:2:0:0:
169,232,64823,1,0,3:0:0:0:
151,196,72323,6,0,L|351:182,1,195,4|8,1:2|3:0,0:0:0:0:
345,182,73373,1,0,3:0:0:0:
345,188,73448,1,0,3:0:0:0:
345,194,73523,2,0,L|341:252,6,43.3333333333333,8|8|8|8|8|8|8,3:2|3:2|3:2|3:2|3:2|3:2|3:2,0:0:0:0:
439,65,74423,5,2,0:0:0:0:
439,65,74723,6,0,P|402:76|308:44,1,130,4|0,0:0|1:0,0:0:0:0:
239,40,75173,2,0,P|208:47|158:45,2,65,0|0|0,1:0|3:0|0:0,0:0:0:0:
268,119,75623,1,0,1:0:0:0:
268,119,75773,6,0,P|256:196|258:268,2,130,0|0|0,3:0|3:0|1:0,0:0:0:0:
316,51,76523,2,0,L|383:47,1,65,0|0,3:0|0:0,0:0:0:0:
427,121,76823,2,0,L|362:124,1,65,0|0,1:0|0:0,0:0:0:0:
304,178,77123,6,0,L|167:169,1,130,0|0,3:0|1:0,0:0:0:0:
105,133,77573,2,0,L|40:136,2,65,0|0|0,1:0|3:0|0:0,0:0:0:0:
112,214,78023,1,0,1:0:0:0:
112,214,78173,6,0,P|103:254|110:359,1,130,0|0,3:0|3:0,0:0:0:0:
178,384,78623,1,0,1:0:0:0:
178,384,78773,2,0,L|313:370,1,130,4|0,1:0|0:0,0:0:0:0:
375,331,79223,2,0,P|378:295|389:250,1,65,0|0,1:0|0:0,0:0:0:0:
449,225,79523,6,0,P|389:236|329:201,1,130,4|0,0:0|1:0,0:0:0:0:
259,172,79973,2,0,P|216:185|191:201,2,65,0|0|0,1:0|3:0|0:0,0:0:0:0:
307,110,80423,1,0,1:0:0:0:
307,110,80573,6,0,P|346:88|455:83,2,130,0|0|0,3:0|3:0|1:0,0:0:0:0:
231,88,81323,1,0,3:0:0:0:
231,88,81623,2,0,P|202:112|171:130,1,65,0|0,1:0|0:0,0:0:0:0:
220,194,81923,6,0,L|213:272,1,65,4|0,3:2|0:0,0:0:0:0:
257,324,82223,2,0,L|335:331,1,65,0|0,1:0|1:0,0:0:0:0:
387,287,82523,2,0,L|394:209,1,65,0|0,3:0|0:0,0:0:0:0:
345,160,82823,1,0,1:0:0:0:
345,160,82973,6,0,P|408:184|477:144,1,130,8|0,1:2|3:0,0:0:0:0:
486,86,83423,1,8,3:0:0:0:
486,86,83573,1,0,3:0:0:0:
417,37,83723,2,0,P|380:31|325:45,1,65,8|8,3:0|3:2,0:0:0:0:
286,76,84023,2,0,P|253:79|221:73,1,65,8|8,3:2|3:2,0:0:0:0:
162,23,84323,6,0,L|172:169,1,130,4|8,0:0|0:0,0:0:0:0:
229,215,84773,1,0,0:0:0:0:
229,215,84923,2,0,L|224:286,2,65,0|0|8,3:0|0:0|0:0,0:0:0:0:
289,165,85373,6,0,P|332:175|426:145,2,130,0|0|0,0:0|0:0|0:0,0:0:0:0:
248,97,86123,2,0,P|216:96|177:104,1,65,0|0,3:0|0:0,0:0:0:0:
124,153,86423,1,8,0:0:0:0:
124,153,86573,1,8,3:0:0:0:
73,212,86723,6,0,B|53:292|108:271|84:355,1,130,0|8,3:0|0:0,0:0:0:0:
165,368,87173,1,0,0:0:0:0:
165,368,87323,2,0,P|200:355|245:358,2,65,0|0|8,3:0|0:0|0:0,0:0:0:0:
163,276,87773,6,0,L|185:213,1,65,0|0,0:0|3:0,0:0:0:0:
259,195,88073,2,0,L|302:245,1,65,0|8,0:0|0:0,0:0:0:0:
359,296,88373,2,0,L|486:271,1,130,0|0,0:0|0:0,0:0:0:0:
508,196,88823,1,8,3:2:0:0:
508,196,89123,6,0,P|461:193|412:116,1,130,4|8,0:0|0:0,0:0:0:0:
359,74,89573,1,0,0:0:0:0:
359,74,89723,2,0,P|326:77|286:88,2,65,0|0|8,3:0|3:0|0:0,0:0:0:0:
412,16,90173,6,0,L|398:170,2,130,0|0|0,0:0|0:0|0:0,0:0:0:0:
334,12,90923,2,0,P|303:24|268:25,1,65,0|0,3:0|0:0,0:0:0:0:
205,66,91223,2,0,P|172:67|142:79,1,65,8|8,0:0|3:0,0:0:0:0:
112,151,91523,6,0,L|105:234,1,65,4|0,0:0|0:0,0:0:0:0:
151,285,91823,1,8,3:0:0:0:
151,285,91973,2,0,L|215:279,1,65,0|0,0:0|3:0,0:0:0:0:
279,234,92273,2,0,L|343:239,1,65,0|8,0:0|0:0,0:0:0:0:
418,203,92573,5,0,3:0:0:0:
418,203,92648,1,0,3:0:0:0:
418,203,92723,2,0,P|409:167|409:133,1,65,8|0,3:2|3:0,0:0:0:0:
361,76,93023,1,0,3:0:0:0:
361,76,93173,1,8,3:0:0:0:
283,59,93323,2,0,P|250:60|219:68,1,65,0|0,1:0|3:0,0:0:0:0:
151,137,93623,2,0,P|183:139|215:147,1,65,0|0,3:0|3:0,0:0:0:0:
267,204,93923,6,0,L|340:199,1,65,4|0,0:0|0:0,0:0:0:0:
358,272,94223,2,0,L|221:281,1,130,8|0,0:0|3:0,0:0:0:0:
169,229,94673,2,0,L|104:224,1,65,0|8,0:0|0:0,0:0:0:0:
46,172,94973,6,0,P|66:223|49:318,2,130,0|0|0,1:0|1:0|3:0,0:0:0:0:
104,120,95723,2,0,P|132:117|189:129,1,65,0|0,3:0|3:0,0:0:0:0:
226,173,96023,2,0,P|258:177|290:174,1,65,8|0,0:0|0:0,0:0:0:0:
350,125,96323,6,0,L|354:60,1,65,4|0,0:0|0:0,0:0:0:0:
364,201,96623,2,0,L|375:348,1,130,8|0,0:0|3:0,0:0:0:0:
302,363,97073,2,0,L|237:358,1,65,0|8,3:0|0:0,0:0:0:0:
188,297,97373,6,0,P|189:232|178:163,2,130,0|0|0,1:0|1:0|3:0,0:0:0:0:
119,334,98123,2,0,P|87:328|55:327,1,65,0|0,3:0|0:0,0:0:0:0:
12,260,98423,2,0,P|18:228|19:196,1,65,8|0,0:0|3:0,0:0:0:0:
79,146,98723,6,0,P|131:144|167:135,1,65,8|0,0:0|3:0,0:0:0:0:
205,94,99023,2,0,P|257:96|293:105,1,65,8|0,1:2|3:0,0:0:0:0:
318,159,99323,2,0,P|370:157|406:148,1,65,8|0,1:2|3:0,0:0:0:0:
455,194,99623,1,8,1:2:0:0:
455,194,99773,1,0,3:0:0:0:
424,266,99923,6,0,P|420:296|425:336,1,65,8|0,1:2|3:0,0:0:0:0:
341,366,100223,2,0,P|344:333|340:301,1,65,8|0,1:2|3:0,0:0:0:0:
264,254,100523,2,0,P|260:286|263:318,1,65,8|0,1:2|3:0,0:0:0:0:
321,200,100823,1,8,0:0:0:0:
321,200,100973,1,0,3:0:0:0:
290,128,101123,6,0,B|254:107|254:107|156:117,1,130,8|0,1:2|3:0,0:0:0:0:
118,177,101573,2,0,P|133:115|121:52,1,130,8|0,1:2|3:0,0:0:0:0:
39,182,102023,1,8,1:2:0:0:
39,182,102323,6,0,L|36:222,3,32.5,0|0|0|0,3:0|3:0|3:0|3:0,0:0:0:0:
56,248,102623,2,0,L|59:288,3,32.5,8|0|0|0,3:0|3:0|3:0|3:0,0:0:0:0:
76,314,102923,6,0,P|121:305|158:309,1,65,8|0,3:2|3:0,0:0:0:0:
199,255,103223,2,0,P|244:246|281:250,1,65,8|0,3:2|3:0,0:0:0:0:
333,212,103523,6,0,P|337:173|339:129,1,65,4|0,3:2|0:0,0:0:0:0:
291,85,103823,2,0,P|252:81|208:79,1,65,8|0,0:0|0:0,0:0:0:0:
172,135,104123,2,0,P|193:75|172:15,1,130,0|8,3:0|0:0,0:0:0:0:
115,190,104573,6,0,P|171:179|244:180,1,130,2|0,1:1|3:1,0:0:0:0:
317,207,105023,1,8,0:0:0:0:
317,207,105173,1,0,0:0:0:0:
389,235,105323,2,0,P|421:226|455:227,1,65,0|0,1:0|3:0,0:0:0:0:
484,154,105623,2,0,P|450:102|454:35,1,130,8|4,0:0|3:2,0:0:0:0:
374,36,106073,6,0,P|336:49|291:49,1,65,0|8,0:0|0:0,0:0:0:0:
241,85,106373,1,0,0:0:0:0:
241,85,106523,2,0,P|243:124|235:161,1,65,0|0,3:0|3:0,0:0:0:0:
210,225,106823,1,8,0:0:0:0:
209,225,106973,6,0,P|149:246|89:225,1,130,4|0,0:0|3:0,0:0:0:0:
292,213,107423,2,0,P|323:212|366:207,1,65,8|8,3:0|3:0,0:0:0:0:
423,249,107723,2,0,P|463:248|497:243,1,65,0|0,3:0|3:0,0:0:0:0:
500,331,108023,1,0,3:0:0:0:
500,331,108173,1,0,3:0:0:0:
425,352,108323,6,0,L|335:348,1,65,4|0,3:2|0:0,0:0:0:0:
302,297,108623,2,0,L|237:299,1,65,8|0,0:0|0:0,0:0:0:0:
186,358,108923,2,0,P|208:318|186:236,1,130,0|8,3:0|0:0,0:0:0:0:
127,191,109373,6,0,L|275:197,1,130,2|0,1:1|3:1,0:0:0:0:
329,167,109823,1,8,0:0:0:0:
329,167,109973,1,0,0:0:0:0:
389,216,110123,2,0,P|388:248|397:292,1,65,0|0,1:0|3:0,0:0:0:0:
341,338,110423,2,0,P|275:326|198:349,1,130,12|4,0:0|3:2,0:0:0:0:
142,310,110873,6,0,L|135:245,1,65,0|8,3:0|3:0,0:0:0:0:
191,191,111173,1,0,3:0:0:0:
191,191,111323,2,0,L|200:115,1,65,8|0,1:2|3:0,0:0:0:0:
260,79,111623,1,8,1:2:0:0:
260,79,111773,6,0,L|130:93,1,130,4|0,0:0|3:0,0:0:0:0:
77,151,112223,2,0,P|76:181|67:228,1,65,8|8,3:0|3:0,0:0:0:0:
107,284,112523,2,0,P|137:285|184:294,1,65,12|0,3:0|3:0,0:0:0:0:
239,329,112823,1,8,0:0:0:0:
239,329,113123,6,0,P|302:306|384:313,2,130,4|8|0,0:0|0:0|3:0,0:0:0:0:
173,286,113873,1,0,3:0:0:0:
173,286,114023,2,0,P|172:244|169:220,1,65,8|0,0:0|0:0,0:0:0:0:
202,150,114323,6,0,B|265:124|267:170|331:135,2,130,0|8|0,3:0|0:0|3:0,0:0:0:0:
131,114,115073,1,0,3:0:0:0:
131,114,115223,2,0,P|94:118|55:111,1,65,8|0,0:0|3:0,0:0:0:0:
18,175,115523,6,0,P|21:208|12:251,1,65,0|0,3:0|0:0,0:0:0:0:
71,291,115823,2,0,L|135:285,1,65,8|0,0:0|0:0,0:0:0:0:
206,253,116123,2,0,L|270:258,1,65,0|0,3:0|3:0,0:0:0:0:
333,317,116423,1,8,0:0:0:0:
333,317,116573,6,0,L|320:182,1,130,4|0,0:0|3:0,0:0:0:0:
363,122,117023,2,0,P|364:91|372:52,1,65,8|0,0:0|0:0,0:0:0:0:
285,104,117323,2,0,P|281:59|271:33,1,65,8|0,1:2|0:0,0:0:0:0:
203,85,117623,1,8,1:2:0:0:
203,85,117923,6,0,P|146:96|61:62,2,130,4|8|0,0:0|0:0|3:0,0:0:0:0:
240,163,118673,1,0,3:0:0:0:
240,163,118823,2,0,L|237:228,1,65,8|0,0:0|0:0,0:0:0:0:
205,299,119123,6,0,P|160:290|77:312,2,130,0|8|0,3:0|0:0|3:0,0:0:0:0:
281,326,119873,1,0,3:0:0:0:
281,326,120023,1,8,0:0:0:0:
353,299,120173,6,0,B|366:245|366:245|341:159,1,130,4|0,0:0|3:0,0:0:0:0:
293,114,120623,2,0,L|214:102,1,65,8|0,1:2|3:0,0:0:0:0:
174,161,120923,2,0,L|95:149,1,65,8|0,1:2|3:0,0:0:0:0:
64,215,121223,2,0,L|0:205,1,65,8|0,3:2|3:0,0:0:0:0:
140,235,121523,5,4,1:2:0:0:
140,235,122423,1,0,3:0:0:0:
256,192,127523,12,8,131123,3:0:0:0:
166,134,131723,6,0,P|173:171|169:209,1,65,2|2,0:0|0:0,0:0:0:0:
242,229,132023,2,0,P|235:260|236:293,1,65,2|2,0:0|0:0,0:0:0:0:
302,334,132323,6,0,L|377:327,1,65,4|0,0:0|3:0,0:0:0:0:
429,280,132623,2,0,P|420:228|432:134,1,130,2|2,3:0|0:0,0:0:0:0:
387,83,133073,2,0,L|306:75,1,65,2|2,0:0|0:0,0:0:0:0:
246,56,133373,2,0,L|207:59,2,32.5,0|0|8,3:0|3:0|1:3,0:0:0:0:
274,139,133673,5,2,0:0:0:0:
274,139,133823,2,0,P|274:176|279:214,1,65,2|2,0:0|0:0,0:0:0:0:
198,208,134123,2,0,P|198:240|194:273,1,65,2|2,0:0|0:0,0:0:0:0:
124,313,134423,1,2,0:0:0:0:
124,313,134573,1,2,0:0:0:0:
189,361,134723,6,0,L|276:352,1,65,4|0,0:0|3:0,0:0:0:0:
316,308,135023,2,0,L|332:151,1,130,2|2,3:0|0:0,0:0:0:0:
258,145,135473,2,0,L|244:274,1,130,2|2,0:0|0:0,0:0:0:0:
180,142,135923,2,0,P|147:148|53:111,1,130,8|0,1:3|0:0,0:0:0:0:
0,169,136373,1,0,0:0:0:0:
0,169,136523,1,8,1:3:0:0:
136,329,137123,6,0,P|171:321|211:322,1,65,4|0,0:0|3:0,0:0:0:0:
263,366,137423,2,0,P|240:321|271:225,1,130,2|2,3:0|0:0,0:0:0:0:
353,178,137873,2,0,B|316:183|316:183|290:176,1,65,0|0,0:0|0:0,0:0:0:0:
219,140,138173,2,0,L|180:143,2,32.5,0|0|8,3:0|3:0|1:3,0:0:0:0:
289,95,138473,5,2,0:0:0:0:
289,95,138623,2,0,P|289:58|284:20,1,65,2|2,0:0|0:0,0:0:0:0:
208,17,138923,2,0,P|171:17|133:12,1,65,2|2,0:0|0:0,0:0:0:0:
78,58,139223,1,2,0:0:0:0:
78,58,139373,1,2,0:0:0:0:
85,135,139523,6,0,L|94:222,1,65,4|0,0:0|3:0,0:0:0:0:
150,251,139823,2,0,P|195:242|302:255,1,130,2|0,3:0|0:0,0:0:0:0:
327,308,140273,2,0,P|391:315|455:304,1,130,2|2,0:0|0:0,0:0:0:0:
485,232,140723,6,0,B|475:189|475:189|488:149|488:149|474:85,1,130,8|0,3:0|3:0,0:0:0:0:
419,54,141173,1,0,3:0:0:0:
419,54,141323,2,0,L|360:51,4,32.5,0|0|0|0|8,3:0|3:0|3:0|3:0|3:2,0:0:0:0:
478,106,141773,1,8,3:2:0:0:
119,116,147923,6,0,L|191:106,1,65,12|0,3:0|3:0,0:0:0:0:
253,140,148223,2,0,L|325:130,1,65,8|0,3:0|3:0,0:0:0:0:
367,224,148523,6,0,L|295:214,1,65,8|0,3:0|3:0,0:0:0:0:
233,248,148823,2,0,L|161:238,1,65,8|0,3:0|3:0,0:0:0:0:
97,207,149123,6,0,P|101:171|93:136,1,65,12|0,3:0|3:0,0:0:0:0:
173,60,149423,2,0,P|167:92|172:125,1,65,8|0,3:0|3:0,0:0:0:0:
239,165,149723,2,0,L|316:155,1,65,8|0,3:0|3:0,0:0:0:0:
368,243,150023,2,0,L|304:235,1,65,8|0,3:0|3:0,0:0:0:0:
241,283,150323,5,12,3:0:0:0:
342,72,150773,1,2,3:0:0:0:
241,283,151223,2,0,P|187:277|105:288,2,130,2|0|0,3:0|3:0|3:0,0:0:0:0:
382,347,152123,1,0,3:0:0:0:
453,208,152423,2,0,L|443:136,1,65,0|0,3:0|0:0,0:0:0:0:
388,88,152723,6,0,P|322:98|251:75,1,130,2|0,3:0|0:0,0:0:0:0:
194,121,153173,2,0,P|204:187|181:258,1,130,2|0,3:0|0:0,0:0:0:0:
223,315,153623,1,2,3:0:0:0:
145,147,164423,5,0,3:0:0:0:
145,147,164723,2,0,L|289:132,2,130,4|0|0,3:2|3:0|3:0,0:0:0:0:
63,280,165623,2,0,L|-1:273,1,65,0|0,3:0|3:0,0:0:0:0:
126,325,165923,6,0,P|192:310|279:312,2,130,0|0|0,3:0|3:0|3:0,0:0:0:0:
54,357,166673,1,0,3:0:0:0:
54,357,166823,2,0,L|44:269,1,65,0|0,3:0|3:0,0:0:0:0:
82,223,167123,6,0,L|100:64,2,130,0|0|0,3:0|3:0|3:0,0:0:0:0:
232,264,168023,2,0,L|239:328,1,65,0|0,3:0|3:0,0:0:0:0:
268,194,168323,6,0,P|276:162|274:51,2,130,0|0|0,3:0|3:0|3:0,0:0:0:0:
196,226,169073,1,0,3:0:0:0:
196,226,169223,2,0,P|158:220|120:228,1,65,0|0,3:0|3:0,0:0:0:0:
99,152,169523,6,0,L|109:71,1,65,0|0,3:0|3:0,0:0:0:0:
183,74,169823,2,0,L|175:138,1,65,0|0,3:0|3:0,0:0:0:0:
251,124,170123,2,0,L|259:60,1,65,0|0,3:0|3:0,0:0:0:0:
334,45,170423,2,0,L|327:110,1,65,0|0,3:0|3:0,0:0:0:0:
371,172,170723,6,0,P|403:167|435:170,1,65,0|0,3:0|3:0,0:0:0:0:
311,224,171023,2,0,P|279:229|238:225,1,65,0|0,3:0|3:0,0:0:0:0:
171,247,171323,6,0,P|167:280|156:310,1,65,0|0,3:0|3:0,0:0:0:0:
95,225,171623,2,0,P|84:194|80:162,1,65,0|0,3:0|3:0,0:0:0:0:
129,102,171923,6,0,L|135:60,15,32.5,0|0|0|0|0|0|0|0|0|0|0|0|0|0|0|0,3:0|3:0|3:0|3:0|3:0|3:0|3:0|3:0|3:0|3:0|3:0|3:0|3:0|3:0|3:0|3:0,0:0:0:0:
166,48,173123,6,0,L|163:31,16,16.25,0|0|0|0|0|0|0|0|0|0|0|0|0|0|0|0|2,3:0|3:0|3:0|3:0|3:0|3:0|3:0|3:0|3:0|3:0|3:0|3:0|3:0|3:0|3:0|3:0|0:0,0:0:0:0:
290,142,174023,6,0,L|362:135,1,65,8|0,3:0|3:0,0:0:0:0:
415,185,174323,6,0,P|411:224|409:268,1,65,4|0,0:0|0:0,0:0:0:0:
347,296,174623,2,0,P|308:292|264:290,1,65,8|0,0:0|0:0,0:0:0:0:
213,253,174923,2,0,P|168:257|75:283,1,130,0|8,3:0|0:0,0:0:0:0:
36,218,175373,6,0,B|65:144|16:157|49:63,1,130,2|0,1:1|3:1,0:0:0:0:
105,45,175823,1,8,0:0:0:0:
105,45,175973,1,0,0:0:0:0:
168,90,176123,2,0,L|234:82,1,65,0|0,1:0|3:0,0:0:0:0:
275,147,176423,2,0,L|404:161,1,130,8|4,0:0|3:2,0:0:0:0:
203,179,176873,6,0,P|170:181|138:189,1,65,0|8,0:0|0:0,0:0:0:0:
88,249,177173,1,0,0:0:0:0:
88,249,177323,2,0,P|87:290|93:326,1,65,0|0,3:0|3:0,0:0:0:0:
157,362,177623,1,8,0:0:0:0:
157,362,177773,6,0,P|210:347|309:368,1,130,4|0,0:0|3:0,0:0:0:0:
350,316,178223,1,8,3:0:0:0:
350,316,178373,1,8,3:0:0:0:
404,260,178523,2,0,P|403:220|398:186,1,65,0|0,3:0|3:0,0:0:0:0:
345,139,178823,1,8,3:0:0:0:
345,139,178973,1,0,3:0:0:0:
276,101,179123,6,0,P|242:103|186:97,1,65,4|0,0:0|0:0,0:0:0:0:
117,172,179423,2,0,P|149:170|182:173,1,65,8|0,0:0|0:0,0:0:0:0:
270,310,179723,2,0,P|279:247|260:185,1,130,0|8,3:0|0:0,0:0:0:0:
201,348,180173,6,0,P|267:338|349:354,1,130,2|0,1:1|3:1,0:0:0:0:
406,359,180623,1,8,0:0:0:0:
406,359,180773,1,0,0:0:0:0:
432,285,180923,2,0,P|426:251|424:209,1,65,0|0,1:0|3:0,0:0:0:0:
383,154,181223,2,0,P|324:168|240:143,1,130,12|4,0:0|3:2,0:0:0:0:
181,174,181673,6,0,L|116:181,1,65,0|8,3:0|3:0,0:0:0:0:
244,240,181973,1,0,3:0:0:0:
244,240,182123,2,0,L|320:249,1,65,8|0,1:2|3:0,0:0:0:0:
163,266,182423,1,8,1:2:0:0:
163,266,182572,6,0,L|33:280,1,130,4|0,0:0|3:0,0:0:0:0:
7,197,183023,2,0,P|12:166|13:128,1,65,8|8,3:0|3:0,0:0:0:0:
63,72,183323,2,0,P|94:77|132:78,1,65,12|0,3:0|3:0,0:0:0:0:
175,16,183623,1,8,0:0:0:0:
175,16,183923,6,0,L|185:167,2,130,4|8|0,0:0|0:0|3:0,0:0:0:0:
254,13,184673,1,0,3:0:0:0:
254,13,184823,2,0,P|283:16|320:9,1,65,8|0,0:0|0:0,0:0:0:0:
365,71,185123,6,0,P|362:108|376:214,2,130,0|8|0,3:0|0:0|3:0,0:0:0:0:
282,127,185873,1,0,3:0:0:0:
282,127,186023,2,0,P|247:137|208:137,1,65,8|0,0:0|0:0,0:0:0:0:
147,171,186323,6,0,L|141:247,1,65,0|0,3:0|0:0,0:0:0:0:
169,309,186623,2,0,P|201:302|234:303,1,65,8|0,0:0|0:0,0:0:0:0:
92,298,186923,2,0,P|59:298|27:292,1,65,0|0,3:0|3:0,0:0:0:0:
141,235,187223,1,8,0:0:0:0:
141,235,187373,6,0,L|153:105,1,130,4|0,0:0|3:0,0:0:0:0:
231,97,187823,2,0,P|265:104|305:100,1,65,8|0,0:0|3:0,0:0:0:0:
379,99,188123,1,8,1:2:0:0:
379,99,188273,1,0,0:0:0:0:
446,148,188423,1,8,1:2:0:0:
446,148,188723,6,0,B|466:227|420:201|440:287,2,130,4|8|0,0:0|0:0|3:0,0:0:0:0:
365,179,189473,1,0,3:0:0:0:
365,179,189623,2,0,L|300:176,1,65,8|0,0:0|0:0,0:0:0:0:
225,199,189923,6,0,L|91:205,2,130,0|8|0,3:0|0:0|3:0,0:0:0:0:
244,123,190673,1,0,3:0:0:0:
244,123,190823,1,8,0:0:0:0:
179,75,190973,6,0,P|105:92|34:78,1,130,4|0,0:0|3:0,0:0:0:0:
18,155,191423,2,0,P|23:194|16:228,1,65,8|0,0:0|3:0,0:0:0:0:
76,271,191723,2,0,P|115:266|149:273,1,65,8|0,3:0|3:0,0:0:0:0:
199,332,192023,1,8,0:0:0:0:
199,332,192173,6,0,P|186:277|200:188,1,130,0|0,0:0|0:0,0:0:0:0:
252,151,192623,2,0,L|322:143,1,65,8|0,0:0|0:0,0:0:0:0:
415,222,192923,2,0,L|350:214,1,65,8|0,3:0|3:0,0:0:0:0:
477,173,193223,1,8,0:0:0:0:
477,173,193523,6,0,P|475:112|464:39,2,130,4|8|0,0:0|0:0|3:0,0:0:0:0:
415,222,194273,1,0,3:0:0:0:
415,222,194423,2,0,P|414:261|418:307,1,65,8|0,0:0|0:0,0:0:0:0:
360,341,194723,6,0,P|316:332|223:356,2,130,0|8|0,3:0|0:0|3:0,0:0:0:0:
329,255,195473,1,0,3:0:0:0:
329,255,195623,2,0,L|323:165,1,65,8|8,0:0|3:0,0:0:0:0:
272,130,195923,6,0,P|240:132|208:129,1,65,0|0,3:0|0:0,0:0:0:0:
334,80,196223,2,0,P|366:82|398:79,1,65,8|0,0:0|0:0,0:0:0:0:
269,36,196523,2,0,P|234:38|178:29,1,65,0|0,3:0|3:0,0:0:0:0:
131,61,196823,1,8,0:0:0:0:
131,61,196973,6,0,L|139:210,1,130,4|0,0:0|3:0,0:0:0:0:
184,253,197423,2,0,P|219:248|263:258,1,65,8|0,0:0|3:0,0:0:0:0:
315,292,197723,2,0,P|347:296|379:291,1,65,8|0,1:2|0:0,0:0:0:0:
427,230,198023,2,0,L|431:152,1,65,8|0,1:2|0:0,0:0:0:0:
381,103,198323,6,0,P|348:111|302:103,1,65,8|0,1:2|0:0,0:0:0:0:
247,72,198623,2,0,P|214:69|183:77,1,65,8|0,1:2|0:0,0:0:0:0:
144,144,198923,5,8,1:2:0:0:
144,144,199073,1,0,3:0:0:0:
217,259,199223,2,0,P|216:226|209:194,1,65,8|0,1:2|3:0,0:0:0:0:
258,325,199523,6,0,L|322:327,1,65,8|0,0:0|0:0,0:0:0:0:
387,282,199823,1,8,1:2:0:0:
387,282,199973,1,0,0:0:0:0:
423,213,200123,2,0,L|418:142,1,65,0|0,1:2|3:0,0:0:0:0:
383,78,200423,5,0,1:2:0:0:
383,78,200498,1,0,1:0:0:0:
383,78,200573,1,4,1:2:0:0:
