osu file format v14

[General]
AudioFilename: audio.mp3
AudioLeadIn: 0
PreviewTime: 103363
Countdown: 0
SampleSet: Soft
StackLeniency: 0.4
Mode: 0
LetterboxInBreaks: 0
WidescreenStoryboard: 1

[Editor]
Bookmarks: 14488,34813,92488,94738,98488,107188,115738,178288,181663,182113,182188,183313,188938,190888
DistanceSpacing: 1
BeatDivisor: 2
GridSize: 4
TimelineZoom: 1.2

[Metadata]
Title:HIBANA
TitleUnicode:ヒバナ
Artist:soraru x mafumafu
ArtistUnicode:そらる×まふまふ
Creator:Testo
Version:Easy
Source:
Tags:SPARKS 火花 HATSUNE MIKU 10th Anniversary Album Re:Start DECO*27 Vocaloid 初音ミク Akitoshi Djulus
BeatmapID:1539044
BeatmapSetID:691103

[Difficulty]
HPDrainRate:3
CircleSize:3
OverallDifficulty:3
ApproachRate:4
SliderMultiplier:0.799999999999999
SliderTickRate:1

[Events]
//Background and Video events
0,0,"DECO228.png",0,0
//Break Periods
2,17323,25103
2,36523,39803
2,65113,71003
2,94123,97403
2,122713,126203
2,143113,146603
2,155323,163403
//Storyboard Layer 0 (Background)
//Storyboard Layer 1 (Fail)
//Storyboard Layer 2 (Pass)
//Storyboard Layer 3 (Foreground)
//Storyboard Sound Samples

[TimingPoints]
323,300,4,2,1,75,1,0
323,-100,4,2,1,75,0,0
2423,-100,4,2,1,75,0,0
2723,-100,4,2,1,75,0,0
7523,-100,4,2,1,75,0,0
17123,-100,4,2,1,65,0,0
21323,-100,4,2,2,75,0,0
21623,-100,4,2,1,55,0,0
22373,-100,4,2,2,55,0,0
23123,-100,4,2,1,55,0,0
23573,-100,4,2,2,55,0,0
23873,-100,4,2,1,55,0,0
24323,-100,4,2,1,55,0,0
25523,-100,4,2,1,55,0,0
26723,-100,4,2,1,65,0,0
36323,-100,4,2,1,65,0,0
41123,-100,4,2,1,75,0,0
44423,-100,4,2,1,75,0,0
45323,-100,4,2,1,55,0,0
45923,-100,4,2,1,75,0,1
63923,-100,4,2,1,75,0,0
65123,-100,4,2,1,75,0,0
72173,-100,4,2,1,65,0,0
74723,-100,4,2,1,55,0,0
82973,-100,4,2,1,65,0,0
84323,-100,4,2,1,65,0,0
93923,-100,4,2,1,65,0,0
98723,-100,4,2,1,75,0,0
102023,-100,4,2,1,75,0,0
102173,-100,4,2,1,55,0,0
103523,-100,4,2,1,75,0,1
121523,-100,4,2,1,75,0,0
122723,-100,4,2,1,75,0,0
127523,-100,4,2,1,55,0,0
131723,-100,4,2,1,55,0,0
132323,-100,4,2,1,75,0,0
136523,-100,4,2,1,75,0,0
137048,-100,4,2,1,10,0,0
137123,-100,4,2,1,75,0,0
143123,-100,4,2,1,65,0,0
144023,-100,4,2,1,65,0,0
144923,-100,4,2,1,65,0,0
147923,-100,4,2,1,75,0,0
150323,-100,4,2,1,65,0,0
155123,-100,4,2,1,55,0,0
164723,-100,4,2,1,65,0,0
169523,-100,4,2,1,65,0,0
171923,-100,4,2,1,75,0,0
173123,-100,4,2,1,75,0,0
173723,-100,4,2,1,45,0,0
174023,-100,4,2,1,55,0,0
174323,-100,4,2,1,75,0,1
200573,-100,4,2,1,75,0,0

[Colours]
Combo1 : 0,128,255
Combo2 : 0,128,64
Combo3 : 193,193,0
Combo4 : 210,0,142
Combo5 : 128,0,255
Combo6 : 217,0,44

[HitObjects]
256,192,2723,12,12,5123,3:2:0:0:
261,195,6323,6,0,P|210:182|116:190,2,120,0|0|0,1:0|1:0|1:0,0:0:0:0:
325,242,7523,5,4,3:2:0:0:
404,232,7823,2,0,P|410:168|440:94,1,120,8|0,0:0|1:0,0:0:0:0:
325,52,8723,2,0,P|269:57|187:34,2,120,0|0|8,3:0|0:0|0:0,0:0:0:0:
392,94,9923,5,4,3:2:0:0:
378,172,10223,2,0,P|370:234|376:295,1,120,8|0,0:0|1:0,0:0:0:0:
275,358,11123,2,0,P|221:349|144:364,2,120,0|0|8,3:0|0:0|3:2,0:0:0:0:
317,290,12323,5,4,3:2:0:0:
259,234,12623,2,0,L|274:112,1,120,8|0,0:0|1:0,0:0:0:0:
166,60,13523,2,0,P|110:68|40:36,2,120,0|0|8,3:0|0:0|0:0,0:0:0:0:
256,192,14723,12,4,17123,0:0:0:0:
394,90,26423,5,8,0:0:0:0:
328,135,26723,2,0,P|287:141|220:120,1,79.9999999999999,4|8,0:0|0:0,0:0:0:0:
184,181,27323,2,0,P|177:220|184:259,1,79.9999999999999,0|8,3:0|0:0,0:0:0:0:
230,324,27923,1,0,3:0:0:0:
304,354,28223,2,0,P|379:329|481:346,1,160,8|8,0:0|0:0,0:0:0:0:
503,271,29123,6,0,P|494:218|497:182,1,79.9999999999999,0|8,3:0|0:0,0:0:0:0:
449,126,29723,2,0,L|337:118,1,79.9999999999999,0|8,0:0|0:0,0:0:0:0:
290,136,30323,2,0,L|125:155,1,160,0|0,3:0|3:0,0:0:0:0:
71,207,31223,1,8,0:0:0:0:
40,280,31523,6,0,P|36:323|44:359,1,79.9999999999999,4|8,3:2|0:0,0:0:0:0:
122,373,32123,1,0,3:0:0:0:
201,361,32423,1,8,0:0:0:0:
274,330,32723,2,0,P|307:341|362:341,2,79.9999999999999,0|8|0,3:0|0:0|3:0,0:0:0:0:
234,260,33623,1,8,0:0:0:0:
263,185,33923,6,0,P|265:137|256:92,1,79.9999999999999,4|8,3:2|0:0,0:0:0:0:
311,44,34523,2,0,P|359:46|404:37,1,79.9999999999999,0|8,3:0|0:0,0:0:0:0:
256,192,35123,12,4,36323,0:0:0:0:
256,192,41123,12,8,44423,1:2:0:0:
151,79,45923,6,0,P|161:120|161:176,1,79.9999999999999,4|8,3:2|0:0,0:0:0:0:
218,215,46523,1,0,3:0:0:0:
319,278,46973,2,0,P|387:282|455:257,1,120,2|8,1:1|0:0,0:0:0:0:
462,191,47723,2,0,L|471:94,1,79.9999999999999,0|8,1:0|0:0,0:0:0:0:
402,63,48323,5,4,3:2:0:0:
322,55,48623,1,8,0:0:0:0:
244,75,48923,1,0,3:0:0:0:
171,170,49373,2,0,P|167:228|220:293,1,120,4|8,0:0|3:0,0:0:0:0:
279,279,50123,1,0,3:0:0:0:
389,162,50723,6,0,P|397:117|398:68,1,79.9999999999999,4|8,3:2|0:0,0:0:0:0:
341,27,51323,1,0,3:0:0:0:
221,36,51773,2,0,P|179:53|122:119,1,120,2|8,1:1|0:0,0:0:0:0:
103,182,52523,1,0,1:0:0:0:
167,231,52823,6,0,P|207:219|253:218,2,79.9999999999999,12|4|0,0:0|3:2|3:0,0:0:0:0:
93,263,53723,1,8,1:2:0:0:
6,179,54173,2,0,P|27:122|5:44,1,120,4|8,0:0|3:0,0:0:0:0:
72,6,54923,1,12,3:0:0:0:
131,59,55223,1,8,0:0:0:0:
178,123,55523,6,0,L|263:116,2,79.9999999999999,4|8|0,0:0|0:0|3:0,0:0:0:0:
130,187,56423,1,8,0:0:0:0:
83,252,56723,2,0,L|-2:245,2,79.9999999999999,0|8|0,3:0|0:0|3:0,0:0:0:0:
130,316,57623,1,8,0:0:0:0:
175,381,57923,6,0,L|279:371,1,79.9999999999999,0|8,3:0|0:0,0:0:0:0:
315,320,58523,1,0,3:0:0:0:
351,205,58973,2,0,P|268:192|214:203,1,120,4|8,0:0|0:0,0:0:0:0:
162,235,59723,1,8,1:2:0:0:
90,198,60023,1,8,1:2:0:0:
30,144,60323,6,0,L|43:52,2,79.9999999999999,4|8|0,0:0|0:0|3:0,0:0:0:0:
90,198,61223,1,8,0:0:0:0:
148,252,61523,2,0,L|161:344,2,79.9999999999999,0|8|0,3:0|0:0|3:0,0:0:0:0:
261,212,62573,6,0,P|304:220|381:193,1,120,4|8,3:2|1:2,0:0:0:0:
442,153,63323,1,8,1:2:0:0:
406,81,63623,1,8,3:2:0:0:
330,53,63923,1,4,1:2:0:0:
210,125,72323,5,4,1:2:0:0:
369,291,73523,6,0,L|204:301,1,160,8|8,3:2|3:2,0:0:0:0:
130,306,74423,1,2,0:0:0:0:
69,253,74723,6,0,P|83:226|62:96,1,160,4|0,0:0|3:0,0:0:0:0:
132,55,75623,1,0,1:0:0:0:
206,83,75923,2,0,L|306:75,2,79.9999999999999,0|0|0,0:0|1:0|3:0,0:0:0:0:
88,192,77123,6,0,P|80:248|98:358,1,160,0|0,3:0|3:0,0:0:0:0:
169,378,78023,1,0,1:0:0:0:
232,329,78323,2,0,P|274:322|332:337,2,79.9999999999999,0|0|0,0:0|1:0|3:0,0:0:0:0:
164,285,79223,1,0,1:0:0:0:
212,221,79523,2,0,L|199:56,1,160,4|0,0:0|3:0,0:0:0:0:
267,19,80423,1,0,1:0:0:0:
340,50,80723,2,0,P|386:60|428:50,2,79.9999999999999,0|0|0,0:0|1:0|3:0,0:0:0:0:
246,179,81923,6,0,L|254:285,2,79.9999999999999,4|0|0,3:2|1:0|3:0,0:0:0:0:
207,65,82973,2,0,P|150:60|71:104,1,120,8|8,1:2|3:0,0:0:0:0:
82,162,83723,2,0,L|89:261,1,79.9999999999999,8|8,3:0|3:2,0:0:0:0:
163,268,84323,6,0,P|239:241|331:245,1,160,4|0,0:0|3:0,0:0:0:0:
385,199,85223,1,8,0:0:0:0:
370,120,85523,2,0,P|327:117|277:95,1,79.9999999999999,0|8,3:0|0:0,0:0:0:0:
230,53,86123,2,0,P|192:66|152:68,1,79.9999999999999,0|8,3:0|0:0,0:0:0:0:
110,136,86723,6,0,P|108:201|156:286,1,160,0|0,3:0|3:0,0:0:0:0:
233,286,87623,1,8,0:0:0:0:
308,313,87923,2,0,L|406:306,2,79.9999999999999,0|8|0,3:0|0:0|3:0,0:0:0:0:
233,286,88823,1,8,3:2:0:0:
201,212,89123,6,0,P|203:163|215:106,1,79.9999999999999,4|8,0:0|0:0,0:0:0:0:
269,81,89723,2,0,P|318:79|375:67,1,79.9999999999999,0|8,3:0|0:0,0:0:0:0:
407,128,90323,2,0,P|446:134|486:135,2,79.9999999999999,0|8|0,3:0|0:0|3:0,0:0:0:0:
345,179,91223,1,8,0:0:0:0:
312,252,91523,6,0,L|319:354,1,79.9999999999999,4|8,0:0|3:0,0:0:0:0:
245,367,92123,2,0,L|165:361,1,79.9999999999999,0|8,3:0|0:0,0:0:0:0:
256,192,92723,12,4,93923,0:0:0:0:
256,192,98723,12,8,102023,1:2:0:0:
257,101,103523,6,0,P|297:104|355:92,1,79.9999999999999,4|8,3:2|0:0,0:0:0:0:
400,145,104123,1,0,3:0:0:0:
360,258,104573,2,0,P|304:249|226:286,1,120,2|8,1:1|0:0,0:0:0:0:
165,267,105323,2,0,P|126:258|70:260,1,79.9999999999999,0|8,1:0|0:0,0:0:0:0:
91,177,105923,5,4,3:2:0:0:
166,149,106223,1,8,0:0:0:0:
227,98,106523,1,0,3:0:0:0:
345,119,106973,2,0,P|386:107|470:130,1,120,4|8,0:0|3:0,0:0:0:0:
495,196,107723,1,0,3:0:0:0:
395,321,108323,6,0,L|299:316,1,79.9999999999999,4|8,3:2|0:0,0:0:0:0:
235,311,108923,1,0,3:0:0:0:
116,289,109373,2,0,L|109:167,1,120,2|8,1:1|0:0,0:0:0:0:
83,94,110123,1,0,1:0:0:0:
138,35,110423,6,0,P|176:43|230:34,2,79.9999999999999,12|4|8,0:0|3:2|3:0,0:0:0:0:
83,94,111323,1,8,1:2:0:0:
59,211,111773,2,0,P|119:193|210:206,1,120,4|8,0:0|3:0,0:0:0:0:
254,211,112523,1,12,3:0:0:0:
249,290,112823,1,8,0:0:0:0:
305,347,113123,6,0,P|344:341|390:340,2,79.9999999999999,4|8|0,0:0|0:0|3:0,0:0:0:0:
249,290,114023,1,8,0:0:0:0:
175,321,114323,2,0,P|136:315|90:314,2,79.9999999999999,0|8|0,3:0|0:0|3:0,0:0:0:0:
249,290,115223,1,8,0:0:0:0:
301,229,115523,6,0,L|405:219,1,79.9999999999999,0|8,3:0|0:0,0:0:0:0:
459,210,116123,1,0,3:0:0:0:
401,104,116573,2,0,L|277:91,1,120,4|8,0:0|0:0,0:0:0:0:
202,80,117323,1,8,1:2:0:0:
125,101,117623,1,8,1:2:0:0:
102,177,117923,6,0,P|102:214|89:269,2,79.9999999999999,4|8|0,0:0|0:0|3:0,0:0:0:0:
125,101,118823,1,8,0:0:0:0:
45,91,119123,2,0,P|37:51|37:11,2,79.9999999999999,0|8|0,3:0|0:0|3:0,0:0:0:0:
113,189,120173,6,0,P|154:187|226:239,1,120,4|8,0:0|1:2,0:0:0:0:
255,298,120923,1,8,1:2:0:0:
324,258,121223,1,8,3:2:0:0:
376,318,121523,1,4,1:2:0:0:
256,192,127523,12,8,131123,3:0:0:0:
381,86,132323,6,0,L|371:264,1,160,4|2,0:0|0:0,0:0:0:0:
313,299,133223,2,0,P|284:295|224:315,1,79.9999999999999,2|8,0:0|1:3,0:0:0:0:
162,341,133823,1,2,0:0:0:0:
91,302,134123,2,0,L|86:209,1,79.9999999999999,2|2,0:0|0:0,0:0:0:0:
98,143,134723,5,4,0:0:0:0:
168,104,135023,2,0,B|249:95|249:95|297:134,2,120,2|2|8,3:0|0:0|1:3,0:0:0:0:
98,143,136223,1,0,0:0:0:0:
86,222,136523,2,0,B|97:247|96:274|96:274|78:314|78:314|96:347|139:380,1,160,8|4,1:3|0:0,0:0:0:0:
197,365,137423,6,0,L|295:347,1,79.9999999999999,2|2,3:0|0:0,0:0:0:0:
325,287,138023,2,0,L|343:189,1,79.9999999999999,0|8,0:0|1:3,0:0:0:0:
352,129,138623,1,2,0:0:0:0:
291,76,138923,2,0,P|256:79|209:68,1,79.9999999999999,2|2,0:0|0:0,0:0:0:0:
143,28,139523,5,4,0:0:0:0:
97,93,139823,2,0,B|106:197|106:197|81:225,2,120,2|2|8,3:0|0:0|3:0,0:0:0:0:
143,28,141023,1,0,3:0:0:0:
212,69,141323,1,0,3:0:0:0:
279,25,141623,1,8,3:2:0:0:
256,192,147923,12,12,150323,3:0:0:0:
175,37,151523,6,0,L|95:28,1,79.9999999999999,0|0,3:0|3:0,0:0:0:0:
82,107,152123,2,0,L|161:115,1,79.9999999999999,0|0,3:0|3:0,0:0:0:0:
235,145,152723,6,0,P|244:202|242:268,2,120,2|2|2,3:0|3:0|3:0,0:0:0:0:
345,51,155123,5,4,0:0:0:0:
311,141,164723,6,0,P|349:132|409:134,2,79.9999999999999,4|0|0,3:2|3:0|3:0,0:0:0:0:
235,169,165623,1,0,3:0:0:0:
169,215,165923,2,0,P|131:206|71:208,2,79.9999999999999,0|0|0,3:0|3:0|3:0,0:0:0:0:
237,256,166823,1,0,3:0:0:0:
306,295,167123,6,0,P|391:278|488:294,1,160,0|0,3:0|3:0,0:0:0:0:
503,217,168023,1,0,3:0:0:0:
452,155,168323,2,0,P|460:116|454:70,1,79.9999999999999,0|0,3:0|3:0,0:0:0:0:
391,29,168923,1,0,3:0:0:0:
311,26,169223,1,0,3:0:0:0:
259,87,169523,6,0,P|221:93|155:75,2,79.9999999999999,0|0|0,3:0|3:0|3:0,0:0:0:0:
326,129,170423,1,0,3:0:0:0:
385,182,170723,2,0,P|423:188|489:170,2,79.9999999999999,0|0|0,3:0|3:0|3:0,0:0:0:0:
326,129,171623,1,0,3:0:0:0:
256,192,171923,12,0,173123,3:0:0:0:
302,224,174323,6,0,P|347:231|400:215,1,79.9999999999999,4|8,0:0|0:0,0:0:0:0:
456,200,174923,1,0,3:0:0:0:
472,318,175373,2,0,P|394:314|341:342,1,120,2|8,1:1|0:0,0:0:0:0:
278,316,176123,2,0,P|242:321|192:304,1,79.9999999999999,0|8,1:0|0:0,0:0:0:0:
163,237,176723,5,4,3:2:0:0:
139,160,177023,1,8,0:0:0:0:
212,129,177323,1,0,3:0:0:0:
310,197,177773,2,0,L|433:211,1,120,4|8,0:0|3:0,0:0:0:0:
436,290,178523,2,0,L|340:300,1,79.9999999999999,0|8,3:0|3:0,0:0:0:0:
284,334,179123,6,0,P|248:323|188:329,1,79.9999999999999,4|8,0:0|0:0,0:0:0:0:
134,361,179723,1,0,3:0:0:0:
80,253,180173,2,0,P|73:191|99:108,1,120,2|8,1:1|0:0,0:0:0:0:
143,79,180923,1,0,1:0:0:0:
220,57,181223,6,0,P|266:62|313:47,2,79.9999999999999,12|4|8,0:0|3:2|3:0,0:0:0:0:
142,37,182123,1,8,1:2:0:0:
73,135,182573,2,0,P|71:202|76:267,1,120,4|8,0:0|3:0,0:0:0:0:
113,325,183323,1,12,3:0:0:0:
190,303,183623,1,8,0:0:0:0:
257,346,183923,6,0,L|342:339,2,79.9999999999999,4|8|0,0:0|0:0|3:0,0:0:0:0:
190,303,184823,1,8,0:0:0:0:
127,253,185123,2,0,L|42:246,2,79.9999999999999,0|8|0,3:0|0:0|3:0,0:0:0:0:
190,303,186023,1,8,0:0:0:0:
254,256,186323,6,0,L|339:249,1,79.9999999999999,0|8,3:0|0:0,0:0:0:0:
385,188,186923,1,0,3:0:0:0:
348,73,187373,2,0,L|215:83,1,120,4|8,0:0|0:0,0:0:0:0:
148,89,188123,1,8,1:2:0:0:
68,95,188423,1,8,1:2:0:0:
9,149,188723,6,0,P|10:190|3:242,2,79.9999999999999,4|8|0,0:0|0:0|3:0,0:0:0:0:
68,95,189623,1,8,0:0:0:0:
123,152,189923,2,0,P|124:193|117:245,2,79.9999999999999,0|8|0,3:0|0:0|3:0,0:0:0:0:
230,99,190973,6,0,P|291:94|348:135,1,120,4|8,0:0|0:0,0:0:0:0:
391,186,191723,1,8,3:0:0:0:
413,262,192023,1,8,0:0:0:0:
379,334,192323,2,0,L|271:329,1,79.9999999999999,0|8,3:0|0:0,0:0:0:0:
218,326,192923,1,8,3:0:0:0:
138,321,193223,1,8,0:0:0:0:
96,252,193523,6,0,P|97:216|89:167,2,79.9999999999999,4|8|0,0:0|0:0|3:0,0:0:0:0:
138,321,194423,1,8,0:0:0:0:
198,268,194723,2,0,P|197:232|205:183,2,79.9999999999999,0|8|0,3:0|0:0|3:0,0:0:0:0:
251,327,195623,1,8,0:0:0:0:
329,340,195923,6,0,P|369:333|414:333,1,79.9999999999999,0|8,3:0|0:0,0:0:0:0:
447,262,196523,1,0,3:0:0:0:
370,169,196973,2,0,P|310:182|245:159,1,120,4|8,0:0|0:0,0:0:0:0:
183,130,197723,1,8,1:2:0:0:
104,116,198023,1,8,1:2:0:0:
73,190,198323,6,0,L|66:284,1,79.9999999999999,8|8,1:2|1:2,0:0:0:0:
145,286,198923,1,8,1:2:0:0:
150,206,199223,1,8,1:2:0:0:
227,222,199523,2,0,L|222:302,1,79.9999999999999,8|8,0:0|1:2,0:0:0:0:
298,317,200123,1,0,1:2:0:0:
304,238,200423,2,0,L|308:182,1,40,0|4,1:2|1:2,0:0:0:0:
