osu file format v14

[General]
AudioFilename: audio.mp3
AudioLeadIn: 0
PreviewTime: 103363
Countdown: 0
SampleSet: Soft
StackLeniency: 0.4
Mode: 0
LetterboxInBreaks: 0
WidescreenStoryboard: 1

[Editor]
Bookmarks: 14488,34813,92488,94738,98488,107188,115738,178288,181663,182113,182188,183313,188938,190888
DistanceSpacing: 1
BeatDivisor: 2
GridSize: 4
TimelineZoom: 2.2

[Metadata]
Title:HIBANA
TitleUnicode:ヒバナ
Artist:soraru x mafumafu
ArtistUnicode:そらる×まふまふ
Creator:Testo
Version:Djulus' Normal
Source:
Tags:SPARKS 火花 HATSUNE MIKU 10th Anniversary Album Re:Start DECO*27 Vocaloid 初音ミク Akitoshi Djulus
BeatmapID:1535688
BeatmapSetID:691103

[Difficulty]
HPDrainRate:4
CircleSize:3
OverallDifficulty:4
ApproachRate:5
SliderMultiplier:0.999999999999999
SliderTickRate:1

[Events]
//Background and Video events
0,0,"DECO228.png",0,0
//Break Periods
2,17323,25093
2,65323,73093
2,122923,126323
2,155323,163393
//Storyboard Layer 0 (Background)
//Storyboard Layer 1 (Fail)
//Storyboard Layer 2 (Pass)
//Storyboard Layer 3 (Foreground)
//Storyboard Sound Samples

[TimingPoints]
323,300,4,2,1,75,1,0
323,-100,4,2,1,75,0,0
2423,-100,4,2,1,75,0,0
2723,-100,4,2,1,75,0,0
7523,-100,4,2,1,75,0,0
17123,-100,4,2,1,65,0,0
21323,-100,4,2,2,75,0,0
21623,-100,4,2,1,55,0,0
22373,-100,4,2,2,55,0,0
23123,-100,4,2,1,55,0,0
23573,-100,4,2,2,55,0,0
23873,-100,4,2,1,55,0,0
24323,-100,4,2,1,55,0,0
25523,-100,4,2,1,55,0,0
26723,-100,4,2,1,65,0,0
36323,-100,4,2,1,65,0,0
41123,-100,4,2,1,75,0,0
44423,-100,4,2,1,75,0,0
45323,-100,4,2,1,55,0,0
45923,-100,4,2,1,75,0,1
63923,-100,4,2,1,75,0,0
65123,-100,4,2,1,75,0,0
72173,-100,4,2,1,65,0,0
74723,-100,4,2,1,55,0,0
82973,-100,4,2,1,65,0,0
84323,-100,4,2,1,65,0,0
93923,-100,4,2,1,65,0,0
98723,-100,4,2,1,75,0,0
102023,-100,4,2,1,75,0,0
102173,-100,4,2,1,55,0,0
103523,-100,4,2,1,75,0,1
121523,-100,4,2,1,75,0,0
122723,-100,4,2,1,75,0,0
127523,-100,4,2,1,55,0,0
131723,-100,4,2,1,55,0,0
132323,-100,4,2,1,75,0,0
136523,-100,4,2,1,75,0,0
137048,-100,4,2,1,10,0,0
137123,-100,4,2,1,75,0,0
143123,-100,4,2,1,65,0,0
144023,-100,4,2,1,65,0,0
144923,-100,4,2,1,65,0,0
147923,-100,4,2,1,75,0,0
150323,-100,4,2,1,65,0,0
155123,-100,4,2,1,55,0,0
164723,-100,4,2,1,65,0,0
169523,-100,4,2,1,65,0,0
171923,-100,4,2,1,75,0,0
173123,-100,4,2,1,75,0,0
173723,-100,4,2,1,45,0,0
174023,-100,4,2,1,55,0,0
174323,-100,4,2,1,75,0,1
200573,-100,4,2,1,75,0,0

[Colours]
Combo1 : 0,128,255
Combo2 : 0,128,64
Combo3 : 193,193,0
Combo4 : 210,0,142
Combo5 : 128,0,255
Combo6 : 217,0,44

[HitObjects]
256,192,2723,12,0,6323,1:0:0:0:
36,340,6773,6,0,L|196:324,1,150,0|0,1:0|1:0,0:0:0:0:
232,236,7523,2,0,L|232:168,1,50,4|0,3:2|0:0,0:0:0:0:
208,140,7823,2,0,P|144:140|36:128,2,150,8|0|0,0:0|1:0|3:0,0:0:0:0:
276,64,9023,2,0,L|348:64,1,50,8|0,0:0|0:0,0:0:0:0:
372,84,9323,1,0,3:0:0:0:
460,132,9623,2,0,L|456:188,1,50,8|8,0:0|0:0,0:0:0:0:
428,224,9923,6,0,P|440:300|448:332,1,99.9999999999999,4|8,3:2|0:0,0:0:0:0:
348,348,10523,1,0,3:0:0:0:
348,348,10673,2,0,L|244:348,1,99.9999999999999,0|0,1:0|0:0,0:0:0:0:
200,352,11123,2,0,P|196:296|200:192,2,150,0|0|8,3:0|0:0|3:2,0:0:0:0:
100,352,12323,6,0,L|100:296,1,50,4|0,3:2|0:0,0:0:0:0:
72,260,12623,2,0,P|64:208|64:152,1,99.9999999999999,8|0,0:0|3:0,0:0:0:0:
68,112,13073,2,0,P|128:124|176:116,1,99.9999999999999,0|0,1:0|0:0,0:0:0:0:
196,80,13523,2,0,P|252:72|352:80,2,150,0|0|8,3:0|0:0|0:0,0:0:0:0:
208,180,14723,6,0,L|224:332,2,150,8|8|8,3:2|3:2|3:2,0:0:0:0:
108,164,15923,2,0,L|112:8,2,150,8|8|0,3:0|3:0|3:0,0:0:0:0:
68,256,17123,1,4,0:0:0:0:
48,112,26423,5,8,0:0:0:0:
136,160,26723,2,0,P|184:156|256:140,1,99.9999999999999,4|8,0:0|0:0,0:0:0:0:
296,68,27323,2,0,P|364:60|400:68,1,99.9999999999999,0|8,3:0|0:0,0:0:0:0:
473,128,27923,1,0,3:0:0:0:
409,205,28223,1,8,0:0:0:0:
454,294,28523,2,0,P|380:300|338:300,1,99.9999999999999,0|8,3:0|0:0,0:0:0:0:
314,270,28973,1,8,3:2:0:0:
314,270,29123,6,0,P|231:266|198:268,1,99.9999999999999,0|8,3:0|0:0,0:0:0:0:
114,253,29723,2,0,P|117:192|118:144,1,99.9999999999999,0|8,0:0|0:0,0:0:0:0:
113,103,30173,2,0,P|169:93|218:88,1,99.9999999999999,0|0,0:0|0:0,0:0:0:0:
253,61,30623,1,8,0:0:0:0:
253,61,30773,2,0,L|412:48,1,150,0|8,0:0|0:0,0:0:0:0:
456,132,31523,6,0,P|446:175|437:242,1,99.9999999999999,4|8,3:2|0:0,0:0:0:0:
410,272,31973,1,0,0:0:0:0:
410,272,32123,2,0,L|293:270,1,99.9999999999999,0|8,3:0|0:0,0:0:0:0:
221,316,32723,2,0,P|209:260|230:212,1,99.9999999999999,0|8,3:0|0:0,0:0:0:0:
265,130,33323,1,0,3:0:0:0:
192,61,33623,1,8,0:0:0:0:
287,30,33923,6,0,L|386:36,1,99.9999999999999,4|8,3:2|0:0,0:0:0:0:
469,93,34523,2,0,L|479:203,1,99.9999999999999,0|8,3:0|0:0,0:0:0:0:
434,216,34973,1,0,0:0:0:0:
434,216,35123,2,0,P|440:294|445:332,1,99.9999999999999,12|8,3:2|3:0,0:0:0:0:
351,356,35723,1,8,3:2:0:0:
266,301,36023,1,8,3:0:0:0:
180,352,36323,6,0,L|71:345,1,99.9999999999999,4|8,0:0|0:0,0:0:0:0:
28,260,36923,2,0,P|31:213|41:144,1,99.9999999999999,0|8,3:0|0:0,0:0:0:0:
64,117,37373,2,0,L|170:103,1,99.9999999999999,0|0,1:0|1:0,0:0:0:0:
209,121,37823,1,8,0:0:0:0:
293,67,38123,2,0,L|398:59,1,99.9999999999999,0|8,3:0|0:0,0:0:0:0:
472,120,38723,6,0,P|468:182|471:239,1,99.9999999999999,4|8,0:0|0:0,0:0:0:0:
401,293,39323,2,0,P|345:288|289:290,1,99.9999999999999,0|8,3:0|0:0,0:0:0:0:
271,328,39773,2,0,L|155:326,1,99.9999999999999,0|0,1:0|1:0,0:0:0:0:
135,290,40223,1,8,0:0:0:0:
170,196,40523,1,0,3:0:0:0:
129,104,40823,2,0,L|192:101,1,50,8|0,0:0|3:0,0:0:0:0:
214,65,41123,6,0,L|324:58,1,99.9999999999999,8|8,3:2|1:2,0:0:0:0:
385,132,41723,1,8,1:2:0:0:
325,212,42023,1,8,1:2:0:0:
404,272,42323,2,0,P|416:316|398:367,1,99.9999999999999,8|8,0:0|1:2,0:0:0:0:
301,339,42923,2,0,L|193:338,1,99.9999999999999,8|8,1:2|0:0,0:0:0:0:
112,292,43523,6,0,L|97:127,2,150,8|8|8,1:2|1:2|1:2,0:0:0:0:
272,72,45323,2,0,L|432:96,1,150,0|0,1:0|1:0,0:0:0:0:
476,76,45923,6,0,L|462:176,1,99.9999999999999,4|8,3:2|0:0,0:0:0:0:
362,180,46523,2,0,L|253:164,1,99.9999999999999,0|8,3:0|0:0,0:0:0:0:
236,123,46973,2,0,L|137:119,1,99.9999999999999,2|0,1:1|3:1,0:0:0:0:
90,98,47423,1,8,0:0:0:0:
11,160,47723,1,0,1:0:0:0:
36,256,48023,1,8,0:0:0:0:
56,353,48323,6,0,L|175:352,1,99.9999999999999,4|8,3:2|0:0,0:0:0:0:
184,310,48773,1,0,0:0:0:0:
184,310,48923,2,0,L|294:308,1,99.9999999999999,0|8,3:0|0:0,0:0:0:0:
334,312,49373,2,0,P|330:260|331:197,1,99.9999999999999,4|0,0:0|3:0,0:0:0:0:
360,172,49823,1,8,3:0:0:0:
327,77,50123,2,0,L|164:75,1,150,0|0,3:0|3:0,0:0:0:0:
129,60,50723,5,4,3:2:0:0:
140,160,51023,1,8,0:0:0:0:
152,257,51323,1,0,3:0:0:0:
250,242,51623,1,8,0:0:0:0:
250,242,51773,2,0,L|372:234,1,99.9999999999999,2|0,1:1|3:1,0:0:0:0:
399,234,52223,2,0,L|408:127,1,99.9999999999999,8|0,0:0|1:0,0:0:0:0:
356,48,52823,2,0,L|247:37,1,99.9999999999999,12|4,0:0|3:2,0:0:0:0:
206,39,53273,6,0,P|208:91|211:151,1,99.9999999999999,0|0,3:0|3:0,0:0:0:0:
168,165,53723,2,0,L|179:271,1,99.9999999999999,8|8,1:2|1:2,0:0:0:0:
158,310,54173,1,4,0:0:0:0:
256,326,54473,2,0,L|368:308,1,99.9999999999999,0|8,3:0|3:0,0:0:0:0:
404,315,54923,1,12,3:0:0:0:
445,224,55223,1,8,0:0:0:0:
399,135,55523,6,0,L|406:23,2,99.9999999999999,4|8|0,0:0|0:0|3:0,0:0:0:0:
320,196,56423,1,8,0:0:0:0:
261,115,56723,2,0,L|246:11,2,99.9999999999999,0|8|0,3:0|0:0|3:0,0:0:0:0:
216,204,57623,1,8,0:0:0:0:
135,145,57923,6,0,P|115:189|129:254,1,99.9999999999999,0|8,3:0|0:0,0:0:0:0:
188,312,58523,2,0,P|254:304|303:302,1,99.9999999999999,0|8,3:0|0:0,0:0:0:0:
325,335,58973,2,0,P|375:327|445:327,1,99.9999999999999,4|0,0:0|3:0,0:0:0:0:
467,299,59423,1,8,0:0:0:0:
495,203,59723,1,8,1:2:0:0:
428,128,60023,1,8,1:2:0:0:
473,39,60323,6,0,L|370:34,1,99.9999999999999,4|8,0:0|0:0,0:0:0:0:
278,65,60923,2,0,P|288:121|290:170,1,99.9999999999999,0|8,3:0|0:0,0:0:0:0:
236,248,61523,1,0,3:0:0:0:
141,216,61823,1,8,0:0:0:0:
53,264,62123,2,0,P|48:211|47:158,1,99.9999999999999,0|8,3:0|0:0,0:0:0:0:
57,119,62573,6,0,P|111:106|162:96,1,99.9999999999999,4|0,3:2|3:0,0:0:0:0:
194,66,63023,1,8,1:2:0:0:
282,112,63323,2,0,L|400:97,1,99.9999999999999,8|8,1:2|3:2,0:0:0:0:
430,104,63773,1,10,3:0:0:0:
430,104,63923,2,0,P|422:150|429:321,1,200,4|0,1:2|0:0,0:0:0:0:
333,341,64823,1,0,3:0:0:0:
244,295,65123,5,0,0:0:0:0:
106,322,74423,5,2,0:0:0:0:
186,262,74723,2,0,L|309:249,1,99.9999999999999,4|0,0:0|1:0,0:0:0:0:
329,274,75173,1,0,1:0:0:0:
329,274,75323,2,0,L|439:262,1,99.9999999999999,0|0,3:0|1:0,0:0:0:0:
468,233,75773,2,0,L|468:127,1,99.9999999999999,0|0,3:0|3:0,0:0:0:0:
397,61,76373,2,0,L|292:59,1,99.9999999999999,0|0,1:0|0:0,0:0:0:0:
257,89,76823,1,0,1:0:0:0:
170,38,77123,6,0,L|52:36,1,99.9999999999999,0|0,3:0|1:0,0:0:0:0:
34,71,77573,1,0,1:0:0:0:
34,71,77723,2,0,P|37:130|35:189,1,99.9999999999999,0|0,3:0|1:0,0:0:0:0:
76,201,78173,2,0,L|74:311,1,99.9999999999999,0|0,3:0|3:0,0:0:0:0:
169,331,78773,2,0,L|277:326,1,99.9999999999999,4|0,1:0|0:0,0:0:0:0:
318,331,79223,1,0,1:0:0:0:
318,231,79523,6,0,L|199:228,1,99.9999999999999,4|0,0:0|1:0,0:0:0:0:
176,200,79973,1,0,1:0:0:0:
176,200,80123,2,0,L|179:88,1,99.9999999999999,0|0,3:0|1:0,0:0:0:0:
193,52,80573,2,0,P|260:47|301:44,1,99.9999999999999,0|0,3:0|3:0,0:0:0:0:
392,53,81173,2,0,P|391:115|394:161,1,99.9999999999999,0|0,1:0|0:0,0:0:0:0:
429,188,81623,1,0,1:0:0:0:
448,286,81923,6,0,P|394:287|334:282,1,99.9999999999999,4|0,3:2|1:0,0:0:0:0:
311,317,82373,1,0,1:0:0:0:
311,317,82523,2,0,L|190:311,1,99.9999999999999,0|0,3:0|1:0,0:0:0:0:
161,311,82973,2,0,P|157:252|159:196,1,99.9999999999999,8|0,1:2|3:0,0:0:0:0:
200,188,83423,1,8,3:0:0:0:
304,176,83723,2,0,P|371:168|408:164,1,99.9999999999999,8|8,3:0|3:2,0:0:0:0:
380,68,84323,6,0,L|259:65,1,99.9999999999999,4|8,0:0|0:0,0:0:0:0:
228,72,84773,1,0,0:0:0:0:
228,72,84923,2,0,L|115:71,1,99.9999999999999,0|8,3:0|0:0,0:0:0:0:
80,76,85373,2,0,P|86:148|86:193,1,99.9999999999999,0|0,0:0|0:0,0:0:0:0:
52,212,85823,1,8,0:0:0:0:
68,312,86123,2,0,L|174:306,1,99.9999999999999,0|8,3:0|0:0,0:0:0:0:
204,272,86573,1,8,3:0:0:0:
204,272,86723,6,0,L|321:270,1,99.9999999999999,0|8,3:0|0:0,0:0:0:0:
395,314,87323,2,0,P|410:256|387:210,1,99.9999999999999,0|8,3:0|0:0,0:0:0:0:
364,181,87773,2,0,P|364:137|364:66,1,99.9999999999999,0|0,0:0|0:0,0:0:0:0:
267,56,88373,2,0,P|213:53|151:53,1,99.9999999999999,0|0,0:0|0:0,0:0:0:0:
131,87,88823,1,8,3:2:0:0:
169,179,89123,6,0,P|242:175|287:172,1,99.9999999999999,4|8,0:0|0:0,0:0:0:0:
369,178,89723,2,0,P|365:227|361:277,1,99.9999999999999,0|8,3:0|0:0,0:0:0:0:
364,327,90173,1,0,0:0:0:0:
266,348,90473,2,0,L|157:340,1,99.9999999999999,0|0,0:0|0:0,0:0:0:0:
123,314,90923,1,0,3:0:0:0:
155,219,91223,1,8,0:0:0:0:
109,129,91523,6,0,P|194:118|225:115,1,99.9999999999999,4|8,0:0|3:0,0:0:0:0:
245,82,91973,2,0,L|369:76,1,99.9999999999999,0|0,0:0|0:0,0:0:0:0:
431,126,92573,1,0,3:0:0:0:
431,126,92723,2,0,P|437:197|435:301,2,150,8|8|0,3:2|3:0|3:0,0:0:0:0:
332,132,93923,5,4,0:0:0:0:
332,132,94073,2,0,P|248:128|192:196,1,150,0|0,0:0|3:0,0:0:0:0:
180,216,94673,1,0,0:0:0:0:
74,201,94973,2,0,L|74:84,1,99.9999999999999,0|0,1:0|1:0,0:0:0:0:
99,58,95423,2,0,L|213:58,1,99.9999999999999,8|0,0:0|3:0,0:0:0:0:
294,29,96023,1,8,0:0:0:0:
369,94,96323,5,4,0:0:0:0:
369,94,96473,2,0,P|361:163|359:218,1,99.9999999999999,0|0,0:0|0:0,0:0:0:0:
348,244,96923,2,0,P|264:238|228:239,1,99.9999999999999,0|8,3:0|0:0,0:0:0:0:
220,280,97373,2,0,P|164:280|99:279,1,99.9999999999999,0|0,1:0|1:0,0:0:0:0:
68,284,97823,1,8,0:0:0:0:
60,184,98123,2,0,P|59:117|58:53,1,99.9999999999999,0|8,3:0|0:0,0:0:0:0:
152,40,98723,6,0,P|200:34|275:40,1,99.9999999999999,8|8,0:0|1:2,0:0:0:0:
329,99,99323,1,8,1:2:0:0:
411,40,99623,1,8,1:2:0:0:
482,109,99923,2,0,L|477:213,1,99.9999999999999,8|8,1:2|1:2,0:0:0:0:
394,265,100523,2,0,P|319:264|254:265,1,99.9999999999999,8|8,1:2|0:0,0:0:0:0:
221,194,101123,6,0,L|52:212,2,150,8|8|8,1:2|1:2|1:2,0:0:0:0:
444,44,102923,2,0,P|427:110|437:204,1,150,8|0,3:2|3:0,0:0:0:0:
456,236,103523,6,0,L|355:233,1,99.9999999999999,4|8,3:2|0:0,0:0:0:0:
288,308,104123,2,0,L|153:307,1,99.9999999999999,0|8,3:0|0:0,0:0:0:0:
140,312,104573,2,0,P|116:252|184:168,1,150,2|8,1:1|0:0,0:0:0:0:
204,180,105173,1,0,0:0:0:0:
204,180,105323,2,0,P|220:140|213:68,1,99.9999999999999,0|8,1:0|0:0,0:0:0:0:
196,40,105773,1,0,0:0:0:0:
296,32,106073,6,0,L|423:25,1,99.9999999999999,0|0,0:0|0:0,0:0:0:0:
416,72,106523,2,0,P|412:129|410:184,1,99.9999999999999,0|8,3:0|0:0,0:0:0:0:
444,208,106973,2,0,P|441:276|428:328,1,99.9999999999999,4|0,0:0|3:0,0:0:0:0:
396,340,107423,1,8,3:0:0:0:
396,340,107573,2,0,L|218:331,1,150,8|0,3:0|3:0,0:0:0:0:
188,252,108323,5,4,3:2:0:0:
220,156,108623,1,8,0:0:0:0:
178,64,108923,2,0,P|111:58|53:57,1,99.9999999999999,0|8,3:0|0:0,0:0:0:0:
31,75,109373,2,0,P|35:169|42:270,1,150,2|8,1:1|0:0,0:0:0:0:
96,308,110123,1,0,1:0:0:0:
196,300,110423,1,12,0:0:0:0:
290,338,110723,6,0,B|311:252|260:264|291:162,1,150,4|0,3:2|3:0,0:0:0:0:
325,162,111323,2,0,P|383:155|445:152,1,99.9999999999999,8|8,1:2|1:2,0:0:0:0:
466,124,111773,2,0,P|462:55|391:27,1,150,4|8,0:0|3:0,0:0:0:0:
302,65,112523,2,0,L|192:67,1,99.9999999999999,12|8,3:0|0:0,0:0:0:0:
164,159,113123,6,0,L|30:146,2,99.9999999999999,4|8|0,0:0|0:0|3:0,0:0:0:0:
257,194,114023,1,8,0:0:0:0:
190,268,114323,2,0,L|52:284,2,99.9999999999999,0|8|0,3:0|0:0|3:0,0:0:0:0:
272,324,115223,1,8,0:0:0:0:
345,256,115523,6,0,L|469:239,1,99.9999999999999,0|8,3:0|0:0,0:0:0:0:
440,142,116123,2,0,L|307:135,1,99.9999999999999,0|8,3:0|0:0,0:0:0:0:
312,94,116573,2,0,P|224:89|132:86,1,150,4|8,0:0|0:0,0:0:0:0:
91,156,117323,1,8,1:2:0:0:
156,231,117623,1,8,1:2:0:0:
116,322,117923,6,0,L|232:314,1,99.9999999999999,4|8,0:0|0:0,0:0:0:0:
288,246,118523,1,0,3:0:0:0:
369,303,118823,1,8,0:0:0:0:
459,259,119123,2,0,L|457:153,1,99.9999999999999,0|8,3:0|0:0,0:0:0:0:
391,83,119723,2,0,L|261:77,1,99.9999999999999,0|8,3:0|0:0,0:0:0:0:
249,51,120173,2,0,P|149:52|106:125,1,150,4|8,0:0|1:2,0:0:0:0:
81,117,120773,1,0,3:0:0:0:
81,117,120923,2,0,L|92:241,1,99.9999999999999,8|8,1:2|3:2,0:0:0:0:
66,313,121523,5,4,1:2:0:0:
66,313,122423,6,0,L|181:300,1,99.9999999999999,0|0,3:0|0:0,0:0:0:0:
256,192,127523,12,8,131123,3:0:0:0:
460,24,131723,6,0,P|454:75|476:177,1,150,2|2,0:0|0:0,0:0:0:0:
464,220,132323,6,0,P|356:212|272:152,1,200,4|2,0:0|0:0,0:0:0:0:
240,132,133073,2,0,L|127:130,1,99.9999999999999,2|0,0:0|3:0,0:0:0:0:
104,164,133523,2,0,P|103:236|100:286,1,99.9999999999999,8|2,1:3|0:0,0:0:0:0:
120,312,133973,2,0,P|189:307|253:306,1,99.9999999999999,2|2,0:0|0:0,0:0:0:0:
268,320,134423,1,2,0:0:0:0:
352,252,134723,6,0,P|386:190|304:72,1,200,4|2,0:0|0:0,0:0:0:0:
282,78,135473,2,0,P|202:81|154:70,1,99.9999999999999,2|2,0:0|0:0,0:0:0:0:
136,58,135923,1,8,1:3:0:0:
49,108,136223,2,0,B|64:157|64:157|51:215,1,99.9999999999999,0|8,0:0|1:3,0:0:0:0:
209,332,137123,6,0,P|293:307|410:325,1,200,4|2,0:0|0:0,0:0:0:0:
451,333,137873,2,0,P|444:247|448:196,1,99.9999999999999,0|0,0:0|3:0,0:0:0:0:
467,188,138323,2,0,L|265:162,1,200,8|2,1:3|0:0,0:0:0:0:
185,106,139223,2,0,L|110:113,1,50,2|2,0:0|0:0,0:0:0:0:
88,92,139523,6,0,P|88:162|69:303,1,200,4|0,0:0|0:0,0:0:0:0:
109,323,140273,2,0,L|233:307,1,99.9999999999999,2|2,0:0|0:0,0:0:0:0:
250,282,140723,1,8,3:0:0:0:
331,339,141023,1,0,3:0:0:0:
417,288,141323,2,0,P|419:216|413:156,1,99.9999999999999,0|8,3:0|3:2,0:0:0:0:
411,138,141773,1,8,3:2:0:0:
411,138,142673,6,0,L|283:141,1,99.9999999999999,0|0,0:0|0:0,0:0:0:0:
277,103,143123,2,0,L|134:102,1,99.9999999999999,4|0,0:0|3:0,0:0:0:0:
78,117,143723,2,0,P|73:171|77:234,1,99.9999999999999,0|0,3:0|3:0,0:0:0:0:
100,259,144173,2,0,P|169:256|219:257,1,99.9999999999999,0|0,1:2|1:0,0:0:0:0:
245,276,144623,1,0,3:0:0:0:
327,332,144923,2,0,L|440:331,1,99.9999999999999,0|0,3:0|3:0,0:0:0:0:
463,297,145373,1,0,1:0:0:0:
463,297,145523,6,0,P|454:246|459:153,1,99.9999999999999,4|0,0:0|3:0,0:0:0:0:
418,103,146123,2,0,L|286:99,1,99.9999999999999,0|0,3:0|3:0,0:0:0:0:
267,102,146573,2,0,P|263:189|254:239,1,99.9999999999999,8|8,3:0|3:0,0:0:0:0:
235,245,147023,1,0,3:0:0:0:
187,333,147323,2,0,L|72:328,1,99.9999999999999,0|0,3:0|3:0,0:0:0:0:
36,242,147923,6,0,P|43:163|48:112,1,99.9999999999999,12|8,3:0|3:0,0:0:0:0:
125,82,148523,1,8,3:0:0:0:
215,123,148823,1,8,3:0:0:0:
294,62,149123,2,0,L|407:52,1,99.9999999999999,12|8,3:0|3:0,0:0:0:0:
443,57,149573,1,0,3:0:0:0:
443,57,149723,2,0,P|423:126|428:180,1,99.9999999999999,8|8,3:0|3:0,0:0:0:0:
424,204,150173,1,0,3:0:0:0:
424,204,150323,6,0,L|271:219,2,150,12|2|2,3:0|3:0|3:0,0:0:0:0:
424,204,152723,2,0,L|433:79,1,99.9999999999999,2|0,3:0|0:0,0:0:0:0:
404,56,153173,2,0,P|332:52|274:44,1,99.9999999999999,2|0,3:0|0:0,0:0:0:0:
256,72,153623,1,2,3:0:0:0:
256,72,155123,5,4,0:0:0:0:
165,97,164723,6,0,P|96:97|44:92,2,99.9999999999999,4|0|0,3:2|3:0|3:0,0:0:0:0:
260,127,165623,1,0,3:0:0:0:
192,200,165923,2,0,P|154:200|59:211,2,99.9999999999999,0|0|0,3:0|3:0|3:0,0:0:0:0:
280,248,166823,1,0,3:0:0:0:
350,172,167123,2,0,L|361:58,1,99.9999999999999,0|0,3:0|3:0,0:0:0:0:
457,93,167723,2,0,L|445:193,1,99.9999999999999,0|0,3:0|3:0,0:0:0:0:
475,231,168173,1,0,3:0:0:0:
475,231,168323,6,0,L|480:338,1,99.9999999999999,0|0,3:0|3:0,0:0:0:0:
382,353,168923,2,0,L|264:343,1,99.9999999999999,0|0,3:0|3:0,0:0:0:0:
209,275,169523,1,0,3:0:0:0:
126,330,169823,1,0,3:0:0:0:
54,259,170123,2,0,L|64:151,1,99.9999999999999,0|0,3:0|3:0,0:0:0:0:
138,93,170723,6,0,L|268:95,1,99.9999999999999,0|0,3:0|3:0,0:0:0:0:
322,148,171323,1,0,3:0:0:0:
409,100,171623,1,0,3:0:0:0:
256,192,171923,12,2,173723,0:0:0:0:
49,79,174323,6,0,L|179:70,1,99.9999999999999,4|8,0:0|0:0,0:0:0:0:
238,116,174923,1,0,3:0:0:0:
321,61,175223,1,8,0:0:0:0:
321,61,175373,2,0,P|416:112|416:156,1,150,2|8,1:1|0:0,0:0:0:0:
432,192,175973,1,0,0:0:0:0:
432,192,176123,2,0,L|427:308,1,99.9999999999999,0|8,1:0|0:0,0:0:0:0:
336,328,176723,6,0,P|293:311|242:323,1,99.9999999999999,4|8,3:2|0:0,0:0:0:0:
196,340,177173,1,0,0:0:0:0:
196,340,177323,2,0,L|89:331,1,99.9999999999999,0|8,3:0|0:0,0:0:0:0:
48,332,177773,2,0,L|66:200,1,99.9999999999999,4|0,0:0|3:0,0:0:0:0:
48,184,178223,1,8,3:0:0:0:
80,88,178523,2,0,L|195:85,1,99.9999999999999,0|8,3:0|3:0,0:0:0:0:
265,30,179123,6,0,P|278:106|250:150,1,99.9999999999999,4|8,0:0|0:0,0:0:0:0:
194,190,179723,1,0,3:0:0:0:
255,269,180023,1,8,0:0:0:0:
255,269,180173,2,0,L|393:267,1,99.9999999999999,2|0,1:1|3:1,0:0:0:0:
404,271,180623,2,0,L|412:151,1,99.9999999999999,8|0,0:0|1:0,0:0:0:0:
407,71,181223,2,0,P|333:73|280:65,1,99.9999999999999,12|4,0:0|3:2,0:0:0:0:
273,32,181673,6,0,P|209:30|166:37,1,99.9999999999999,0|0,3:0|3:0,0:0:0:0:
125,50,182123,2,0,P|132:116|132:172,1,99.9999999999999,8|8,1:2|1:2,0:0:0:0:
109,194,182573,1,4,0:0:0:0:
81,290,182873,1,0,3:0:0:0:
81,290,183023,2,0,L|220:278,1,99.9999999999999,8|12,3:0|3:0,0:0:0:0:
262,338,183623,1,8,0:0:0:0:
339,274,183923,6,0,L|476:270,2,99.9999999999999,4|8|0,0:0|0:0|3:0,0:0:0:0:
253,220,184823,1,8,0:0:0:0:
306,135,185123,2,0,L|434:130,2,99.9999999999999,0|8|0,3:0|0:0|3:0,0:0:0:0:
207,119,186023,1,8,0:0:0:0:
120,171,186323,2,0,P|102:125|115:78,1,99.9999999999999,0|8,3:0|0:0,0:0:0:0:
202,28,186923,2,0,L|314:27,1,99.9999999999999,0|8,3:0|0:0,0:0:0:0:
352,24,187373,6,0,L|344:156,1,99.9999999999999,4|0,0:0|3:0,0:0:0:0:
352,172,187823,1,8,0:0:0:0:
284,244,188123,1,8,1:2:0:0:
344,320,188423,1,8,1:2:0:0:
252,360,188723,2,0,L|145:353,1,99.9999999999999,4|8,0:0|0:0,0:0:0:0:
72,292,189323,1,0,3:0:0:0:
124,208,189623,1,8,0:0:0:0:
65,125,189923,6,0,L|69:9,1,99.9999999999999,0|8,3:0|0:0,0:0:0:0:
167,15,190523,2,0,L|168:121,1,99.9999999999999,0|8,3:0|0:0,0:0:0:0:
210,142,190973,2,0,L|330:127,1,99.9999999999999,4|0,0:0|3:0,0:0:0:0:
348,98,191423,1,8,0:0:0:0:
431,153,191723,2,0,L|413:273,1,99.9999999999999,8|8,3:0|0:0,0:0:0:0:
380,287,192173,2,0,L|257:290,1,99.9999999999999,0|0,0:0|0:0,0:0:0:0:
232,273,192623,1,8,0:0:0:0:
132,284,192923,2,0,P|134:239|132:151,1,99.9999999999999,8|8,3:0|0:0,0:0:0:0:
164,89,193523,6,0,L|53:77,2,99.9999999999999,4|8|0,0:0|0:0|3:0,0:0:0:0:
246,146,194423,1,8,0:0:0:0:
335,100,194723,2,0,P|348:163|329:205,2,99.9999999999999,0|8|0,3:0|0:0|3:0,0:0:0:0:
253,41,195623,1,8,0:0:0:0:
164,89,195923,6,0,L|165:199,1,99.9999999999999,0|8,3:0|0:0,0:0:0:0:
176,288,196523,2,0,P|244:285|298:277,1,99.9999999999999,0|8,3:0|0:0,0:0:0:0:
305,240,196973,2,0,P|371:231|421:230,1,99.9999999999999,4|0,0:0|3:0,0:0:0:0:
452,220,197423,1,8,0:0:0:0:
460,120,197723,1,8,1:2:0:0:
374,78,198023,1,8,1:2:0:0:
279,110,198323,6,0,L|155:104,1,99.9999999999999,8|8,1:2|1:2,0:0:0:0:
99,165,198923,1,8,1:2:0:0:
166,239,199223,1,8,1:2:0:0:
125,330,199523,2,0,L|229:324,1,99.9999999999999,8|8,0:0|1:2,0:0:0:0:
303,262,200123,1,0,1:2:0:0:
391,309,200423,2,0,L|447:302,1,50,0|4,1:2|1:2,0:0:0:0:
