osu file format v14

[General]
AudioFilename: audio.mp3
AudioLeadIn: 0
PreviewTime: 103363
Countdown: 0
SampleSet: Soft
StackLeniency: 0.2
Mode: 0
LetterboxInBreaks: 0
WidescreenStoryboard: 0

[Editor]
Bookmarks: 193513
DistanceSpacing: 2.9
BeatDivisor: 4
GridSize: 8
TimelineZoom: 1

[Metadata]
Title:HIBANA
TitleUnicode:ヒバナ
Artist:soraru x mafumafu
ArtistUnicode:そらる×まふまふ
Creator:Testo
Version:Akitoshi's Expert
Source:
Tags:SPARKS 火花 HATSUNE MIKU 10th Anniversary Album Re:Start DECO*27 Vocaloid 初音ミク Akitoshi Djulus
BeatmapID:1529804
BeatmapSetID:691103

[Difficulty]
HPDrainRate:6
CircleSize:4
OverallDifficulty:8.3
ApproachRate:9.3
SliderMultiplier:1.7
SliderTickRate:1

[Events]
//Background and Video events
0,0,"DECO228.png",0,0
//Break Periods
2,65323,71619
2,122923,126969
//Storyboard Layer 0 (Background)
//Storyboard Layer 1 (Fail)
//Storyboard Layer 2 (Pass)
//Storyboard Layer 3 (Foreground)
//Storyboard Sound Samples

[TimingPoints]
323,300,4,2,1,75,1,0
323,-100,4,2,1,75,0,0
2423,-166.666666666667,4,2,1,75,0,0
2723,-100,4,2,1,75,0,0
6323,-166.666666666667,4,2,1,75,0,0
7523,-100,4,2,1,75,0,0
17123,-142.857142857143,4,2,1,65,0,0
21923,-111.111111111111,4,2,1,65,0,0
26723,-100,4,2,1,65,0,0
36323,-125,4,2,1,65,0,0
41123,-111.111111111111,4,2,1,65,0,0
43523,-100,4,2,1,75,0,0
45923,-90.9090909090909,4,2,1,75,0,1
63923,-100,4,2,1,75,0,0
64523,-76.9230769230769,4,2,1,75,0,0
65123,-100,4,2,1,75,0,0
74723,-142.857142857143,4,2,1,55,0,0
84323,-100,4,2,1,65,0,0
93923,-125,4,2,1,65,0,0
98723,-111.111111111111,4,2,1,75,0,0
101123,-100,4,2,1,75,0,0
103523,-90.9090909090909,4,2,1,75,0,1
121523,-100,4,2,1,75,0,0
122123,-76.9230769230769,4,2,1,75,0,0
122723,-200,4,2,1,75,0,0
127523,-200,4,2,1,55,0,0
128723,-125,4,2,1,55,0,0
129923,-100,4,2,1,55,0,0
131723,-66.6666666666667,4,2,1,55,0,0
132323,-66.6666666666667,4,2,1,75,0,0
136523,-166.666666666667,4,2,1,75,0,0
137048,-166.666666666667,4,2,1,10,0,0
137123,-66.6666666666667,4,2,1,75,0,0
142523,-76.9230769230769,4,2,1,75,0,0
143123,-111.111111111111,4,2,1,65,0,0
147923,-100,4,2,1,75,0,0
150323,-100,4,2,1,65,0,0
155123,-200,4,2,1,55,0,0
164723,-142.857142857143,4,2,1,65,0,0
169523,-125,4,2,1,65,0,0
171923,-111.111111111111,4,2,1,75,0,0
173123,-100,4,2,1,75,0,0
173723,-200,4,2,1,45,0,0
174023,-100,4,2,1,55,0,0
174323,-83.3333333333333,4,2,1,75,0,1
200573,-100,4,2,1,75,0,0

[Colours]
Combo1 : 0,128,255
Combo2 : 0,128,64
Combo3 : 193,193,0
Combo4 : 210,0,142
Combo5 : 128,0,255
Combo6 : 217,0,44

[HitObjects]
192,331,323,6,0,B|135:360|135:360|56:343,2,113.333333333333,4|0|0,3:2|3:0|3:0,0:0:0:0:
328,227,923,2,0,B|385:256|385:256|464:239,2,113.333333333333,0|0|0,1:2|3:0|3:0,0:0:0:0:
192,122,1523,2,0,B|135:151|135:151|56:134,2,113.333333333333,4|0|0,3:2|3:0|3:0,0:0:0:0:
328,18,2123,1,0,1:2:0:0:
328,18,2423,6,0,L|339:106,1,76.4999976654053,2|2,3:0|3:0,0:0:0:0:
362,116,2723,6,0,L|358:209,1,85,12|0,3:2|3:0,0:0:0:0:
278,311,3023,1,0,3:0:0:0:
167,231,3173,1,0,3:0:0:0:
167,231,3248,1,0,3:0:0:0:
167,231,3323,2,0,P|119:224|71:237,1,85,0|0,3:0|3:0,0:0:0:0:
58,252,3548,1,0,3:0:0:0:
58,252,3623,2,0,L|54:167,1,85,0|0,3:0|3:0,0:0:0:0:
180,40,3923,6,0,L|176:124,1,85,10|0,3:2|3:0,0:0:0:0:
273,233,4223,1,0,3:0:0:0:
273,233,4298,1,0,3:0:0:0:
273,233,4373,2,0,B|361:213|354:273|446:246,1,170,0|0,3:0|3:0,0:0:0:0:
472,236,4748,1,0,3:0:0:0:
472,236,4823,2,0,P|474:169|463:150,1,85,0|0,3:0|3:0,0:0:0:0:
305,97,5123,6,0,P|311:47|314:3,1,85,12|0,3:2|3:0,0:0:0:0:
127,76,5423,2,0,P|133:126|136:170,1,85,8|0,3:2|3:0,0:0:0:0:
155,339,5723,1,8,3:2:0:0:
180,353,5798,1,0,3:0:0:0:
208,363,5873,1,0,3:0:0:0:
238,368,5948,1,0,3:0:0:0:
267,366,6023,1,8,3:2:0:0:
296,359,6098,1,0,3:0:0:0:
323,347,6173,1,0,3:0:0:0:
347,330,6248,1,0,3:0:0:0:
368,308,6323,6,0,P|378:253|356:199,1,101.999996887207,0|0,1:0|0:0,0:0:0:0:
191,217,6773,2,0,P|228:251|278:263,1,101.999996887207,0|0,1:0|0:0,0:0:0:0:
356,106,7223,2,0,P|316:118|288:148,1,76.4999976654053,0|0,1:0|0:0,0:0:0:0:
277,174,7523,6,0,P|271:126|263:63,1,85,4|0,3:2|0:0,0:0:0:0:
113,16,7823,2,0,P|107:64|99:127,1,85,8|0,0:0|0:0,0:0:0:0:
84,210,8123,1,0,3:0:0:0:
214,290,8273,2,0,P|254:280|316:276,1,85,0|8,1:0|0:0,0:0:0:0:
150,379,8573,1,0,0:0:0:0:
63,232,8723,6,0,P|70:147|79:62,1,170,0|8,3:0|0:0,0:0:0:0:
286,117,9173,2,0,P|233:193|152:180,1,170,0|0,0:0|0:0,0:0:0:0:
277,12,9623,1,8,0:0:0:0:
381,156,9773,1,8,0:0:0:0:
203,114,9923,6,0,P|197:69|192:18,1,85,4|0,3:2|0:0,0:0:0:0:
364,173,10223,2,0,P|358:217|353:269,1,85,8|0,0:0|0:0,0:0:0:0:
255,206,10523,1,0,3:0:0:0:
339,58,10673,2,0,P|379:56|425:71,1,85,0|8,1:0|0:0,0:0:0:0:
501,146,10973,1,0,0:0:0:0:
354,257,11123,6,0,B|263:240|278:303|170:270,1,170,0|8,3:0|0:0,0:0:0:0:
221,99,11573,2,0,P|246:109|181:184,1,170,0|0,0:0|0:0,0:0:0:0:
45,135,12023,1,8,3:2:0:0:
47,105,12098,1,8,3:2:0:0:
49,75,12173,1,8,3:2:0:0:
52,46,12248,1,8,3:2:0:0:
54,16,12323,6,0,P|98:13|152:9,1,85,4|0,3:2|0:0,0:0:0:0:
306,106,12623,2,0,P|262:102|208:98,1,85,8|0,0:0|0:0,0:0:0:0:
383,4,12923,1,0,3:0:0:0:
355,197,13073,2,0,P|304:209|265:200,1,85,0|8,1:0|0:0,0:0:0:0:
425,110,13373,1,0,0:0:0:0:
503,260,13523,6,0,B|488:373|488:373|431:330,1,170,0|8,3:0|0:0,0:0:0:0:
273,203,13973,2,0,P|210:191|116:261,1,170,0|0,0:0|0:0,0:0:0:0:
288,353,14423,1,8,0:0:0:0:
401,193,14573,1,0,3:0:0:0:
401,193,14648,1,0,3:0:0:0:
401,193,14723,6,0,P|392:113|381:15,1,170,8|0,3:2|3:0,0:0:0:0:
246,191,15173,2,0,P|307:220|406:188,1,170,8|0,3:2|3:0,0:0:0:0:
225,73,15623,1,8,3:2:0:0:
140,220,15773,1,0,3:0:0:0:
93,21,15923,5,8,3:0:0:0:
144,200,16073,1,8,3:0:0:0:
144,200,16148,1,8,3:0:0:0:
144,200,16223,1,8,3:0:0:0:
242,50,16373,1,8,3:0:0:0:
51,122,16523,1,8,3:0:0:0:
250,165,16673,1,0,3:0:0:0:
25,245,16823,1,0,3:0:0:0:
224,288,16973,1,0,3:0:0:0:
140,165,17123,6,0,P|148:106|156:47,1,118.999996368408,4|0,0:0|0:0,0:0:0:0:
244,18,17573,1,0,0:0:0:0:
244,18,17723,2,0,P|275:16|313:24,2,59.4999981842042,0|0|0,0:0|0:0|0:0,0:0:0:0:
155,47,18173,2,0,L|88:39,1,59.4999981842042,2|0,0:0|0:0,0:0:0:0:
102,128,18473,2,0,L|39:154,1,59.4999981842042,0|0,0:0|0:0,0:0:0:0:
98,224,18773,2,0,B|55:281|55:281|60:298|76:325,1,118.999996368408,0|0,0:0|0:0,0:0:0:0:
157,373,19223,1,0,0:0:0:0:
157,373,19373,1,0,0:0:0:0:
222,312,19523,6,0,B|292:304|274:340|348:332,1,118.999996368408,2|0,0:0|0:0,0:0:0:0:
416,290,19973,1,0,0:0:0:0:
416,290,20123,2,0,L|488:296,2,59.4999981842042,0|0|0,0:0|0:0|0:0,0:0:0:0:
341,240,20573,6,0,P|329:197|329:175,1,59.4999981842042,2|0,0:0|0:0,0:0:0:0:
243,211,20873,2,0,P|242:166|248:145,1,59.4999981842042,0|0,0:0|0:0,0:0:0:0:
156,151,21173,2,0,P|177:68|197:32,1,118.999996368408,0|0,0:0|0:0,0:0:0:0:
222,27,21548,1,0,0:0:0:0:
222,27,21623,2,0,L|292:32,1,59.4999981842042,4|0,3:0|0:0,0:0:0:0:
433,51,21923,5,8,3:0:0:0:
330,164,22073,2,0,P|323:198|334:255,1,76.4999976654053,8|0,3:0|0:0,0:0:0:0:
365,336,22373,1,0,0:0:0:0:
365,336,22523,2,0,L|278:342,1,76.4999976654053,2|0,0:0|0:0,0:0:0:0:
193,370,22823,2,0,L|106:364,1,76.4999976654053,2|0,0:0|0:0,0:0:0:0:
26,241,23123,5,8,3:2:0:0:
128,127,23273,2,0,P|160:122|213:136,1,76.4999976654053,8|0,3:0|0:0,0:0:0:0:
269,205,23573,2,0,P|301:210|354:196,2,76.4999976654053,0|2|0,0:0|0:0|0:0,0:0:0:0:
203,131,24023,2,0,P|198:99|212:46,1,76.4999976654053,2|2,0:0|0:0,0:0:0:0:
343,201,24323,5,12,3:0:0:0:
223,296,24473,2,0,L|130:291,1,76.4999976654053,8|0,3:0|0:0,0:0:0:0:
58,180,24773,1,0,3:0:0:0:
58,180,24848,1,0,3:0:0:0:
58,180,24923,1,8,3:2:0:0:
203,131,25073,1,8,3:0:0:0:
132,266,25223,1,8,3:0:0:0:
177,119,25373,1,8,3:0:0:0:
283,277,25523,5,8,0:0:0:0:
345,96,25673,2,0,L|430:102,1,76.4999976654053,4|0,3:2|0:0,0:0:0:0:
209,13,25973,2,0,L|294:7,1,76.4999976654053,4|0,3:2|0:0,0:0:0:0:
105,72,26273,1,4,3:2:0:0:
257,187,26423,2,0,P|266:228|257:275,1,76.4999976654053,8|0,0:0|0:0,0:0:0:0:
20,220,26723,6,0,P|97:190|170:230,1,170,4|8,0:0|0:0,0:0:0:0:
91,292,27173,1,0,0:0:0:0:
3,117,27323,2,0,P|42:100|98:98,1,85,0|0,3:0|0:0,0:0:0:0:
272,152,27623,1,8,0:0:0:0:
186,257,27773,6,0,L|195:346,1,85,0|0,0:0|3:0,0:0:0:0:
371,277,28073,2,0,L|380:188,1,85,0|8,0:0|0:0,0:0:0:0:
395,31,28373,2,0,B|350:57|350:57|298:15|231:34,1,170,0|0,0:0|0:0,0:0:0:0:
86,142,28823,1,8,0:0:0:0:
272,152,28973,1,8,3:2:0:0:
84,302,29123,6,0,P|61:222|86:142,1,170,0|8,3:0|0:0,0:0:0:0:
210,36,29573,1,0,0:0:0:0:
285,178,29723,1,0,0:0:0:0:
409,73,29873,2,0,P|452:68|496:75,1,85,0|8,0:0|0:0,0:0:0:0:
269,192,30173,6,0,L|174:186,1,85,0|0,0:0|3:0,0:0:0:0:
380,321,30473,2,0,L|285:327,1,85,0|8,0:0|0:0,0:0:0:0:
493,194,30773,2,0,L|398:188,1,85,0|0,0:0|3:0,0:0:0:0:
285,178,31073,1,0,0:0:0:0:
358,24,31223,2,0,P|395:16|455:26,1,85,8|0,0:0|0:0,0:0:0:0:
269,192,31523,6,0,B|237:183|210:180|210:180|163:195|163:195|136:184|92:178,1,170,4|8,3:2|0:0,0:0:0:0:
159,76,31973,1,0,0:0:0:0:
11,217,32123,2,0,P|4:173|20:126,1,85,0|0,3:0|0:0,0:0:0:0:
196,185,32423,1,8,0:0:0:0:
118,326,32573,6,0,L|30:333,1,85,0|0,0:0|3:0,0:0:0:0:
227,311,32873,2,0,L|139:304,1,85,0|8,0:0|0:0,0:0:0:0:
336,325,33173,2,0,L|248:332,1,85,0|0,0:0|3:0,0:0:0:0:
293,193,33473,1,0,0:0:0:0:
444,269,33623,2,0,P|455:311|452:357,1,85,8|0,0:0|0:0,0:0:0:0:
270,180,33923,5,4,3:2:0:0:
434,136,34073,1,0,0:0:0:0:
256,54,34223,2,0,P|212:47|160:58,1,85,8|0,0:0|0:0,0:0:0:0:
20,130,34523,1,0,3:0:0:0:
150,191,34673,1,0,0:0:0:0:
24,30,34823,1,8,0:0:0:0:
19,235,34973,1,0,0:0:0:0:
19,235,35048,1,0,0:0:0:0:
19,235,35123,5,12,3:2:0:0:
143,73,35273,1,8,3:0:0:0:
230,257,35423,2,0,L|336:252,1,85,8|8,3:0|0:0,0:0:0:0:
452,153,35723,1,8,3:2:0:0:
282,163,35873,1,0,3:0:0:0:
425,254,36023,1,8,3:0:0:0:
362,96,36173,1,8,3:0:0:0:
314,252,36323,6,0,P|319:293|323:329,1,68,4|0,0:0|0:0,0:0:0:0:
224,351,36623,2,0,P|188:333|109:324,1,102,8|0,0:0|3:0,0:0:0:0:
94,333,36923,1,0,3:0:0:0:
28,255,37073,2,0,L|36:177,1,68,0|8,3:0|0:0,0:0:0:0:
159,132,37373,6,0,P|170:169|172:209,1,68,0|0,1:0|0:0,0:0:0:0:
280,281,37673,2,0,P|283:247|293:214,1,68,0|8,1:0|0:0,0:0:0:0:
372,150,37973,1,0,3:0:0:0:
372,150,38048,1,0,3:0:0:0:
372,150,38123,1,0,3:0:0:0:
389,250,38273,1,0,3:0:0:0:
505,180,38423,2,0,P|500:140|495:103,1,68,8|0,0:0|3:0,0:0:0:0:
402,0,38723,6,0,P|397:40|392:77,1,68,4|0,0:0|3:0,0:0:0:0:
304,102,39023,2,0,P|265:86|197:83,1,102,8|0,0:0|3:0,0:0:0:0:
174,97,39323,1,0,3:0:0:0:
92,158,39473,2,0,L|19:151,1,68,0|8,3:0|0:0,0:0:0:0:
156,247,39773,6,0,L|229:240,1,68,0|0,1:0|0:0,0:0:0:0:
345,227,40073,1,0,1:0:0:0:
278,329,40223,2,0,P|232:344|192:339,1,68,8|0,0:0|3:0,0:0:0:0:
134,270,40523,1,0,3:0:0:0:
223,240,40673,1,0,0:0:0:0:
110,291,40823,2,0,L|31:288,1,68,8|0,0:0|3:0,0:0:0:0:
223,165,41123,6,0,P|231:203|223:240,1,76.4999976654053,8|0,3:2|3:0,0:0:0:0:
77,195,41423,2,0,P|69:157|77:120,1,76.4999976654053,8|0,1:2|3:0,0:0:0:0:
298,166,41723,2,0,P|260:173|223:165,1,76.4999976654053,8|0,1:2|3:0,0:0:0:0:
269,20,42023,2,0,P|306:12|343:20,1,76.4999976654053,8|0,1:2|3:0,0:0:0:0:
496,135,42323,6,0,L|491:224,1,76.4999976654053,8|0,0:0|3:0,0:0:0:0:
303,243,42623,2,0,L|298:154,1,76.4999976654053,8|0,1:2|3:0,0:0:0:0:
142,55,42923,1,8,1:2:0:0:
172,181,43073,1,0,3:0:0:0:
11,77,43223,1,8,0:0:0:0:
41,203,43373,1,0,3:0:0:0:
166,31,43523,6,0,B|252:15|239:81|337:62,1,170,8|0,1:2|3:0,0:0:0:0:
502,185,43973,2,0,B|416:169|429:235|331:216,1,170,8|0,1:2|3:0,0:0:0:0:
129,181,44423,2,0,B|113:302|113:302|163:254,1,170,8|0,1:2|0:0,0:0:0:0:
147,268,45323,5,0,1:0:0:0:
170,286,45398,1,8,3:0:0:0:
197,298,45473,1,0,1:0:0:0:
226,304,45548,1,8,3:0:0:0:
256,303,45623,1,0,1:0:0:0:
284,296,45698,1,8,3:0:0:0:
311,282,45773,1,0,1:0:0:0:
333,263,45848,1,8,3:0:0:0:
351,239,45923,6,0,L|461:249,1,93.5000028533936,4|0,3:2|0:0,0:0:0:0:
308,103,46223,2,0,L|261:3,1,93.5000028533936,8|0,0:0|0:0,0:0:0:0:
215,207,46523,2,0,L|151:297,1,93.5000028533936,0|0,3:0|3:0,0:0:0:0:
351,239,46823,1,8,0:0:0:0:
202,110,46973,6,0,P|150:98|97:111,1,93.5000028533936,2|0,1:1|0:0,0:0:0:0:
8,200,47273,1,0,3:1:0:0:
215,207,47423,1,8,0:0:0:0:
86,84,47573,1,0,0:0:0:0:
117,287,47723,2,0,L|109:380,1,93.5000028533936,0|0,1:0|3:0,0:0:0:0:
320,256,48023,2,0,L|312:162,1,93.5000028533936,8|0,0:0|0:0,0:0:0:0:
226,308,48323,5,4,3:2:0:0:
392,329,48473,2,0,P|417:289|419:229,1,93.5000028533936,0|8,0:0|0:0,0:0:0:0:
409,103,48773,1,0,0:0:0:0:
272,134,48923,2,0,L|279:227,1,93.5000028533936,0|0,3:0|3:0,0:0:0:0:
334,17,49223,1,8,0:0:0:0:
125,71,49373,6,0,B|90:190|90:190|128:255,1,187.000005706787,4|0,0:0|3:0,0:0:0:0:
248,382,49823,1,8,3:0:0:0:
280,378,49898,1,8,3:0:0:0:
313,374,49973,1,8,3:0:0:0:
345,371,50048,1,8,3:0:0:0:
378,367,50123,2,0,P|388:329|376:267,1,93.5000028533936,0|0,3:0|3:0,0:0:0:0:
267,91,50423,1,0,3:0:0:0:
267,91,50498,1,0,3:0:0:0:
267,91,50573,2,0,L|204:95,1,46.7500014266968,0|0,3:0|3:0,0:0:0:0:
111,104,50723,6,0,P|96:157|107:204,1,93.5000028533936,4|0,3:2|0:0,0:0:0:0:
293,295,51023,2,0,P|254:255|208:241,1,93.5000028533936,8|0,0:0|0:0,0:0:0:0:
36,358,51323,2,0,P|89:344|124:311,1,93.5000028533936,0|0,3:0|3:0,0:0:0:0:
223,131,51623,1,8,0:0:0:0:
8,148,51773,6,0,L|16:259,1,93.5000028533936,2|0,1:1|0:0,0:0:0:0:
137,344,52073,1,0,3:1:0:0:
230,160,52223,1,8,0:0:0:0:
102,193,52373,1,0,0:0:0:0:
275,303,52523,2,0,P|324:311|382:294,1,93.5000028533936,0|0,1:0|3:0,0:0:0:0:
506,112,52823,2,0,P|457:104|399:121,1,93.5000028533936,12|0,0:0|0:0,0:0:0:0:
236,193,53123,5,4,3:2:0:0:
100,110,53273,2,0,L|105:13,1,93.5000028533936,0|0,3:0|3:0,0:0:0:0:
250,82,53573,1,0,3:0:0:0:
123,220,53723,2,0,P|80:221|35:202,1,93.5000028533936,8|0,1:2|3:0,0:0:0:0:
219,92,54023,1,8,1:2:0:0:
412,163,54173,6,0,P|447:238|426:353,1,187.000005706787,4|0,0:0|3:0,0:0:0:0:
229,371,54623,1,8,3:0:0:0:
196,367,54698,1,8,3:0:0:0:
163,364,54773,1,8,3:0:0:0:
131,361,54848,1,8,3:0:0:0:
98,358,54923,1,12,3:0:0:0:
35,202,55073,1,0,3:0:0:0:
233,146,55223,2,0,P|245:197|236:247,1,93.5000028533936,8|0,0:0|0:0,0:0:0:0:
124,42,55523,6,0,P|219:33|315:24,2,187.000005706787,4|8|0,0:0|0:0|3:0,0:0:0:0:
5,117,56273,1,0,3:0:0:0:
161,219,56423,2,0,P|181:178|186:124,1,93.5000028533936,8|0,0:0|0:0,0:0:0:0:
7,250,56723,6,0,B|18:382|18:382|61:338,2,187.000005706787,0|8|0,3:0|0:0|3:0,0:0:0:0:
41,113,57473,1,0,3:0:0:0:
157,304,57623,2,0,L|277:292,1,93.5000028533936,8|8,0:0|3:0,0:0:0:0:
447,184,57923,6,0,P|457:142|446:87,1,93.5000028533936,0|0,3:0|0:0,0:0:0:0:
257,169,58223,2,0,P|288:198|341:216,1,93.5000028533936,8|0,0:0|0:0,0:0:0:0:
365,12,58523,2,0,P|323:24|281:61,1,93.5000028533936,0|0,3:0|3:0,0:0:0:0:
155,177,58823,1,8,0:0:0:0:
313,322,58973,6,0,B|460:310|460:310|423:284,1,187.000005706787,4|0,0:0|3:0,0:0:0:0:
257,169,59423,1,8,0:0:0:0:
186,321,59573,1,0,3:0:0:0:
36,179,59723,2,0,P|40:132|44:73,1,93.5000028533936,8|0,1:2|0:0,0:0:0:0:
250,76,60023,2,0,P|254:123|258:182,1,93.5000028533936,8|0,1:2|0:0,0:0:0:0:
357,348,60323,6,0,P|426:354|505:269,2,187.000005706787,4|8|0,0:0|0:0|3:0,0:0:0:0:
234,279,61073,1,0,3:0:0:0:
392,156,61223,2,0,B|408:201|408:201|398:246,1,93.5000028533936,8|0,0:0|0:0,0:0:0:0:
194,176,61523,6,0,B|163:147|163:147|137:62|210:-1,2,187.000005706787,0|8|0,3:0|0:0|3:0,0:0:0:0:
312,250,62273,1,0,3:0:0:0:
381,56,62423,1,8,0:0:0:0:
219,198,62573,6,0,P|123:188|26:179,1,187.000005706787,4|0,3:2|3:0,0:0:0:0:
163,350,63023,2,0,P|211:345|259:340,1,93.5000028533936,8|0,1:2|3:0,0:0:0:0:
425,224,63323,2,0,P|377:219|329:214,1,93.5000028533936,8|0,1:2|3:0,0:0:0:0:
185,69,63623,1,8,3:2:0:0:
185,69,63698,1,0,3:0:0:0:
185,69,63773,2,0,P|209:66|233:64,1,46.7500014266968,10|2,3:0|3:0,0:0:0:0:
398,51,63923,5,4,1:2:0:0:
398,51,64523,2,0,P|364:124|420:63,1,220.999989883423,0|0,0:0|3:0,0:0:0:0:
390,92,65123,5,0,0:0:0:0:
113,141,72173,5,0,3:0:0:0:
184,246,72323,2,0,B|240:262|240:262|352:239,1,170,4|0,1:2|0:0,0:0:0:0:
457,172,72773,2,0,L|488:175,2,28.3333333333333,8|8|8,3:0|3:0|3:0,0:0:0:0:
435,153,72923,1,8,3:0:0:0:
201,50,73373,5,0,3:0:0:0:
201,50,73448,1,0,3:0:0:0:
201,50,73523,2,0,L|117:45,2,56.6666666666667,8|8|8,3:2|3:2|3:2,0:0:0:0:
266,113,73823,2,0,L|350:108,2,56.6666666666667,8|8|8,3:2|3:2|3:2,0:0:0:0:
198,174,74123,2,0,B|143:207|81:168|81:168|111:171|146:159,1,170,8|2,3:2|0:0,0:0:0:0:
126,164,74723,6,0,L|133:294,1,118.999996368408,4|0,0:0|1:0,0:0:0:0:
206,333,75173,2,0,P|249:311|332:322,1,118.999996368408,0|0,1:0|0:0,0:0:0:0:
400,351,75623,1,0,1:0:0:0:
472,298,75773,6,0,L|466:228,1,59.4999981842042,0|0,3:0|0:0,0:0:0:0:
381,209,76073,2,0,L|375:139,1,59.4999981842042,0|0,3:0|1:0,0:0:0:0:
290,123,76373,2,0,L|284:53,2,59.4999981842042,0|0|0,1:0|3:0|0:0,0:0:0:0:
202,142,76823,2,0,L|196:72,1,59.4999981842042,0|0,1:0|0:0,0:0:0:0:
143,10,77123,6,0,P|74:7|9:38,1,118.999996368408,0|0,3:0|1:0,0:0:0:0:
1,110,77573,2,0,P|59:105|115:124,1,118.999996368408,0|0,1:0|0:0,0:0:0:0:
190,173,78023,1,0,1:0:0:0:
125,235,78173,6,0,L|130:304,1,59.4999981842042,0|0,3:0|0:0,0:0:0:0:
223,255,78473,2,0,L|228:324,1,59.4999981842042,0|0,3:0|1:0,0:0:0:0:
321,275,78773,2,0,L|326:344,2,59.4999981842042,4|0|0,1:0|3:0|0:0,0:0:0:0:
298,187,79223,2,0,L|303:118,1,59.4999981842042,0|0,1:0|0:0,0:0:0:0:
316,39,79523,6,0,P|379:24|443:45,1,118.999996368408,4|0,0:0|1:0,0:0:0:0:
485,115,79973,1,0,1:0:0:0:
485,115,80123,2,0,B|497:189|497:189|481:237,1,118.999996368408,0|0,3:0|1:0,0:0:0:0:
403,271,80573,6,0,L|332:265,1,59.4999981842042,0|0,3:0|0:0,0:0:0:0:
278,204,80873,2,0,L|207:210,1,59.4999981842042,0|0,3:0|1:0,0:0:0:0:
149,266,81173,1,0,1:0:0:0:
149,266,81323,2,0,L|78:260,1,59.4999981842042,0|0,3:0|0:0,0:0:0:0:
29,202,81623,1,0,1:0:0:0:
29,202,81773,1,0,0:0:0:0:
78,127,81923,6,0,L|85:50,1,59.4999981842042,4|0,3:2|0:0,0:0:0:0:
169,44,82223,2,0,L|176:121,1,59.4999981842042,0|0,1:0|1:0,0:0:0:0:
260,127,82523,2,0,L|267:50,1,59.4999981842042,0|0,3:0|0:0,0:0:0:0:
337,15,82823,1,0,1:0:0:0:
414,105,82973,6,0,L|493:100,1,59.4999981842042,8|0,1:2|1:0,0:0:0:0:
359,197,83273,1,0,3:0:0:0:
359,197,83348,1,0,3:0:0:0:
359,197,83423,1,8,3:0:0:0:
289,274,83573,1,0,3:0:0:0:
234,154,83723,1,8,3:0:0:0:
159,261,83873,1,8,3:2:0:0:
159,261,83948,1,8,3:2:0:0:
159,261,84023,1,8,3:2:0:0:
84,153,84173,1,8,3:2:0:0:
84,153,84248,1,8,3:2:0:0:
84,153,84323,6,0,P|77:88|103:31,1,127.5,4|0,0:0|0:0,0:0:0:0:
135,23,84623,2,0,P|192:52|280:34,1,127.5,8|0,0:0|0:0,0:0:0:0:
286,38,84923,1,0,3:0:0:0:
467,109,85073,2,0,P|479:151|472:204,1,85,0|8,0:0|0:0,0:0:0:0:
270,169,85373,6,0,L|355:162,1,85,0|0,0:0|3:0,0:0:0:0:
222,281,85673,2,0,L|137:274,1,85,0|8,0:0|0:0,0:0:0:0:
44,186,85973,2,0,P|16:107|70:10,1,170,0|0,0:0|0:0,0:0:0:0:
155,173,86423,1,8,0:0:0:0:
35,281,86573,1,8,3:0:0:0:
189,370,86723,6,0,L|289:363,1,85,0|0,3:0|0:0,0:0:0:0:
401,238,87023,1,8,0:0:0:0:
277,268,87173,1,0,0:0:0:0:
378,345,87323,1,0,3:0:0:0:
426,227,87473,2,0,P|432:184|413:120,1,85,0|8,0:0|0:0,0:0:0:0:
294,33,87773,6,0,L|197:39,1,85,0|0,0:0|3:0,0:0:0:0:
77,146,88073,2,0,L|174:152,1,85,0|8,0:0|0:0,0:0:0:0:
276,277,88373,2,0,P|198:324|102:308,1,170,0|0,0:0|0:0,0:0:0:0:
50,152,88823,2,0,L|55:62,1,85,8|0,3:2|0:0,0:0:0:0:
313,85,89123,6,0,P|257:104|188:87,1,127.5,4|0,0:0|0:0,0:0:0:0:
166,66,89423,2,0,L|161:150,1,85,8|0,0:0|0:0,0:0:0:0:
145,303,89723,1,0,3:0:0:0:
252,194,89873,1,0,3:0:0:0:
74,214,90023,1,8,0:0:0:0:
269,218,90173,6,0,L|368:223,1,85,0|0,0:0|3:0,0:0:0:0:
499,103,90473,2,0,L|445:186,1,85,0|8,0:0|0:0,0:0:0:0:
486,358,90773,2,0,L|440:269,1,85,0|0,0:0|3:0,0:0:0:0:
359,125,91073,1,0,0:0:0:0:
312,314,91223,2,0,L|227:309,1,85,8|8,0:0|3:0,0:0:0:0:
35,218,91523,5,4,0:0:0:0:
189,172,91673,1,0,0:0:0:0:
86,328,91823,1,8,3:0:0:0:
92,141,91973,2,0,L|100:38,1,85,0|0,0:0|3:0,0:0:0:0:
304,4,92273,2,0,L|312:107,1,85,0|8,0:0|0:0,0:0:0:0:
338,307,92573,5,0,3:0:0:0:
338,307,92648,1,0,3:0:0:0:
338,307,92723,1,8,3:2:0:0:
475,168,92873,2,0,P|486:127|483:76,1,85,0|0,3:0|3:0,0:0:0:0:
304,4,93173,1,8,3:0:0:0:
354,192,93323,1,0,1:0:0:0:
417,7,93473,1,0,3:0:0:0:
291,109,93623,1,0,3:0:0:0:
421,11,93773,1,0,3:0:0:0:
295,113,93923,6,0,L|213:109,1,68,4|0,0:0|0:0,0:0:0:0:
132,150,94223,2,0,P|121:206|130:255,1,102,8|0,0:0|3:0,0:0:0:0:
143,280,94523,1,0,3:0:0:0:
228,336,94673,2,0,L|304:331,1,68,0|8,0:0|0:0,0:0:0:0:
379,224,94973,6,0,L|303:219,1,68,0|0,1:0|0:0,0:0:0:0:
228,111,95273,2,0,L|304:106,1,68,0|8,1:0|0:0,0:0:0:0:
129,71,95573,1,0,3:0:0:0:
129,71,95648,1,0,3:0:0:0:
129,71,95723,2,0,P|121:106|127:147,1,68,0|0,3:0|3:0,0:0:0:0:
23,230,96023,2,0,P|26:196|18:163,1,68,8|0,0:0|0:0,0:0:0:0:
129,283,96323,6,0,P|121:318|127:359,1,68,4|0,0:0|0:0,0:0:0:0:
222,378,96623,2,0,P|276:358|333:357,1,102,8|0,0:0|3:0,0:0:0:0:
353,363,96923,1,0,3:0:0:0:
431,298,97073,2,0,L|424:222,1,68,0|8,3:0|0:0,0:0:0:0:
309,156,97373,6,0,L|302:232,1,68,0|0,1:0|0:0,0:0:0:0:
187,298,97673,2,0,L|180:222,1,68,0|8,1:0|0:0,0:0:0:0:
170,128,97973,1,0,3:0:0:0:
226,43,98123,2,0,P|264:37|298:41,1,68,0|0,3:0|0:0,0:0:0:0:
146,138,98423,2,0,P|108:144|74:140,1,68,8|0,0:0|3:0,0:0:0:0:
47,290,98723,6,0,L|129:295,1,76.4999976654053,8|0,0:0|3:0,0:0:0:0:
222,142,99023,2,0,L|140:137,1,76.4999976654053,8|0,1:2|3:0,0:0:0:0:
123,294,99323,2,0,L|205:299,1,76.4999976654053,8|0,1:2|3:0,0:0:0:0:
298,147,99623,2,0,L|216:142,1,76.4999976654053,8|0,1:2|3:0,0:0:0:0:
409,105,99923,6,0,P|417:142|406:197,1,76.4999976654053,8|0,1:2|3:0,0:0:0:0:
225,217,100223,2,0,P|217:180|228:125,1,76.4999976654053,8|0,1:2|3:0,0:0:0:0:
357,7,100523,1,8,1:2:0:0:
317,174,100673,1,0,3:0:0:0:
220,8,100823,1,8,0:0:0:0:
109,163,100973,1,0,3:0:0:0:
109,163,101048,1,0,3:0:0:0:
109,163,101123,6,0,P|113:249|118:335,1,170,8|0,1:2|3:0,0:0:0:0:
265,167,101573,2,0,P|200:137|94:177,1,170,8|0,1:2|3:0,0:0:0:0:
291,286,102023,1,8,1:2:0:0:
383,123,102173,1,0,3:0:0:0:
482,281,102323,5,0,3:0:0:0:
482,281,102398,1,0,3:0:0:0:
482,281,102473,1,0,3:0:0:0:
482,281,102548,1,0,3:0:0:0:
482,281,102623,2,0,L|478:335,1,42.5,8|0,3:0|3:0,0:0:0:0:
380,374,102773,1,0,3:0:0:0:
380,374,102848,1,0,3:0:0:0:
380,374,102923,5,8,3:2:0:0:
337,191,103073,1,0,3:0:0:0:
241,379,103223,1,8,3:2:0:0:
198,196,103373,1,0,3:0:0:0:
388,278,103523,6,0,L|491:281,1,93.5000028533936,4|0,3:2|0:0,0:0:0:0:
274,265,103823,2,0,L|219:352,1,93.5000028533936,8|0,0:0|0:0,0:0:0:0:
344,175,104123,2,0,L|295:84,1,93.5000028533936,0|0,3:0|3:0,0:0:0:0:
144,28,104423,1,8,0:0:0:0:
92,188,104573,6,0,P|144:197|185:189,1,93.5000028533936,2|0,1:1|0:0,0:0:0:0:
18,82,104873,1,0,3:1:0:0:
76,288,105023,1,8,0:0:0:0:
210,172,105173,1,0,0:0:0:0:
46,280,105323,2,0,L|57:386,1,93.5000028533936,0|0,1:0|3:0,0:0:0:0:
183,189,105623,2,0,L|194:83,1,93.5000028533936,8|0,0:0|0:0,0:0:0:0:
352,195,105923,5,4,3:2:0:0:
247,288,106073,2,0,P|193:306|139:298,1,93.5000028533936,0|8,0:0|0:0,0:0:0:0:
183,189,106373,1,0,0:0:0:0:
346,227,106523,2,0,L|354:345,1,93.5000028533936,0|0,3:0|3:0,0:0:0:0:
478,155,106823,1,8,0:0:0:0:
314,29,106973,6,0,B|262:18|212:38|240:60|185:80|125:60,1,187.000005706787,4|0,0:0|3:0,0:0:0:0:
27,214,107423,1,8,3:0:0:0:
15,244,107498,1,8,3:0:0:0:
10,276,107573,1,8,3:0:0:0:
11,309,107648,1,8,3:0:0:0:
19,341,107723,2,0,L|125:330,1,93.5000028533936,0|0,3:0|3:0,0:0:0:0:
281,212,108023,1,0,3:0:0:0:
281,212,108098,1,0,3:0:0:0:
281,212,108173,2,0,L|228:206,1,46.7500014266968,0|0,3:0|3:0,0:0:0:0:
128,189,108323,6,0,P|112:150|117:85,1,93.5000028533936,4|0,3:2|0:0,0:0:0:0:
305,149,108623,2,0,P|279:182|220:210,1,93.5000028533936,8|0,0:0|0:0,0:0:0:0:
180,17,108923,2,0,P|221:22|275:59,1,93.5000028533936,0|0,3:0|3:0,0:0:0:0:
400,203,109223,1,8,0:0:0:0:
216,296,109373,6,0,L|123:291,1,93.5000028533936,2|0,1:1|0:0,0:0:0:0:
275,186,109673,1,0,3:1:0:0:
348,378,109823,1,8,0:0:0:0:
217,327,109973,1,0,0:0:0:0:
398,230,110123,2,0,P|394:183|390:129,1,93.5000028533936,0|0,1:0|3:0,0:0:0:0:
206,8,110423,2,0,P|202:54|198:109,1,93.5000028533936,12|0,0:0|0:0,0:0:0:0:
108,318,110723,5,4,3:2:0:0:
37,175,110873,2,0,P|29:125|40:76,1,93.5000028533936,0|8,3:0|3:0,0:0:0:0:
177,6,111173,1,0,3:0:0:0:
251,177,111323,2,0,P|211:208|163:223,1,93.5000028533936,8|0,1:2|3:0,0:0:0:0:
147,17,111623,1,8,1:2:0:0:
352,107,111773,6,0,P|359:202|367:304,1,187.000005706787,4|0,0:0|3:0,0:0:0:0:
180,356,112223,1,8,3:0:0:0:
149,366,112298,1,8,3:0:0:0:
116,370,112373,1,8,3:0:0:0:
84,366,112448,1,8,3:0:0:0:
53,355,112523,1,12,3:0:0:0:
115,209,112673,1,0,3:0:0:0:
273,304,112823,2,0,P|317:298|380:291,1,93.5000028533936,8|0,0:0|0:0,0:0:0:0:
476,106,113123,6,0,P|436:69|294:66,2,187.000005706787,4|8|0,0:0|0:0|3:0,0:0:0:0:
362,189,113873,1,0,3:0:0:0:
176,100,114023,2,0,P|173:46|172:-2,1,93.5000028533936,8|0,0:0|0:0,0:0:0:0:
259,234,114323,6,0,B|284:317|235:370|235:370|268:356|297:353,2,187.000005706787,0|8|0,3:0|0:0|3:0,0:0:0:0:
158,123,115073,1,0,3:0:0:0:
45,279,115223,2,0,P|91:287|138:283,1,93.5000028533936,8|0,0:0|3:0,0:0:0:0:
305,118,115523,6,0,L|294:13,1,93.5000028533936,0|0,3:0|0:0,0:0:0:0:
427,172,115823,2,0,L|512:210,1,93.5000028533936,8|0,0:0|0:0,0:0:0:0:
320,252,116123,2,0,L|244:306,1,93.5000028533936,0|0,3:0|3:0,0:0:0:0:
305,118,116423,1,8,0:0:0:0:
419,310,116573,6,0,P|336:336|242:304,1,187.000005706787,4|0,0:0|3:0,0:0:0:0:
96,161,117023,1,8,0:0:0:0:
111,328,117173,1,0,0:0:0:0:
217,152,117323,2,0,P|213:106|208:53,1,93.5000028533936,8|0,1:2|0:0,0:0:0:0:
426,118,117623,2,0,P|422:164|417:217,1,93.5000028533936,8|0,1:2|0:0,0:0:0:0:
215,287,117923,6,0,P|139:242|18:270,2,187.000005706787,4|8|0,0:0|0:0|3:0,0:0:0:0:
317,382,118673,1,0,3:0:0:0:
417,211,118823,2,0,L|516:216,1,93.5000028533936,8|0,0:0|0:0,0:0:0:0:
276,116,119123,6,0,B|143:140|143:140|99:97,2,187.000005706787,0|8|0,3:0|0:0|3:0,0:0:0:0:
422,86,119873,1,0,3:0:0:0:
242,6,120023,1,8,0:0:0:0:
324,214,120173,6,0,B|341:352|341:352|268:314,1,187.000005706787,4|0,0:0|3:0,0:0:0:0:
95,231,120623,1,8,1:2:0:0:
175,379,120773,1,0,3:0:0:0:
230,132,120923,2,0,L|240:22,1,93.5000028533936,8|0,1:2|3:0,0:0:0:0:
456,169,121223,1,8,3:2:0:0:
456,169,121298,1,0,3:0:0:0:
456,169,121373,2,0,L|461:224,1,46.7500014266968,0|0,3:0|3:0,0:0:0:0:
467,331,121523,5,4,1:2:0:0:
467,331,122123,2,0,P|433:258|489:319,1,220.999989883423,0|0,0:0|3:0,0:0:0:0:
459,290,122723,5,0,0:0:0:0:
279,130,127523,5,0,3:0:0:0:
194,168,127673,1,2,3:0:0:0:
317,215,127823,1,2,3:0:0:0:
232,253,127973,1,0,3:0:0:0:
284,117,128123,5,0,3:0:0:0:
181,163,128273,1,2,3:0:0:0:
330,220,128423,1,2,3:0:0:0:
227,266,128573,1,2,3:0:0:0:
289,105,128723,5,2,3:0:0:0:
169,158,128873,1,2,3:0:0:0:
342,225,129023,1,2,3:0:0:0:
222,278,129173,1,2,3:0:0:0:
293,93,129323,5,2,0:0:0:0:
157,154,129473,1,2,3:0:0:0:
354,229,129623,1,0,3:0:0:0:
218,290,129773,1,2,3:0:0:0:
298,80,129923,5,0,3:0:0:0:
318,88,129998,1,0,3:0:0:0:
339,92,130073,1,0,3:0:0:0:
360,94,130148,1,0,3:0:0:0:
381,92,130223,1,0,3:0:0:0:
402,87,130298,1,0,3:0:0:0:
421,79,130373,1,0,3:0:0:0:
440,69,130448,1,0,3:0:0:0:
455,53,130523,5,0,3:0:0:0:
471,78,130598,1,0,3:0:0:0:
484,108,130673,1,0,3:0:0:0:
491,136,130748,1,0,3:0:0:0:
493,168,130823,1,0,3:0:0:0:
490,199,130898,1,0,3:0:0:0:
480,230,130973,1,0,3:0:0:0:
467,259,131048,1,0,3:0:0:0:
447,282,131123,1,8,3:0:0:0:
447,282,131723,6,0,B|420:274|398:277|398:277|369:290|369:290|348:282|305:279,1,127.500004863739,2|2,0:0|0:0,0:0:0:0:
183,122,132023,2,0,B|210:114|232:117|232:117|261:130|261:130|282:122|325:119,1,127.500004863739,2|2,0:0|0:0,0:0:0:0:
119,239,132323,5,4,0:0:0:0:
111,247,132473,1,0,3:0:0:0:
324,280,132623,2,0,B|376:267|376:267|444:296|444:296|469:283|507:281|507:281|462:271|439:238,1,255.000009727478,2|2,3:0|0:0,0:0:0:0:
315,83,133073,2,0,B|270:92|237:75|237:75|200:90|200:90|148:58|148:58|159:109|177:129,1,255.000009727478,2|0,0:0|3:0,0:0:0:0:
238,190,133448,1,0,3:0:0:0:
238,190,133523,6,0,L|227:322,1,127.500004863739,8|2,1:3|0:0,0:0:0:0:
64,155,133823,1,2,0:0:0:0:
64,155,133898,1,2,0:0:0:0:
64,155,133973,1,2,0:0:0:0:
315,83,134123,2,0,B|348:80|348:80|368:101|368:101|390:90|390:90|414:104|435:95|435:95|454:106|454:106|471:93|471:93|508:82,1,191.250007295609,2|2,0:0|0:0,0:0:0:0:
484,89,134423,1,2,0:0:0:0:
328,239,134573,1,2,0:0:0:0:
224,34,134723,5,4,0:0:0:0:
216,23,134873,1,0,3:0:0:0:
68,123,135023,2,0,B|46:171|46:171|74:230|74:230|48:306|48:306|98:273,1,255.000009727478,2|2,3:0|0:0,0:0:0:0:
294,188,135473,2,0,P|349:179|281:254,1,255.000009727478,2|2,0:0|0:0,0:0:0:0:
244,62,135923,6,0,P|303:39|382:39,1,127.500004863739,8|0,1:3|0:0,0:0:0:0:
190,217,136223,1,0,0:0:0:0:
62,29,136373,1,0,0:0:0:0:
62,29,136448,1,0,0:0:0:0:
62,28,136523,6,0,P|21:106|20:201,1,178.499994552612,8|0,1:3|0:0,0:0:0:0:
18,195,137123,5,4,0:0:0:0:
106,303,137273,2,0,L|97:357,2,42.5000016212464,0|0|0,3:0|0:0|0:0,0:0:0:0:
118,275,137423,2,0,B|179:259|226:318|226:318|279:281|279:281|373:296,1,255.000009727478,2|2,3:0|0:0,0:0:0:0:
488,127,137873,2,0,B|462:106|424:101|424:101|366:138|366:138|318:114|318:114|284:113|251:127,1,255.000009727478,0|0,0:0|3:0,0:0:0:0:
183,159,138248,1,0,3:0:0:0:
183,159,138323,6,0,B|164:107|164:107|182:7,1,127.500004863739,8|2,1:3|0:0,0:0:0:0:
384,133,138623,1,2,0:0:0:0:
384,133,138698,1,2,0:0:0:0:
384,133,138773,1,2,0:0:0:0:
258,277,138923,2,0,B|217:273|217:273|208:287|208:287|192:293|192:293|165:278|165:278|135:285|135:285|114:279|114:279|97:270|61:280,1,191.250007295609,2|2,0:0|0:0,0:0:0:0:
81,275,139223,1,2,0:0:0:0:
254,381,139373,1,2,0:0:0:0:
154,146,139523,5,4,0:0:0:0:
149,133,139673,1,0,3:0:0:0:
341,199,139823,2,0,P|411:150|300:128,1,255.000009727478,2|0,3:0|0:0,0:0:0:0:
480,222,140273,2,0,P|501:165|490:87,1,127.500004863739,2|0,0:0|0:0,0:0:0:0:
315,3,140573,1,2,0:0:0:0:
214,216,140723,6,0,L|355:197,1,127.500004863739,8|0,3:0|0:0,0:0:0:0:
124,121,141023,1,0,3:0:0:0:
208,334,141173,1,0,3:0:0:0:
271,86,141323,1,0,3:0:0:0:
86,262,141473,1,0,3:0:0:0:
86,262,141548,1,0,3:0:0:0:
86,262,141623,1,8,3:2:0:0:
338,298,141773,1,8,3:2:0:0:
338,298,142523,6,0,P|356:226|217:309,1,386.749982295991,0|0,0:0|0:0,0:0:0:0:
222,330,143123,6,0,L|112:339,1,76.4999976654053,4|0,0:0|0:0,0:0:0:0:
31,347,143423,2,0,P|16:291|29:227,1,114.749996498108,0|0,3:0|0:0,0:0:0:0:
43,201,143723,1,0,3:0:0:0:
123,119,143873,2,0,L|117:26,1,76.4999976654053,0|0,0:0|3:0,0:0:0:0:
267,9,144173,6,0,L|261:102,1,76.4999976654053,0|0,1:2|0:0,0:0:0:0:
243,238,144473,1,0,1:0:0:0:
353,206,144623,2,0,L|437:212,1,76.4999976654053,0|0,3:0|0:0,0:0:0:0:
478,315,144923,2,0,L|394:321,1,76.4999976654053,0|0,3:0|0:0,0:0:0:0:
287,327,145223,1,0,3:0:0:0:
353,206,145373,1,0,1:0:0:0:
291,331,145523,6,0,P|252:338|209:333,1,76.4999976654053,4|0,0:0|0:0,0:0:0:0:
116,274,145823,2,0,P|128:224|115:159,1,114.749996498108,0|0,3:0|0:0,0:0:0:0:
91,132,146123,1,0,3:0:0:0:
173,52,146273,2,0,L|257:56,1,76.4999976654053,0|0,0:0|3:0,0:0:0:0:
354,166,146573,5,8,3:0:0:0:
354,166,146648,1,0,3:0:0:0:
354,166,146723,2,0,L|270:170,1,76.4999976654053,0|8,3:0|3:0,0:0:0:0:
400,260,147023,1,0,3:0:0:0:
427,86,147173,1,0,1:0:0:0:
507,188,147323,1,0,3:0:0:0:
416,280,147473,1,0,3:0:0:0:
354,166,147623,2,0,L|277:169,1,76.4999976654053,0|0,3:0|0:0,0:0:0:0:
107,174,147923,5,12,3:0:0:0:
96,192,147998,1,0,3:0:0:0:
88,211,148073,1,0,3:0:0:0:
83,232,148148,1,0,3:0:0:0:
81,253,148223,1,8,3:0:0:0:
82,274,148298,1,0,3:0:0:0:
86,295,148373,1,0,3:0:0:0:
93,315,148448,1,0,3:0:0:0:
103,334,148523,6,0,L|161:329,3,42.5,8|0|0|0,3:0|3:0|3:0|3:0,0:0:0:0:
209,285,148823,2,0,L|266:290,3,42.5,8|0|0|0,3:0|3:0|3:0|3:0,0:0:0:0:
328,288,149123,5,12,3:0:0:0:
335,268,149198,1,0,3:0:0:0:
339,248,149273,1,0,3:0:0:0:
340,226,149348,1,0,3:0:0:0:
338,205,149423,1,8,3:0:0:0:
333,185,149498,1,0,3:0:0:0:
325,165,149573,1,0,3:0:0:0:
314,147,149648,1,0,3:0:0:0:
301,130,149723,6,0,L|243:135,3,42.5,8|0|0|0,3:0|3:0|3:0|3:0,0:0:0:0:
192,173,150023,2,0,L|134:167,3,42.5,8|0|0|0,3:0|3:0|3:0|3:0,0:0:0:0:
77,140,150323,6,0,B|57:17|57:17|108:43,1,170,12|0,3:0|3:0,0:0:0:0:
265,215,150773,2,0,B|285:338|285:338|234:312,1,170,2|0,3:0|0:0,0:0:0:0:
192,173,151223,2,0,P|254:131|343:186,1,170,2|0,3:0|3:0,0:0:0:0:
441,349,151823,5,0,3:0:0:0:
441,349,152123,1,0,3:0:0:0:
441,349,152423,2,0,L|445:261,1,85,0|0,3:0|0:0,0:0:0:0:
452,111,152723,6,0,B|377:86|362:141|285:117,1,170,2|0,3:0|0:0,0:0:0:0:
159,237,153173,2,0,B|234:212|249:267|325:243,1,170,2|0,3:0|0:0,0:0:0:0:
108,72,153623,2,0,P|95:112|101:163,1,85,2|0,3:0|0:0,0:0:0:0:
98,154,155123,6,0,L|188:145,3,85,4|0|0|0,0:0|3:0|3:0|3:0,0:0:0:0:
273,81,156323,2,0,L|363:90,3,85,0|0|0|0,3:0|3:0|3:0|3:0,0:0:0:0:
465,113,157523,6,0,P|477:167|468:208,3,85,0|0|0|0,3:0|3:0|3:0|3:0,0:0:0:0:
376,251,158723,2,0,P|364:305|373:346,3,85,0|0|0|0,3:0|3:0|3:0|3:0,0:0:0:0:
262,363,159923,6,0,P|209:350|163:345,1,85,0|0,3:0|3:0,0:0:0:0:
115,255,160523,2,0,P|168:242|214:237,1,85,0|0,3:0|3:0,0:0:0:0:
262,147,161123,2,0,P|209:134|163:129,1,85,0|0,3:0|3:0,0:0:0:0:
115,39,161723,2,0,P|168:26|214:21,1,85,0|0,3:0|3:0,0:0:0:0:
298,68,162323,6,0,L|290:158,2,85,0|0|0,3:0|3:0|3:0,0:0:0:0:
393,11,163223,1,0,3:0:0:0:
487,68,163523,2,0,L|495:158,2,85,0|0|0,3:0|3:0|3:0,0:0:0:0:
393,11,164423,1,0,3:0:0:0:
298,68,164723,6,0,P|240:49|177:60,2,118.999996368408,4|0|0,3:2|3:0|3:0,0:0:0:0:
329,157,165473,1,0,0:0:0:0:
329,157,165623,2,0,L|259:161,1,59.4999981842042,0|0,3:0|3:0,0:0:0:0:
181,172,165923,6,0,P|190:229|200:294,2,118.999996368408,0|0|0,3:0|3:0|3:0,0:0:0:0:
92,164,166673,1,0,3:0:0:0:
92,164,166823,2,0,P|87:192|82:225,1,59.4999981842042,0|0,3:0|3:0,0:0:0:0:
61,309,167123,6,0,P|90:321|129:324,1,59.4999981842042,0|0,3:0|0:0,0:0:0:0:
199,289,167423,2,0,P|228:277|267:274,1,59.4999981842042,0|0,3:0|0:0,0:0:0:0:
341,300,167723,2,0,P|346:245|354:162,1,118.999996368408,0|0,3:0|3:0,0:0:0:0:
437,156,168173,6,0,P|439:183|443:224,1,59.4999981842042,0|0,3:0|3:0,0:0:0:0:
503,288,168473,1,0,0:0:0:0:
503,288,168623,2,0,P|500:315|496:357,1,59.4999981842042,0|0,3:0|0:0,0:0:0:0:
409,366,168923,2,0,P|385:353|341:343,1,59.4999981842042,0|0,3:0|3:0,0:0:0:0:
281,291,169223,2,0,P|253:291|210:305,1,59.4999981842042,0|0,3:0|3:0,0:0:0:0:
130,343,169523,5,0,3:0:0:0:
87,250,169673,1,0,3:0:0:0:
180,208,169823,1,0,3:0:0:0:
223,300,169973,1,0,3:0:0:0:
87,250,170123,6,0,L|81:175,1,68,0|0,3:0|3:0,0:0:0:0:
223,300,170423,2,0,L|217:375,1,68,0|0,3:0|3:0,0:0:0:0:
364,257,170723,5,0,3:0:0:0:
260,191,170873,1,0,3:0:0:0:
328,89,171023,1,0,3:0:0:0:
431,154,171173,1,0,3:0:0:0:
260,191,171323,6,0,P|221:179|188:179,1,68,0|0,3:0|3:0,0:0:0:0:
132,72,171623,2,0,P|171:60|204:60,1,68,0|0,3:0|3:0,0:0:0:0:
350,79,171923,6,0,L|354:123,3,38.2499988327027,0|0|0|0,3:0|3:0|3:0|3:0,0:0:0:0:
382,142,172223,2,0,L|378:186,3,38.2499988327027,0|0|0|0,3:0|3:0|3:0|3:0,0:0:0:0:
350,207,172523,2,0,L|354:251,3,38.2499988327027,0|0|0|0,3:0|3:0|3:0|3:0,0:0:0:0:
382,270,172823,2,0,L|378:314,3,38.2499988327027,0|0|0|0,3:0|3:0|3:0|3:0,0:0:0:0:
349,339,173123,5,0,3:0:0:0:
330,350,173198,1,0,3:0:0:0:
311,358,173273,1,0,3:0:0:0:
290,363,173348,1,0,3:0:0:0:
269,364,173423,1,0,3:0:0:0:
248,362,173498,1,0,3:0:0:0:
227,356,173573,1,0,3:0:0:0:
208,347,173648,1,0,3:0:0:0:
192,334,173723,6,0,L|186:257,1,63.75,2|0,0:0|0:0,0:0:0:0:
159,258,174023,6,0,B|160:229|160:229|155:208|155:208|159:159,1,85,8|0,3:0|3:0,0:0:0:0:
307,33,174323,6,0,P|358:26|425:38,1,101.999996887207,4|0,0:0|0:0,0:0:0:0:
293,237,174623,2,0,P|261:196|238:132,1,101.999996887207,8|0,0:0|0:0,0:0:0:0:
476,146,174923,2,0,P|456:193|412:245,1,101.999996887207,0|0,3:0|3:0,0:0:0:0:
269,364,175223,1,8,0:0:0:0:
141,162,175373,6,0,L|255:148,1,101.999996887207,2|0,1:1|0:0,0:0:0:0:
50,81,175673,1,0,3:1:0:0:
159,288,175823,1,8,0:0:0:0:
264,125,175973,1,0,0:0:0:0:
81,237,176123,2,0,P|67:295|87:348,1,101.999996887207,0|0,1:0|3:0,0:0:0:0:
264,125,176423,2,0,P|275:75|261:27,1,101.999996887207,8|0,0:0|0:0,0:0:0:0:
64,217,176723,5,4,3:2:0:0:
249,272,176873,2,0,L|368:261,1,101.999996887207,0|8,0:0|0:0,0:0:0:0:
177,176,177173,1,0,0:0:0:0:
280,375,177323,1,0,3:0:0:0:
369,238,177473,1,0,3:0:0:0:
150,289,177623,1,8,0:0:0:0:
409,344,177773,6,0,P|471:279|439:150,1,203.999993774414,4|0,0:0|3:0,0:0:0:0:
298,45,178223,1,8,3:0:0:0:
263,50,178298,1,8,3:0:0:0:
227,54,178373,1,8,3:0:0:0:
192,58,178448,1,8,3:0:0:0:
157,63,178523,2,0,L|44:51,1,101.999996887207,0|0,3:0|3:0,0:0:0:0:
216,179,178823,1,8,3:0:0:0:
251,174,178898,1,0,3:0:0:0:
287,170,178973,1,0,3:0:0:0:
322,166,179048,1,0,3:0:0:0:
357,161,179123,6,0,L|470:173,1,101.999996887207,4|0,0:0|0:0,0:0:0:0:
308,352,179423,2,0,L|261:248,1,101.999996887207,8|0,0:0|0:0,0:0:0:0:
497,299,179723,2,0,L|430:390,1,101.999996887207,0|0,3:0|3:0,0:0:0:0:
255,232,180023,1,8,0:0:0:0:
429,76,180173,6,0,P|454:125|455:193,1,101.999996887207,2|0,1:1|0:0,0:0:0:0:
334,347,180473,1,0,3:1:0:0:
261,113,180623,1,8,0:0:0:0:
396,257,180773,1,0,0:0:0:0:
163,223,180923,2,0,L|47:234,1,101.999996887207,0|0,1:0|3:0,0:0:0:0:
182,8,181223,2,0,L|298:19,1,101.999996887207,12|0,0:0|0:0,0:0:0:0:
179,250,181523,5,4,3:2:0:0:
22,104,181673,2,0,P|12:55|22:3,1,101.999996887207,0|8,3:0|3:0,0:0:0:0:
222,129,181973,1,0,3:0:0:0:
101,330,182123,2,0,L|-13:323,1,101.999996887207,8|0,1:2|3:0,0:0:0:0:
123,120,182423,1,8,1:2:0:0:
276,323,182573,6,0,P|374:308|488:294,1,203.999993774414,4|0,0:0|3:0,0:0:0:0:
305,107,183023,1,8,3:0:0:0:
305,107,183098,1,8,3:0:0:0:
305,107,183173,2,0,P|271:105|241:103,1,50.9999984436036,8|8,3:0|3:0,0:0:0:0:
99,92,183323,1,12,3:0:0:0:
192,225,183473,1,0,3:0:0:0:
243,6,183623,2,0,P|293:9|344:12,1,101.999996887207,8|0,0:0|0:0,0:0:0:0:
510,208,183923,6,0,P|494:282|357:338,2,203.999993774414,4|8|0,0:0|0:0|3:0,0:0:0:0:
494,55,184673,1,0,3:0:0:0:
386,216,184823,2,0,L|284:219,1,101.999996887207,8|0,0:0|0:0,0:0:0:0:
49,225,185123,6,0,B|0:150|53:63|53:63|84:101,2,203.999993774414,0|8|0,3:0|0:0|3:0,0:0:0:0:
160,344,185873,1,0,3:0:0:0:
244,147,186023,2,0,L|254:22,1,101.999996887207,8|0,0:0|0:0,0:0:0:0:
395,259,186323,6,0,P|414:305|409:370,1,101.999996887207,0|0,3:0|0:0,0:0:0:0:
344,141,186623,2,0,P|374:101|433:73,1,101.999996887207,8|0,0:0|0:0,0:0:0:0:
267,244,186923,2,0,P|217:237|163:200,1,101.999996887207,0|0,3:0|3:0,0:0:0:0:
57,16,187223,1,8,0:0:0:0:
4,244,187373,6,0,B|15:317|26:380|26:380|75:318,1,203.999993774414,4|0,0:0|3:0,0:0:0:0:
244,147,187823,1,8,0:0:0:0:
43,111,187973,1,0,3:0:0:0:
205,307,188123,2,0,L|313:296,1,101.999996887207,8|0,1:2|0:0,0:0:0:0:
497,127,188423,2,0,L|389:116,1,101.999996887207,8|0,1:2|0:0,0:0:0:0:
187,31,188723,6,0,P|106:24|6:113,2,203.999993774414,4|8|0,0:0|0:0|3:0,0:0:0:0:
298,137,189473,1,0,3:0:0:0:
146,263,189623,2,0,L|134:162,1,101.999996887207,8|0,0:0|0:0,0:0:0:0:
66,377,189923,6,0,P|169:365|281:349,2,203.999993774414,0|8|0,3:0|0:0|3:0,0:0:0:0:
167,211,190673,1,0,3:0:0:0:
299,366,190823,1,8,0:0:0:0:
437,189,190973,6,0,B|446:41|446:41|381:78,1,203.999993774414,4|0,0:0|3:0,0:0:0:0:
182,189,191423,1,8,0:0:0:0:
329,259,191573,1,0,3:0:0:0:
234,89,191723,2,0,P|171:78|115:100,1,101.999996887207,8|0,3:0|3:0,0:0:0:0:
213,309,192023,1,8,0:0:0:0:
363,142,192173,6,0,B|378:91|378:91|349:1|349:1|399:45,1,203.999993774414,0|0,0:0|0:0,0:0:0:0:
497,269,192623,1,8,0:0:0:0:
332,147,192773,1,0,0:0:0:0:
169,270,192923,2,0,P|161:319|172:371,1,101.999996887207,8|0,3:0|3:0,0:0:0:0:
332,147,193223,2,0,P|340:98|329:46,1,101.999996887207,8|0,0:0|0:0,0:0:0:0:
63,24,193523,6,0,P|32:90|42:179,1,152.999995330811,4|0,0:0|0:0,0:0:0:0:
92,254,193823,2,0,P|158:223|247:233,1,152.999995330811,8|0,0:0|0:0,0:0:0:0:
328,272,194123,2,0,L|340:118,1,152.999995330811,0|0,3:0|0:0,0:0:0:0:
438,89,194423,2,0,L|450:243,1,152.999995330811,8|0,0:0|0:0,0:0:0:0:
397,347,194723,6,0,P|343:317|249:337,1,152.999995330811,0|0,3:0|0:0,0:0:0:0:
146,372,195023,2,0,B|114:324|114:324|133:203,1,152.999995330811,8|0,0:0|0:0,0:0:0:0:
150,114,195323,2,0,P|204:84|298:104,1,152.999995330811,0|0,3:0|0:0,0:0:0:0:
395,155,195623,1,8,0:0:0:0:
227,194,195773,1,8,3:0:0:0:
369,20,195923,6,0,L|495:15,1,101.999996887207,0|0,3:0|0:0,0:0:0:0:
219,81,196223,2,0,L|93:76,1,101.999996887207,8|0,0:0|0:0,0:0:0:0:
369,167,196523,2,0,L|495:162,1,101.999996887207,0|0,3:0|3:0,0:0:0:0:
229,53,196823,1,8,0:0:0:0:
290,321,196973,6,0,B|431:344|431:344|508:296,1,203.999993774414,4|0,0:0|3:0,0:0:0:0:
212,170,197423,1,8,0:0:0:0:
137,359,197573,1,0,3:0:0:0:
19,144,197723,2,0,P|11:97|27:37,1,101.999996887207,8|0,1:2|0:0,0:0:0:0:
212,170,198023,2,0,P|220:217|204:277,1,101.999996887207,8|0,1:2|0:0,0:0:0:0:
146,32,198323,6,0,L|276:23,1,101.999996887207,8|0,1:2|0:0,0:0:0:0:
98,217,198623,1,8,1:2:0:0:
23,44,198773,1,0,0:0:0:0:
212,170,198923,2,0,L|342:161,1,101.999996887207,8|0,1:2|3:0,0:0:0:0:
177,378,199223,1,8,1:2:0:0:
98,217,199373,1,0,3:0:0:0:
350,350,199523,6,0,P|359:298|345:237,1,101.999996887207,8|0,0:0|0:0,0:0:0:0:
233,23,199823,1,8,1:2:0:0:
195,202,199973,1,0,0:0:0:0:
403,56,200123,2,0,P|455:45|504:56,1,101.999996887207,0|0,1:2|3:0,0:0:0:0:
324,237,200423,1,0,1:2:0:0:
324,237,200498,1,0,1:0:0:0:
324,237,200573,5,4,1:2:0:0:
