osu file format v14

[General]
AudioFilename: audio.mp3
AudioLeadIn: 0
PreviewTime: 102923
Countdown: 0
SampleSet: Normal
StackLeniency: 0.7
Mode: 1
LetterboxInBreaks: 0
WidescreenStoryboard: 0

[Editor]
Bookmarks: 323,7523,17123,26723,36323,38723,41123,45923,48323,50423,53123,55523,57923,62573,65123,74723,84323,96323,103523,105923,108323,110723,113123,115523,120173,122723,132323,143123,146423,152723,155123,164723,167123,176723,179123,181523,183923,186323,193523,200723
DistanceSpacing: 0.7
BeatDivisor: 4
GridSize: 8
TimelineZoom: 3.999998

[Metadata]
Title:HIBANA
TitleUnicode:ヒバナ
Artist:soraru x mafumafu
ArtistUnicode:そらる×まふまふ
Creator:Marfuri
Version:Heart Shot
Source:
Tags:Hitsu SPARKS 火花 HATSUNE MIKU 10th Anniversary Album Re:Start DECO*27 Vocaloid 初音ミク
BeatmapID:1971694
BeatmapSetID:944069

[Difficulty]
HPDrainRate:6
CircleSize:2
OverallDifficulty:6
ApproachRate:8
SliderMultiplier:1.4
SliderTickRate:1

[Events]
//Background and Video events
0,0,"7c5a0674522454e7f7ed68280582fa45e9c892f4.jpg",0,70
//Break Periods
//Storyboard Layer 0 (Background)
//Storyboard Layer 1 (Fail)
//Storyboard Layer 2 (Pass)
//Storyboard Layer 3 (Foreground)
//Storyboard Sound Samples

[TimingPoints]
323,300,4,1,1,60,1,0
17123,-125,4,1,1,50,0,0
21923,-117.647058823529,4,1,1,50,0,0
23123,-111.111111111111,4,1,1,50,0,0
25523,-108.695652173913,4,1,1,50,0,0
25673,-106.382978723404,4,1,1,50,0,0
25823,-104.166666666667,4,1,1,50,0,0
25973,-102.040816326531,4,1,1,50,0,0
26123,-100,4,1,1,50,0,0
26273,-98.0392156862745,4,1,1,50,0,0
26423,-90.9090909090909,4,1,1,60,0,0
36323,-100,4,1,1,60,0,0
41123,-95.2380952380952,4,1,1,60,0,0
45923,-86.9565217391304,4,1,1,75,0,1
63923,-86.9565217391304,4,1,1,60,0,0
65123,-100,4,1,1,60,0,0
74723,-125,4,1,1,50,0,0
79523,-121.951219512195,4,1,1,60,0,0
81923,-119.047619047619,4,1,1,60,0,0
82073,-116.279069767442,4,1,1,60,0,0
82223,-113.636363636364,4,1,1,60,0,0
82373,-111.111111111111,4,1,1,60,0,0
82523,-108.695652173913,4,1,1,60,0,0
82673,-106.382978723404,4,1,1,60,0,0
82823,-104.166666666667,4,1,1,60,0,0
82973,-102.040816326531,4,1,1,60,0,0
83123,-100,4,1,1,60,0,0
84623,-90.9090909090909,4,1,1,60,0,0
94223,-100,4,1,1,60,0,0
99023,-95.2380952380952,4,1,1,60,0,0
103523,-86.9565217391304,4,1,1,75,0,1
121523,-100,4,1,1,75,0,0
122723,-142.857142857143,4,1,1,40,0,0
127673,-138.888888888889,4,1,1,40,0,0
127748,-135.135135135135,4,1,1,40,0,0
127823,-131.578947368421,4,1,1,40,0,0
127973,-128.205128205128,4,1,1,40,0,0
128048,-125,4,1,1,40,0,0
128123,-121.951219512195,4,1,1,40,0,0
128273,-119.047619047619,4,1,1,40,0,0
128423,-116.279069767442,4,1,1,40,0,0
128573,-113.636363636364,4,1,1,40,0,0
128723,-111.111111111111,4,1,1,40,0,0
128873,-108.695652173913,4,1,1,40,0,0
129023,-106.382978723404,4,1,1,40,0,0
129098,-104.166666666667,4,1,1,40,0,0
129173,-102.040816326531,4,1,1,40,0,0
129323,-100,4,1,1,40,0,0
129398,-98.0392156862745,4,1,1,40,0,0
129473,-96.1538461538461,4,1,1,40,0,0
129548,-94.3396226415094,4,1,1,40,0,0
129623,-92.5925925925926,4,1,1,40,0,0
129773,-90.9090909090909,4,1,1,40,0,0
129923,-100,4,1,1,40,0,0
129998,-98.0392156862745,4,1,1,40,0,0
130073,-96.1538461538461,4,1,1,40,0,0
130148,-94.3396226415094,4,1,1,40,0,0
130223,-92.5925925925926,4,1,1,40,0,0
130298,-90.9090909090909,4,1,1,40,0,0
130373,-89.2857142857143,4,1,1,40,0,0
130448,-87.719298245614,4,1,1,40,0,0
130523,-86.2068965517241,4,1,1,40,0,0
130598,-84.7457627118644,4,1,1,40,0,0
130673,-83.3333333333333,4,1,1,40,0,0
130748,-81.9672131147541,4,1,1,40,0,0
130823,-80.6451612903226,4,1,1,40,0,0
130898,-79.3650793650794,4,1,1,40,0,0
130973,-78.125,4,1,1,40,0,0
131048,-74.0740740740741,4,1,1,40,0,0
132323,-100,4,1,1,60,0,1
132323,-100,4,1,1,60,0,1
132473,-90.9090909090909,4,1,1,60,0,1
132623,-83.3333333333333,4,1,1,60,0,1
132923,-90.9090909090909,4,1,1,60,0,1
133073,-100,4,1,1,60,0,1
133223,-97.0873786407767,4,1,1,60,0,1
133298,-94.3396226415094,4,1,1,60,0,1
133373,-91.743119266055,4,1,1,60,0,1
133523,-100,4,1,1,60,0,1
133673,-90.9090909090909,4,1,1,60,0,1
133823,-88.4955752212389,4,1,1,60,0,1
133898,-86.2068965517241,4,1,1,60,0,1
133973,-84.0336134453781,4,1,1,60,0,1
134123,-90.9090909090909,4,1,1,60,0,1
134198,-88.4955752212389,4,1,1,60,0,1
134273,-86.2068965517241,4,1,1,60,0,1
134323,-84.0336134453781,4,1,1,60,0,1
134373,-82.6446280991736,4,1,1,60,0,1
134423,-80.6451612903226,4,1,1,60,0,1
134723,-74.0740740740741,4,1,1,60,0,1
134873,-80,4,1,1,60,0,1
135023,-86.9565217391304,4,1,1,60,0,1
135323,-100,4,1,1,60,0,1
135773,-97.0873786407767,4,1,1,60,0,1
135823,-94.3396226415094,4,1,1,60,0,1
135873,-91.743119266055,4,1,1,60,0,1
135923,-89.2857142857143,4,1,1,60,0,1
136173,-86.9565217391304,4,1,1,60,0,1
136223,-84.7457627118644,4,1,1,60,0,1
136273,-82.6446280991736,4,1,1,60,0,1
136323,-80.6451612903226,4,1,1,60,0,1
136373,-78.7401574803149,4,1,1,60,0,1
137123,-74.0740740740741,4,1,1,60,0,1
137273,-75.7575757575758,4,1,1,60,0,1
137323,-77.5193798449612,4,1,1,60,0,1
137373,-79.3650793650794,4,1,1,60,0,1
137423,-81.3008130081301,4,1,1,60,0,1
137723,-86.9565217391304,4,1,1,60,0,1
137873,-90.9090909090909,4,1,1,60,0,1
138173,-98.0392156862745,4,1,1,60,0,1
138248,-96.1538461538461,4,1,1,60,0,1
138323,-94.3396226415094,4,1,1,60,0,1
138473,-100,4,1,1,60,0,1
138623,-97.0873786407767,4,1,1,60,0,1
138698,-94.3396226415094,4,1,1,60,0,1
138773,-91.743119266055,4,1,1,60,0,1
138923,-100,4,1,1,60,0,1
138998,-97.0873786407767,4,1,1,60,0,1
139073,-93.4579439252336,4,1,1,60,0,1
139123,-90.0900900900901,4,1,1,60,0,1
139173,-86.9565217391304,4,1,1,60,0,1
139223,-84.0336134453781,4,1,1,60,0,1
139373,-100,4,1,1,60,0,1
139523,-86.9565217391304,4,1,1,60,0,1
139673,-96.1538461538461,4,1,1,60,0,1
139823,-94.3396226415094,4,1,1,60,0,1
140123,-100,4,1,1,60,0,1
140273,-103.092783505155,4,1,1,60,0,1
140423,-106.382978723404,4,1,1,60,0,1
140573,-109.89010989011,4,1,1,60,0,1
140723,-100,4,1,1,60,0,1
141173,-97.0873786407767,4,1,1,60,0,1
141248,-94.3396226415094,4,1,1,60,0,1
141323,-91.743119266055,4,1,1,60,0,1
141373,-89.2857142857143,4,1,1,60,0,1
141423,-86.9565217391304,4,1,1,60,0,1
141473,-84.7457627118644,4,1,1,60,0,1
141523,-82.6446280991736,4,1,1,60,0,1
141573,-80.6451612903226,4,1,1,60,0,1
141623,-78.7401574803149,4,1,1,60,0,1
141698,-83.3333333333333,4,1,1,60,0,1
141773,-90.9090909090909,4,1,1,60,0,1
141923,-100,4,1,1,5,0,0
143123,-111.111111111111,4,1,1,60,0,0
147923,-100,4,1,1,60,0,0
154973,-125,4,1,1,60,0,0
164723,-100,4,1,1,60,0,0
174173,-83.3333333333333,4,1,1,60,0,0
174323,-83.3333333333333,4,1,1,75,0,1
200573,-100,4,1,1,50,0,0

[HitObjects]
255,193,323,5,4,0:0:0:0:
255,193,523,1,4,0:0:0:0:
255,193,723,1,4,0:0:0:0:
255,193,923,1,4,0:0:0:0:
255,193,1123,1,4,0:0:0:0:
263,188,1323,1,4,0:0:0:0:
263,188,1523,1,4,0:0:0:0:
263,188,1723,1,4,0:0:0:0:
263,188,1923,1,4,0:0:0:0:
266,189,2123,1,4,0:0:0:0:
247,190,2723,1,6,0:0:0:0:
272,218,3023,1,0,0:0:0:0:
272,218,3173,1,2,0:0:0:0:
272,218,3248,1,2,0:0:0:0:
272,218,3323,1,2,0:0:0:0:
288,214,3473,1,2,0:0:0:0:
288,214,3623,1,0,0:0:0:0:
268,215,3773,1,0,0:0:0:0:
268,215,3848,1,0,0:0:0:0:
288,214,3923,1,2,0:0:0:0:
289,214,4223,1,0,0:0:0:0:
289,214,4373,1,2,0:0:0:0:
290,215,4673,1,0,0:0:0:0:
290,215,4748,1,0,0:0:0:0:
290,215,4823,1,0,0:0:0:0:
290,215,5123,1,6,0:0:0:0:
291,212,5423,1,2,0:0:0:0:
291,212,5573,1,0,0:0:0:0:
291,212,5723,1,2,0:0:0:0:
291,212,5798,1,0,0:0:0:0:
298,210,5873,1,0,0:0:0:0:
303,210,5948,1,0,0:0:0:0:
303,210,6023,1,2,0:0:0:0:
298,210,6098,1,2,0:0:0:0:
303,210,6173,1,0,0:0:0:0:
303,210,6248,1,0,0:0:0:0:
298,210,6323,1,0,0:0:0:0:
298,205,6773,1,0,0:0:0:0:
298,205,7223,1,0,0:0:0:0:
384,228,7523,1,12,0:0:0:0:
195,142,7673,1,8,0:0:0:0:
386,236,7748,1,8,0:0:0:0:
386,236,7823,1,0,0:0:0:0:
226,196,8123,1,0,0:0:0:0:
272,207,8273,1,8,0:0:0:0:
272,207,8348,1,0,0:0:0:0:
272,207,8423,1,8,0:0:0:0:
310,240,8648,1,0,0:0:0:0:
310,240,8723,1,8,0:0:0:0:
170,209,8873,1,0,0:0:0:0:
424,253,9023,1,0,0:0:0:0:
207,222,9173,1,8,0:0:0:0:
455,285,9323,1,0,0:0:0:0:
321,83,9473,1,8,0:0:0:0:
321,83,9623,1,0,0:0:0:0:
260,216,9773,1,8,0:0:0:0:
348,183,9848,1,8,0:0:0:0:
369,256,9923,1,0,0:0:0:0:
292,135,10148,1,8,0:0:0:0:
292,135,10223,1,0,0:0:0:0:
124,173,10523,1,0,0:0:0:0:
293,204,10673,1,8,0:0:0:0:
293,204,10748,1,8,0:0:0:0:
298,169,10823,1,0,0:0:0:0:
338,219,10973,1,0,0:0:0:0:
351,219,11123,1,8,0:0:0:0:
351,219,11198,1,8,0:0:0:0:
351,219,11273,1,0,0:0:0:0:
351,219,11348,1,8,0:0:0:0:
351,219,11423,1,0,0:0:0:0:
351,219,11573,1,0,0:0:0:0:
351,219,11648,1,8,0:0:0:0:
351,219,11723,1,8,0:0:0:0:
408,221,11873,1,0,0:0:0:0:
270,194,12023,1,0,0:0:0:0:
270,194,12098,1,8,0:0:0:0:
270,194,12173,1,8,0:0:0:0:
270,194,12248,1,8,0:0:0:0:
270,194,12323,1,0,0:0:0:0:
229,249,12473,1,8,0:0:0:0:
229,249,12548,1,8,0:0:0:0:
208,245,12623,1,0,0:0:0:0:
428,261,12923,1,0,0:0:0:0:
437,251,13073,1,8,0:0:0:0:
428,261,13148,1,0,0:0:0:0:
437,251,13223,1,8,0:0:0:0:
233,139,13448,1,0,0:0:0:0:
270,143,13523,1,8,0:0:0:0:
270,143,13673,1,0,0:0:0:0:
180,153,13823,1,0,0:0:0:0:
180,153,13973,1,8,0:0:0:0:
180,153,14048,1,8,0:0:0:0:
180,153,14123,1,8,0:0:0:0:
338,197,14273,1,0,0:0:0:0:
338,197,14423,1,8,0:0:0:0:
338,197,14573,1,0,0:0:0:0:
338,197,14648,1,0,0:0:0:0:
338,197,14723,1,8,0:0:0:0:
338,197,14873,1,0,0:0:0:0:
338,197,15023,1,0,0:0:0:0:
338,197,15173,1,8,0:0:0:0:
338,197,15323,1,8,0:0:0:0:
338,197,15473,1,0,0:0:0:0:
338,197,15623,1,8,0:0:0:0:
201,179,15773,1,0,0:0:0:0:
291,172,15923,1,0,0:0:0:0:
338,197,16073,1,8,0:0:0:0:
338,197,16148,1,8,0:0:0:0:
338,197,16223,1,0,0:0:0:0:
338,197,16373,1,0,0:0:0:0:
338,197,16523,1,0,0:0:0:0:
267,200,16823,5,0,0:0:0:0:
267,200,17123,1,2,0:0:0:0:
263,200,17573,1,2,0:0:0:0:
263,200,17723,1,2,0:0:0:0:
263,200,17873,1,0,0:0:0:0:
240,208,18023,1,0,0:0:0:0:
240,208,18173,1,2,0:0:0:0:
241,204,18473,1,2,0:0:0:0:
241,204,18773,1,0,0:0:0:0:
246,231,19073,1,0,0:0:0:0:
246,231,19223,1,0,0:0:0:0:
247,231,19373,1,2,0:0:0:0:
247,231,19523,1,2,0:0:0:0:
252,226,19973,1,2,0:0:0:0:
252,226,20123,1,2,0:0:0:0:
252,226,20273,1,0,0:0:0:0:
252,226,20423,1,0,0:0:0:0:
278,229,20573,1,2,0:0:0:0:
278,229,20873,1,2,0:0:0:0:
278,232,21173,1,0,0:0:0:0:
279,232,21473,1,2,0:0:0:0:
279,232,21548,1,2,0:0:0:0:
279,232,21623,1,2,0:0:0:0:
280,230,21923,1,0,0:0:0:0:
280,230,22073,1,6,0:0:0:0:
272,217,22373,1,2,0:0:0:0:
272,217,22448,1,0,0:0:0:0:
272,217,22523,1,2,0:0:0:0:
272,217,22673,1,0,0:0:0:0:
272,217,22823,1,0,0:0:0:0:
272,217,22973,1,2,0:0:0:0:
272,217,23123,1,4,0:0:0:0:
272,217,23273,1,0,0:0:0:0:
276,217,23573,1,0,0:0:0:0:
276,217,23648,1,2,0:0:0:0:
276,217,23723,1,2,0:0:0:0:
276,217,23873,1,0,0:0:0:0:
276,217,24173,1,0,0:0:0:0:
276,217,24323,1,6,0:0:0:0:
276,217,24473,1,0,0:0:0:0:
276,217,24623,1,2,0:0:0:0:
276,217,24773,1,0,0:0:0:0:
276,217,24848,1,0,0:0:0:0:
276,217,24923,1,2,0:0:0:0:
276,217,25073,1,0,0:0:0:0:
276,217,25223,1,0,0:0:0:0:
276,217,25373,1,0,0:0:0:0:
279,221,25523,1,2,0:0:0:0:
260,235,25673,1,6,0:0:0:0:
260,235,25823,1,0,0:0:0:0:
260,235,25973,1,6,0:0:0:0:
257,232,26123,1,2,0:0:0:0:
257,232,26273,1,4,0:0:0:0:
257,232,26423,1,2,0:0:0:0:
332,192,26723,5,12,0:0:0:0:
339,192,27023,1,0,0:0:0:0:
332,192,27173,1,0,0:0:0:0:
332,192,27248,1,8,0:0:0:0:
332,192,27323,1,0,0:0:0:0:
398,284,27473,1,0,0:0:0:0:
398,284,27623,1,8,0:0:0:0:
398,284,27773,1,0,0:0:0:0:
398,284,27848,1,0,0:0:0:0:
398,284,27923,1,8,0:0:0:0:
398,284,28073,1,0,0:0:0:0:
398,284,28223,1,8,0:0:0:0:
125,177,28373,1,0,0:0:0:0:
398,284,28523,1,0,0:0:0:0:
462,269,28748,1,0,0:0:0:0:
312,210,28823,1,8,0:0:0:0:
312,210,28973,1,8,0:0:0:0:
329,210,29123,1,0,0:0:0:0:
451,302,29273,1,0,0:0:0:0:
451,302,29348,1,0,0:0:0:0:
451,302,29423,1,8,0:0:0:0:
329,210,29573,1,0,0:0:0:0:
329,210,29723,1,8,0:0:0:0:
329,210,29873,1,0,0:0:0:0:
418,287,30173,1,8,0:0:0:0:
418,287,30248,1,8,0:0:0:0:
418,287,30323,1,0,0:0:0:0:
150,183,30473,1,0,0:0:0:0:
257,161,30623,1,8,0:0:0:0:
257,161,30773,1,0,0:0:0:0:
257,161,30848,1,0,0:0:0:0:
257,161,30923,1,0,0:0:0:0:
241,212,31148,1,0,0:0:0:0:
331,222,31223,1,8,0:0:0:0:
331,222,31373,1,8,0:0:0:0:
331,222,31448,1,8,0:0:0:0:
331,222,31523,1,0,0:0:0:0:
415,232,31673,1,0,0:0:0:0:
426,214,31823,1,8,0:0:0:0:
426,214,31973,1,0,0:0:0:0:
426,214,32048,1,0,0:0:0:0:
426,214,32123,1,8,0:0:0:0:
381,248,32273,1,0,0:0:0:0:
381,248,32423,1,8,0:0:0:0:
381,248,32573,1,0,0:0:0:0:
381,248,32873,1,0,0:0:0:0:
381,248,33023,1,8,0:0:0:0:
404,284,33173,1,0,0:0:0:0:
404,284,33248,1,0,0:0:0:0:
404,284,33323,1,8,0:0:0:0:
166,196,33623,1,0,0:0:0:0:
247,184,33773,1,8,0:0:0:0:
290,185,33848,1,8,0:0:0:0:
290,185,33923,1,0,0:0:0:0:
355,189,34073,1,8,0:0:0:0:
355,189,34223,1,0,0:0:0:0:
379,196,34523,1,0,0:0:0:0:
379,196,34673,1,0,0:0:0:0:
379,196,34823,1,8,0:0:0:0:
379,196,34973,1,0,0:0:0:0:
379,196,35048,1,0,0:0:0:0:
379,196,35123,1,8,0:0:0:0:
379,196,35273,1,8,0:0:0:0:
379,196,35423,1,0,0:0:0:0:
379,196,35573,1,0,0:0:0:0:
379,196,35723,1,8,0:0:0:0:
219,213,35873,1,0,0:0:0:0:
379,196,36023,1,8,0:0:0:0:
252,186,36323,5,4,0:0:0:0:
266,206,36623,1,2,0:0:0:0:
266,206,36848,1,0,0:0:0:0:
266,204,36923,1,0,0:0:0:0:
266,206,37073,1,0,0:0:0:0:
266,206,37223,1,2,0:0:0:0:
266,206,37373,1,0,0:0:0:0:
266,206,37673,1,0,0:0:0:0:
266,206,37823,1,2,0:0:0:0:
266,206,37973,1,2,0:0:0:0:
266,206,38048,1,0,0:0:0:0:
266,206,38123,1,0,0:0:0:0:
266,206,38273,1,0,0:0:0:0:
267,204,38423,1,2,0:0:0:0:
251,160,38723,1,4,0:0:0:0:
418,261,38948,1,0,0:0:0:0:
418,261,39023,1,8,0:0:0:0:
294,170,39173,1,8,0:0:0:0:
326,229,39323,1,0,0:0:0:0:
143,207,39623,1,8,0:0:0:0:
224,213,39773,1,8,0:0:0:0:
442,250,40073,1,8,0:0:0:0:
397,236,40223,1,0,0:0:0:0:
351,194,40373,1,0,0:0:0:0:
296,253,40523,1,8,0:0:0:0:
314,271,40673,1,0,0:0:0:0:
314,271,40823,1,8,0:0:0:0:
300,200,41123,5,0,0:0:0:0:
300,200,41348,1,0,0:0:0:0:
300,200,41423,1,2,0:0:0:0:
290,225,41573,1,0,0:0:0:0:
290,225,41723,1,2,0:0:0:0:
290,225,41873,1,0,0:0:0:0:
290,225,41948,1,0,0:0:0:0:
290,225,42023,1,2,0:0:0:0:
290,225,42173,1,0,0:0:0:0:
290,225,42323,1,2,0:0:0:0:
290,225,42548,1,2,0:0:0:0:
294,220,42623,1,0,0:0:0:0:
290,225,42773,1,0,0:0:0:0:
293,193,42923,1,2,0:0:0:0:
293,193,43073,1,0,0:0:0:0:
293,193,43148,1,0,0:0:0:0:
294,193,43223,1,2,0:0:0:0:
287,188,43373,1,0,0:0:0:0:
287,188,43523,1,6,0:0:0:0:
285,186,43823,1,0,0:0:0:0:
285,186,43973,1,6,0:0:0:0:
285,186,44123,1,0,0:0:0:0:
285,186,44273,1,0,0:0:0:0:
285,186,44423,1,6,0:0:0:0:
286,187,45323,1,2,0:0:0:0:
286,187,45398,1,0,0:0:0:0:
286,187,45473,1,2,0:0:0:0:
286,187,45548,1,0,0:0:0:0:
286,187,45623,1,2,0:0:0:0:
286,187,45698,1,0,0:0:0:0:
286,187,45773,1,2,0:0:0:0:
286,187,45848,1,2,0:0:0:0:
286,187,45923,1,4,0:0:0:0:
363,191,46073,1,8,0:0:0:0:
172,223,46223,1,0,0:0:0:0:
432,251,46298,1,8,0:0:0:0:
158,168,46373,1,0,0:0:0:0:
301,203,46523,1,8,0:0:0:0:
245,202,46673,1,8,0:0:0:0:
245,202,46823,1,0,0:0:0:0:
261,191,46973,1,8,0:0:0:0:
261,191,47048,1,8,0:0:0:0:
256,185,47123,1,8,0:0:0:0:
276,115,47273,1,0,0:0:0:0:
329,131,47423,1,8,0:0:0:0:
375,248,47573,1,8,0:0:0:0:
375,248,47648,1,8,0:0:0:0:
375,248,47723,1,0,0:0:0:0:
375,248,47873,1,0,0:0:0:0:
375,248,48023,1,8,0:0:0:0:
269,192,48323,5,0,0:0:0:0:
269,192,48473,1,2,0:0:0:0:
276,185,48548,1,0,0:0:0:0:
276,185,48623,1,2,0:0:0:0:
276,185,48773,1,2,0:0:0:0:
276,185,48923,1,0,0:0:0:0:
276,185,49073,1,0,0:0:0:0:
277,182,49223,1,2,0:0:0:0:
277,182,49373,1,0,0:0:0:0:
277,182,49673,1,0,0:0:0:0:
277,182,49823,1,2,0:0:0:0:
244,205,49898,1,0,0:0:0:0:
277,182,49973,1,2,0:0:0:0:
277,182,50048,1,2,0:0:0:0:
277,182,50123,1,0,0:0:0:0:
281,179,50273,1,0,0:0:0:0:
281,179,50423,5,2,0:0:0:0:
274,189,50498,1,2,0:0:0:0:
281,179,50573,1,2,0:0:0:0:
253,280,50648,1,8,0:0:0:0:
253,280,50723,1,0,0:0:0:0:
212,201,50873,1,0,0:0:0:0:
167,192,51023,1,8,0:0:0:0:
401,194,51098,1,0,0:0:0:0:
400,204,51173,1,0,0:0:0:0:
254,180,51323,1,8,0:0:0:0:
254,180,51473,1,8,0:0:0:0:
254,180,51623,1,0,0:0:0:0:
254,180,51773,1,8,0:0:0:0:
254,180,51848,1,8,0:0:0:0:
254,180,51923,1,8,0:0:0:0:
332,260,52073,1,0,0:0:0:0:
332,260,52223,1,8,0:0:0:0:
366,251,52373,1,0,0:0:0:0:
366,251,52448,1,0,0:0:0:0:
366,251,52523,1,8,0:0:0:0:
366,251,52598,1,8,0:0:0:0:
366,251,52673,1,0,0:0:0:0:
366,251,52823,1,8,0:0:0:0:
249,195,53123,5,0,0:0:0:0:
249,195,53273,1,2,0:0:0:0:
249,195,53348,1,2,0:0:0:0:
251,194,53423,1,0,0:0:0:0:
249,195,53573,1,0,0:0:0:0:
251,194,53723,1,2,0:0:0:0:
251,208,54023,1,0,0:0:0:0:
251,208,54173,1,2,0:0:0:0:
253,205,54473,1,0,0:0:0:0:
253,205,54623,1,2,0:0:0:0:
253,205,54698,1,2,0:0:0:0:
253,205,54773,1,0,0:0:0:0:
253,205,54848,1,0,0:0:0:0:
253,205,54923,1,2,0:0:0:0:
253,205,55148,1,0,0:0:0:0:
253,208,55223,1,2,0:0:0:0:
253,208,55523,1,4,0:0:0:0:
261,205,55673,1,0,0:0:0:0:
260,205,55823,1,2,0:0:0:0:
260,205,56048,1,2,0:0:0:0:
264,203,56123,1,0,0:0:0:0:
260,205,56273,1,0,0:0:0:0:
265,203,56423,1,2,0:0:0:0:
265,203,56573,1,0,0:0:0:0:
237,199,56648,1,2,0:0:0:0:
266,202,56723,1,0,0:0:0:0:
266,202,56873,1,0,0:0:0:0:
266,202,57023,1,2,0:0:0:0:
266,202,57248,1,2,0:0:0:0:
266,202,57323,1,0,0:0:0:0:
266,202,57473,1,0,0:0:0:0:
260,205,57623,1,2,0:0:0:0:
141,221,57773,1,0,0:0:0:0:
144,229,57848,1,0,0:0:0:0:
162,243,57923,1,12,0:0:0:0:
166,196,58073,1,8,0:0:0:0:
347,197,58223,1,0,0:0:0:0:
234,92,58298,1,8,0:0:0:0:
234,92,58373,1,8,0:0:0:0:
410,226,58523,1,0,0:0:0:0:
343,233,58673,1,0,0:0:0:0:
370,234,58823,1,8,0:0:0:0:
367,234,58898,1,8,0:0:0:0:
367,234,58973,1,0,0:0:0:0:
367,234,59273,1,8,0:0:0:0:
367,234,59423,1,0,0:0:0:0:
370,234,59573,1,0,0:0:0:0:
367,234,59723,1,8,0:0:0:0:
186,177,59873,1,0,0:0:0:0:
367,234,59948,1,0,0:0:0:0:
367,234,60023,1,8,0:0:0:0:
258,209,60323,1,0,0:0:0:0:
339,211,60548,1,0,0:0:0:0:
258,209,60623,1,8,0:0:0:0:
271,258,60773,1,8,0:0:0:0:
347,208,60923,1,0,0:0:0:0:
347,208,61073,1,0,0:0:0:0:
432,294,61148,1,0,0:0:0:0:
347,208,61223,1,8,0:0:0:0:
323,263,61373,1,8,0:0:0:0:
276,187,61523,1,0,0:0:0:0:
284,214,61748,1,0,0:0:0:0:
284,214,61823,1,8,0:0:0:0:
356,209,61973,1,0,0:0:0:0:
457,279,62123,1,8,0:0:0:0:
481,343,62273,1,0,0:0:0:0:
457,279,62348,1,8,0:0:0:0:
218,151,62423,1,0,0:0:0:0:
266,191,62573,5,0,0:0:0:0:
266,191,62873,1,0,0:0:0:0:
266,191,63023,1,2,0:0:0:0:
266,191,63173,1,0,0:0:0:0:
266,191,63248,1,0,0:0:0:0:
266,191,63323,1,2,0:0:0:0:
266,191,63473,1,0,0:0:0:0:
266,191,63623,1,0,0:0:0:0:
281,205,63698,1,0,0:0:0:0:
281,205,63773,1,0,0:0:0:0:
281,205,63848,1,0,0:0:0:0:
281,205,63923,1,2,0:0:0:0:
281,205,64823,1,0,0:0:0:0:
277,203,65123,1,8,0:0:0:0:
215,189,65273,1,8,0:0:0:0:
349,178,65423,1,0,0:0:0:0:
228,193,65573,1,8,0:0:0:0:
348,185,65723,1,0,0:0:0:0:
348,185,65873,1,8,0:0:0:0:
363,276,66023,1,8,0:0:0:0:
363,276,66173,1,0,0:0:0:0:
363,276,66323,1,8,0:0:0:0:
363,276,66473,1,0,0:0:0:0:
363,276,66623,1,8,0:0:0:0:
363,276,66773,1,8,0:0:0:0:
363,276,66923,1,0,0:0:0:0:
363,276,67073,1,0,0:0:0:0:
363,276,67223,1,8,0:0:0:0:
363,276,67373,1,8,0:0:0:0:
363,276,67523,1,0,0:0:0:0:
181,192,67673,1,0,0:0:0:0:
258,203,67823,1,8,0:0:0:0:
323,168,67973,1,0,0:0:0:0:
323,168,68123,1,8,0:0:0:0:
323,168,68273,1,8,0:0:0:0:
380,226,68423,1,0,0:0:0:0:
377,237,68573,1,8,0:0:0:0:
377,237,68723,1,0,0:0:0:0:
381,247,68873,1,0,0:0:0:0:
381,247,69023,1,8,0:0:0:0:
381,247,69173,1,0,0:0:0:0:
381,247,69323,1,8,0:0:0:0:
101,175,69623,1,0,0:0:0:0:
222,200,69698,1,0,0:0:0:0:
230,200,69773,1,0,0:0:0:0:
222,200,69848,1,0,0:0:0:0:
414,240,69923,1,8,0:0:0:0:
436,253,70073,1,8,0:0:0:0:
163,244,70223,1,0,0:0:0:0:
211,242,70373,1,0,0:0:0:0:
211,242,70523,1,8,0:0:0:0:
277,243,70673,1,0,0:0:0:0:
277,243,70823,1,8,0:0:0:0:
277,243,70973,1,0,0:0:0:0:
277,243,71123,1,8,0:0:0:0:
471,272,71273,1,8,0:0:0:0:
367,243,71423,1,0,0:0:0:0:
377,245,71573,1,0,0:0:0:0:
377,245,71723,1,8,0:0:0:0:
373,267,71873,1,0,0:0:0:0:
380,267,72023,1,8,0:0:0:0:
380,267,72173,1,8,0:0:0:0:
386,265,72323,1,0,0:0:0:0:
200,165,72773,1,0,0:0:0:0:
211,170,72823,1,0,0:0:0:0:
211,170,72873,1,0,0:0:0:0:
211,170,72923,1,0,0:0:0:0:
275,108,73373,1,0,0:0:0:0:
277,117,73448,1,0,0:0:0:0:
277,117,73523,1,8,0:0:0:0:
364,41,73623,1,8,0:0:0:0:
363,52,73723,1,8,0:0:0:0:
346,83,73823,1,8,0:0:0:0:
346,83,73923,1,8,0:0:0:0:
346,83,74023,1,8,0:0:0:0:
345,96,74123,1,8,0:0:0:0:
258,193,74423,5,0,0:0:0:0:
258,193,74723,1,2,0:0:0:0:
279,208,75023,1,2,0:0:0:0:
279,208,75173,1,0,0:0:0:0:
279,208,75323,1,0,0:0:0:0:
276,208,75623,1,0,0:0:0:0:
276,208,75773,1,2,0:0:0:0:
276,208,76073,1,0,0:0:0:0:
276,208,76223,1,2,0:0:0:0:
276,208,76373,1,0,0:0:0:0:
276,208,76673,1,0,0:0:0:0:
276,208,76823,1,2,0:0:0:0:
276,208,76973,1,0,0:0:0:0:
276,208,77123,1,2,0:0:0:0:
276,208,77423,1,2,0:0:0:0:
276,208,77573,1,2,0:0:0:0:
276,208,77723,1,0,0:0:0:0:
276,208,77873,1,0,0:0:0:0:
276,208,78023,1,2,0:0:0:0:
276,208,78173,1,2,0:0:0:0:
276,208,78473,1,0,0:0:0:0:
276,208,78623,1,2,0:0:0:0:
276,208,78773,1,0,0:0:0:0:
285,200,78923,1,0,0:0:0:0:
276,208,79223,1,2,0:0:0:0:
279,208,79523,1,0,0:0:0:0:
279,208,79823,1,2,0:0:0:0:
279,208,79973,1,0,0:0:0:0:
279,208,80123,1,0,0:0:0:0:
279,208,80273,1,2,0:0:0:0:
279,208,80423,1,0,0:0:0:0:
279,208,80573,1,2,0:0:0:0:
281,209,80873,1,0,0:0:0:0:
281,209,81173,1,2,0:0:0:0:
280,198,81473,1,0,0:0:0:0:
280,198,81548,1,0,0:0:0:0:
280,198,81623,1,2,0:0:0:0:
281,209,81773,1,0,0:0:0:0:
281,209,81923,1,2,0:0:0:0:
281,209,82073,1,2,0:0:0:0:
281,209,82223,1,0,0:0:0:0:
281,209,82373,1,0,0:0:0:0:
281,209,82523,1,2,0:0:0:0:
281,209,82673,1,0,0:0:0:0:
281,209,82823,1,2,0:0:0:0:
260,200,82973,1,4,0:0:0:0:
260,200,83123,1,2,0:0:0:0:
260,200,83273,1,0,0:0:0:0:
260,200,83348,1,0,0:0:0:0:
266,194,83423,1,2,0:0:0:0:
278,194,83573,1,0,0:0:0:0:
278,194,83723,1,2,0:0:0:0:
278,194,83873,1,2,0:0:0:0:
278,194,83948,1,2,0:0:0:0:
278,194,84023,1,0,0:0:0:0:
278,194,84098,1,0,0:0:0:0:
278,194,84173,1,2,0:0:0:0:
278,194,84248,1,2,0:0:0:0:
278,194,84323,1,4,0:0:0:0:
237,206,84623,5,0,0:0:0:0:
324,223,84773,1,0,0:0:0:0:
367,225,84923,1,8,0:0:0:0:
455,280,85073,1,0,0:0:0:0:
455,280,85148,1,0,0:0:0:0:
455,280,85223,1,8,0:0:0:0:
391,280,85373,1,0,0:0:0:0:
391,280,85523,1,8,0:0:0:0:
391,280,85673,1,8,0:0:0:0:
391,280,85823,1,0,0:0:0:0:
391,280,85973,1,0,0:0:0:0:
391,280,86048,1,8,0:0:0:0:
391,280,86123,1,0,0:0:0:0:
322,256,86273,1,0,0:0:0:0:
405,235,86423,1,8,0:0:0:0:
226,92,86573,1,8,0:0:0:0:
329,112,86723,1,0,0:0:0:0:
336,112,86873,1,8,0:0:0:0:
336,112,86948,1,8,0:0:0:0:
336,112,87023,1,0,0:0:0:0:
347,141,87173,1,0,0:0:0:0:
347,141,87323,1,8,0:0:0:0:
347,146,87473,1,8,0:0:0:0:
327,192,87773,1,8,0:0:0:0:
325,200,87848,1,8,0:0:0:0:
325,200,87923,1,0,0:0:0:0:
335,209,88073,1,0,0:0:0:0:
337,210,88223,1,8,0:0:0:0:
434,267,88373,1,0,0:0:0:0:
310,133,88448,1,0,0:0:0:0:
310,133,88523,1,8,0:0:0:0:
372,257,88823,1,0,0:0:0:0:
372,257,89123,1,8,0:0:0:0:
218,93,89423,1,0,0:0:0:0:
446,271,89573,1,0,0:0:0:0:
242,96,89723,1,8,0:0:0:0:
242,102,89873,1,8,0:0:0:0:
274,110,90023,1,0,0:0:0:0:
390,269,90173,1,0,0:0:0:0:
390,269,90248,1,0,0:0:0:0:
390,269,90323,1,8,0:0:0:0:
322,206,90473,1,0,0:0:0:0:
339,208,90623,1,8,0:0:0:0:
339,208,90773,1,0,0:0:0:0:
339,208,90848,1,0,0:0:0:0:
406,222,90923,1,0,0:0:0:0:
404,287,91223,1,8,0:0:0:0:
411,268,91373,1,0,0:0:0:0:
196,196,91448,1,0,0:0:0:0:
411,268,91523,1,8,0:0:0:0:
411,268,91673,1,8,0:0:0:0:
411,268,91823,1,0,0:0:0:0:
367,276,91973,1,0,0:0:0:0:
209,181,92123,1,8,0:0:0:0:
305,180,92273,1,8,0:0:0:0:
301,175,92423,1,0,0:0:0:0:
418,192,92573,1,0,0:0:0:0:
418,192,92648,1,0,0:0:0:0:
417,203,92723,1,8,0:0:0:0:
381,273,92873,1,8,0:0:0:0:
432,256,93023,1,0,0:0:0:0:
432,256,93173,1,0,0:0:0:0:
432,256,93323,1,8,0:0:0:0:
432,256,93473,1,0,0:0:0:0:
432,256,93623,1,0,0:0:0:0:
432,256,93773,1,0,0:0:0:0:
432,256,93923,1,12,0:0:0:0:
233,88,94223,1,0,0:0:0:0:
306,194,94373,1,0,0:0:0:0:
306,194,94448,1,8,0:0:0:0:
306,194,94523,1,0,0:0:0:0:
274,241,94673,1,0,0:0:0:0:
274,241,94823,1,8,0:0:0:0:
274,241,94973,1,0,0:0:0:0:
207,184,95273,1,0,0:0:0:0:
243,59,95423,1,8,0:0:0:0:
448,274,95573,1,0,0:0:0:0:
253,94,95648,1,8,0:0:0:0:
253,94,95723,1,0,0:0:0:0:
253,94,95873,1,0,0:0:0:0:
253,94,96023,1,8,0:0:0:0:
276,200,96323,5,0,0:0:0:0:
283,200,96473,1,0,0:0:0:0:
283,200,96623,1,2,0:0:0:0:
285,200,96923,1,0,0:0:0:0:
285,200,97073,1,0,0:0:0:0:
285,200,97223,1,2,0:0:0:0:
293,201,97373,1,0,0:0:0:0:
293,201,97673,1,0,0:0:0:0:
293,201,97748,1,0,0:0:0:0:
293,201,97823,1,2,0:0:0:0:
293,201,97973,1,2,0:0:0:0:
293,201,98123,1,0,0:0:0:0:
300,201,98273,1,0,0:0:0:0:
300,201,98423,1,2,0:0:0:0:
300,201,98648,1,2,0:0:0:0:
307,203,98723,1,0,0:0:0:0:
274,192,99023,1,2,0:0:0:0:
274,192,99173,1,0,0:0:0:0:
274,190,99323,1,2,0:0:0:0:
274,190,99473,1,0,0:0:0:0:
274,190,99548,1,0,0:0:0:0:
274,190,99623,1,2,0:0:0:0:
267,186,99773,1,0,0:0:0:0:
267,186,99923,1,2,0:0:0:0:
267,186,100148,1,0,0:0:0:0:
267,186,100223,1,2,0:0:0:0:
267,186,100373,1,0,0:0:0:0:
267,186,100523,1,2,0:0:0:0:
267,186,100673,1,0,0:0:0:0:
267,186,100748,1,0,0:0:0:0:
266,186,100823,1,2,0:0:0:0:
267,186,100973,1,0,0:0:0:0:
267,186,101123,1,6,0:0:0:0:
267,187,101423,1,0,0:0:0:0:
267,187,101573,1,6,0:0:0:0:
267,187,101723,1,0,0:0:0:0:
267,187,101873,1,0,0:0:0:0:
267,187,102023,1,6,0:0:0:0:
251,200,102323,1,2,0:0:0:0:
251,200,102398,1,2,0:0:0:0:
251,200,102473,1,0,0:0:0:0:
251,200,102548,1,0,0:0:0:0:
251,200,102623,1,2,0:0:0:0:
251,200,102698,1,0,0:0:0:0:
251,200,102773,1,0,0:0:0:0:
251,200,102848,1,0,0:0:0:0:
252,197,102923,1,2,0:0:0:0:
289,213,102960,1,2,0:0:0:0:
252,197,103073,1,2,0:0:0:0:
253,196,103223,1,2,0:0:0:0:
253,196,103373,1,0,0:0:0:0:
253,196,103523,1,6,0:0:0:0:
407,260,103673,1,0,0:0:0:0:
407,260,103823,1,8,0:0:0:0:
310,261,103973,1,0,0:0:0:0:
310,261,104048,1,8,0:0:0:0:
310,261,104123,1,0,0:0:0:0:
347,185,104273,1,8,0:0:0:0:
341,223,104423,1,0,0:0:0:0:
437,298,104573,1,8,0:0:0:0:
341,223,104648,1,0,0:0:0:0:
341,223,104723,1,8,0:0:0:0:
341,223,104873,1,0,0:0:0:0:
341,223,105023,1,8,0:0:0:0:
332,275,105173,1,0,0:0:0:0:
332,275,105248,1,0,0:0:0:0:
332,275,105323,1,8,0:0:0:0:
332,275,105398,1,8,0:0:0:0:
332,275,105473,1,0,0:0:0:0:
332,275,105623,1,8,0:0:0:0:
269,192,105923,5,0,0:0:0:0:
269,192,106073,1,2,0:0:0:0:
276,185,106148,1,0,0:0:0:0:
276,185,106223,1,2,0:0:0:0:
276,185,106373,1,2,0:0:0:0:
276,185,106523,1,0,0:0:0:0:
276,185,106673,1,0,0:0:0:0:
277,182,106823,1,2,0:0:0:0:
277,182,106973,1,0,0:0:0:0:
277,182,107273,1,0,0:0:0:0:
277,182,107423,1,2,0:0:0:0:
244,205,107498,1,2,0:0:0:0:
277,182,107573,1,2,0:0:0:0:
277,182,107648,1,2,0:0:0:0:
277,182,107723,1,0,0:0:0:0:
281,179,107873,1,0,0:0:0:0:
281,179,107948,1,0,0:0:0:0:
281,179,108023,1,2,0:0:0:0:
274,189,108098,1,2,0:0:0:0:
281,179,108173,1,0,0:0:0:0:
281,179,108248,1,2,0:0:0:0:
281,179,108323,1,2,0:0:0:0:
127,186,108473,1,0,0:0:0:0:
281,202,108623,1,8,0:0:0:0:
456,275,108698,1,0,0:0:0:0:
456,275,108773,1,0,0:0:0:0:
317,222,108923,1,0,0:0:0:0:
317,222,109073,1,0,0:0:0:0:
317,222,109223,1,8,0:0:0:0:
317,222,109298,1,8,0:0:0:0:
317,222,109373,1,8,0:0:0:0:
395,214,109673,1,0,0:0:0:0:
179,178,109823,1,8,0:0:0:0:
179,178,109898,1,0,0:0:0:0:
207,42,109973,1,0,0:0:0:0:
395,214,110048,1,0,0:0:0:0:
395,214,110123,1,8,0:0:0:0:
210,50,110273,1,0,0:0:0:0:
415,340,110348,1,0,0:0:0:0:
210,50,110423,1,8,0:0:0:0:
249,195,110723,5,0,0:0:0:0:
249,195,110873,1,2,0:0:0:0:
249,195,110948,1,2,0:0:0:0:
251,194,111023,1,0,0:0:0:0:
249,195,111173,1,0,0:0:0:0:
251,194,111323,1,2,0:0:0:0:
265,197,111473,1,0,0:0:0:0:
251,208,111623,1,0,0:0:0:0:
251,208,111773,1,2,0:0:0:0:
253,205,112073,1,0,0:0:0:0:
253,205,112223,1,2,0:0:0:0:
253,205,112298,1,2,0:0:0:0:
253,205,112373,1,0,0:0:0:0:
253,205,112448,1,0,0:0:0:0:
253,205,112523,1,2,0:0:0:0:
253,205,112748,1,0,0:0:0:0:
253,208,112823,1,2,0:0:0:0:
253,208,113123,1,4,0:0:0:0:
261,205,113273,1,0,0:0:0:0:
260,205,113423,1,2,0:0:0:0:
260,205,113648,1,2,0:0:0:0:
264,203,113723,1,0,0:0:0:0:
260,205,113873,1,0,0:0:0:0:
265,203,114023,1,2,0:0:0:0:
265,203,114173,1,0,0:0:0:0:
237,199,114248,1,2,0:0:0:0:
266,202,114323,1,0,0:0:0:0:
266,202,114473,1,0,0:0:0:0:
266,202,114623,1,2,0:0:0:0:
266,202,114848,1,2,0:0:0:0:
266,202,114923,1,0,0:0:0:0:
266,202,115073,1,0,0:0:0:0:
260,205,115223,1,2,0:0:0:0:
380,303,115373,5,8,0:0:0:0:
380,303,115448,1,8,0:0:0:0:
380,303,115523,1,0,0:0:0:0:
407,301,115823,1,0,0:0:0:0:
387,302,115973,1,0,0:0:0:0:
261,222,116048,1,0,0:0:0:0:
175,182,116123,1,8,0:0:0:0:
100,170,116273,1,8,0:0:0:0:
227,167,116423,1,0,0:0:0:0:
227,167,116573,1,12,0:0:0:0:
143,237,116873,1,0,0:0:0:0:
253,224,117023,1,8,0:0:0:0:
253,224,117173,1,8,0:0:0:0:
253,224,117323,1,0,0:0:0:0:
364,265,117398,1,0,0:0:0:0:
253,224,117473,1,0,0:0:0:0:
253,224,117548,1,0,0:0:0:0:
253,224,117623,1,8,0:0:0:0:
184,214,117923,1,0,0:0:0:0:
307,240,118148,1,0,0:0:0:0:
204,208,118223,1,8,0:0:0:0:
226,189,118373,1,8,0:0:0:0:
342,281,118523,1,0,0:0:0:0:
342,281,118673,1,0,0:0:0:0:
384,275,118748,1,0,0:0:0:0:
342,281,118823,1,8,0:0:0:0:
251,109,119048,1,8,0:0:0:0:
251,109,119123,1,0,0:0:0:0:
328,243,119273,1,0,0:0:0:0:
284,104,119423,1,8,0:0:0:0:
297,119,119648,1,0,0:0:0:0:
297,119,119723,1,8,0:0:0:0:
399,256,119873,1,8,0:0:0:0:
399,256,119948,1,8,0:0:0:0:
399,256,120023,1,0,0:0:0:0:
266,191,120173,5,0,0:0:0:0:
266,191,120473,1,0,0:0:0:0:
266,191,120623,1,2,0:0:0:0:
266,191,120773,1,0,0:0:0:0:
266,191,120848,1,0,0:0:0:0:
266,191,120923,1,2,0:0:0:0:
266,191,121073,1,0,0:0:0:0:
266,191,121223,1,2,0:0:0:0:
281,205,121298,1,2,0:0:0:0:
281,205,121373,1,0,0:0:0:0:
281,205,121448,1,0,0:0:0:0:
281,205,121523,1,2,0:0:0:0:
281,205,122423,1,0,0:0:0:0:
277,203,122723,1,6,0:0:0:0:
183,218,123023,1,0,0:0:0:0:
233,279,123473,1,0,0:0:0:0:
296,247,123773,1,0,0:0:0:0:
296,247,124073,1,0,0:0:0:0:
296,247,124223,1,8,0:0:0:0:
296,247,124298,1,8,0:0:0:0:
296,247,124373,1,0,0:0:0:0:
311,203,124523,1,0,0:0:0:0:
311,203,124598,1,0,0:0:0:0:
311,203,124673,1,0,0:0:0:0:
314,193,124823,1,8,0:0:0:0:
314,193,124973,1,8,0:0:0:0:
233,141,125123,1,0,0:0:0:0:
233,141,125423,1,0,0:0:0:0:
233,141,125723,1,0,0:0:0:0:
269,166,126023,1,0,0:0:0:0:
269,166,126173,1,8,0:0:0:0:
269,166,126323,1,0,0:0:0:0:
269,166,126473,1,0,0:0:0:0:
269,166,126623,1,8,0:0:0:0:
269,166,126698,1,8,0:0:0:0:
269,166,126773,1,8,0:0:0:0:
269,166,126923,1,0,0:0:0:0:
269,166,126998,1,8,0:0:0:0:
269,166,127073,1,8,0:0:0:0:
307,154,127223,1,0,0:0:0:0:
307,154,127373,1,0,0:0:0:0:
139,195,127673,1,0,0:0:0:0:
139,195,127748,1,0,0:0:0:0:
139,195,127823,1,8,0:0:0:0:
229,194,127973,1,8,0:0:0:0:
180,191,128048,1,8,0:0:0:0:
312,196,128123,1,0,0:0:0:0:
312,196,128273,1,8,0:0:0:0:
312,196,128423,1,0,0:0:0:0:
312,196,128573,1,8,0:0:0:0:
312,196,128723,1,0,0:0:0:0:
433,293,128873,1,8,0:0:0:0:
312,196,129023,1,0,0:0:0:0:
312,196,129098,1,0,0:0:0:0:
312,196,129173,1,0,0:0:0:0:
312,196,129323,1,0,0:0:0:0:
312,196,129398,1,0,0:0:0:0:
312,196,129473,1,8,0:0:0:0:
443,308,129548,1,8,0:0:0:0:
367,264,129623,1,0,0:0:0:0:
359,224,129773,1,8,0:0:0:0:
373,213,129923,1,0,0:0:0:0:
373,213,129998,1,0,0:0:0:0:
380,280,130073,1,8,0:0:0:0:
314,231,130148,1,0,0:0:0:0:
314,231,130223,1,0,0:0:0:0:
314,231,130298,1,0,0:0:0:0:
380,279,130373,1,8,0:0:0:0:
314,231,130448,1,0,0:0:0:0:
314,231,130523,1,0,0:0:0:0:
314,231,130598,1,0,0:0:0:0:
292,246,130673,1,8,0:0:0:0:
314,231,130748,1,0,0:0:0:0:
314,231,130823,1,0,0:0:0:0:
314,231,130898,1,0,0:0:0:0:
292,246,130973,1,8,0:0:0:0:
314,231,131048,1,0,0:0:0:0:
267,195,132323,5,0,0:0:0:0:
232,185,132473,1,0,0:0:0:0:
275,189,132623,1,0,0:0:0:0:
280,197,132923,1,2,0:0:0:0:
232,177,133073,1,0,0:0:0:0:
232,177,133223,1,0,0:0:0:0:
276,189,133298,1,0,0:0:0:0:
276,189,133373,1,0,0:0:0:0:
276,189,133523,1,2,0:0:0:0:
276,189,133673,1,0,0:0:0:0:
273,185,133823,1,2,0:0:0:0:
276,189,133898,1,0,0:0:0:0:
281,186,133973,1,2,0:0:0:0:
277,187,134123,1,2,0:0:0:0:
266,197,134198,1,2,0:0:0:0:
257,198,134273,1,0,0:0:0:0:
255,200,134323,1,0,0:0:0:0:
255,200,134373,1,0,0:0:0:0:
255,200,134423,1,2,0:0:0:0:
265,191,134573,1,2,0:0:0:0:
265,191,134723,1,4,0:0:0:0:
265,191,134873,1,0,0:0:0:0:
265,191,135023,1,0,0:0:0:0:
241,165,135323,1,2,0:0:0:0:
241,165,135473,1,0,0:0:0:0:
241,167,135773,1,0,0:0:0:0:
278,146,135823,1,0,0:0:0:0:
278,146,135873,1,0,0:0:0:0:
278,146,135923,1,2,0:0:0:0:
289,179,136173,1,0,0:0:0:0:
261,149,136223,1,2,0:0:0:0:
261,149,136273,1,0,0:0:0:0:
261,149,136323,1,0,0:0:0:0:
261,149,136373,1,2,0:0:0:0:
235,173,136448,1,2,0:0:0:0:
261,149,136523,1,0,0:0:0:0:
242,169,137123,1,4,0:0:0:0:
251,185,137273,1,2,0:0:0:0:
249,182,137323,1,2,0:0:0:0:
251,185,137373,1,0,0:0:0:0:
247,177,137423,1,2,0:0:0:0:
247,172,137723,1,2,0:0:0:0:
253,183,137873,1,0,0:0:0:0:
255,179,138173,1,0,0:0:0:0:
255,179,138248,1,0,0:0:0:0:
255,179,138323,1,2,0:0:0:0:
255,179,138473,1,0,0:0:0:0:
273,185,138623,1,2,0:0:0:0:
276,189,138698,1,0,0:0:0:0:
281,186,138773,1,2,0:0:0:0:
277,187,138923,1,2,0:0:0:0:
266,197,138998,1,2,0:0:0:0:
257,198,139073,1,2,0:0:0:0:
255,200,139123,1,2,0:0:0:0:
255,200,139173,1,0,0:0:0:0:
255,200,139223,1,0,0:0:0:0:
288,160,139373,1,2,0:0:0:0:
288,200,139523,1,4,0:0:0:0:
288,200,139673,1,0,0:0:0:0:
288,200,139823,1,2,0:0:0:0:
288,197,140123,1,0,0:0:0:0:
288,197,140273,1,2,0:0:0:0:
288,197,140423,1,0,0:0:0:0:
288,197,140573,1,0,0:0:0:0:
288,197,140723,1,2,0:0:0:0:
291,182,140948,1,2,0:0:0:0:
291,182,141023,1,0,0:0:0:0:
291,182,141173,1,0,0:0:0:0:
300,179,141248,1,0,0:0:0:0:
294,170,141323,1,0,0:0:0:0:
294,170,141373,1,0,0:0:0:0:
295,169,141423,1,0,0:0:0:0:
295,169,141473,1,2,0:0:0:0:
294,170,141523,1,2,0:0:0:0:
294,170,141573,1,2,0:0:0:0:
295,169,141623,1,2,0:0:0:0:
307,164,141698,1,2,0:0:0:0:
286,140,141773,1,2,0:0:0:0:
256,192,141923,12,0,142823,0:0:0:0:
258,255,143123,5,8,0:0:0:0:
225,184,143423,1,0,0:0:0:0:
270,180,143723,1,0,0:0:0:0:
285,180,144023,1,0,0:0:0:0:
361,222,144173,1,12,0:0:0:0:
361,222,144473,1,0,0:0:0:0:
361,222,144623,1,8,0:0:0:0:
361,222,144773,1,8,0:0:0:0:
361,222,144848,1,8,0:0:0:0:
361,222,144923,1,0,0:0:0:0:
401,265,144998,1,8,0:0:0:0:
290,208,145073,1,8,0:0:0:0:
440,262,145223,1,0,0:0:0:0:
209,184,145373,1,8,0:0:0:0:
258,251,145523,1,8,0:0:0:0:
298,241,145823,1,0,0:0:0:0:
298,241,146123,1,0,0:0:0:0:
271,186,146423,5,0,0:0:0:0:
271,186,146573,1,2,0:0:0:0:
271,186,146648,1,2,0:0:0:0:
271,186,146723,1,0,0:0:0:0:
252,196,146873,1,0,0:0:0:0:
254,194,146948,1,0,0:0:0:0:
241,193,147023,1,2,0:0:0:0:
239,193,147098,1,0,0:0:0:0:
241,193,147173,1,2,0:0:0:0:
239,193,147323,1,0,0:0:0:0:
239,193,147473,1,0,0:0:0:0:
239,193,147548,1,0,0:0:0:0:
239,192,147623,1,2,0:0:0:0:
242,192,147923,1,4,0:0:0:0:
242,192,148073,1,0,0:0:0:0:
242,192,148148,1,0,0:0:0:0:
242,192,148223,1,2,0:0:0:0:
242,192,148373,1,0,0:0:0:0:
238,197,148523,1,2,0:0:0:0:
241,233,148748,1,0,0:0:0:0:
243,231,148823,1,2,0:0:0:0:
241,233,148973,1,0,0:0:0:0:
235,231,149048,1,0,0:0:0:0:
236,232,149123,1,2,0:0:0:0:
235,231,149273,1,0,0:0:0:0:
235,231,149423,1,2,0:0:0:0:
235,223,149498,1,2,0:0:0:0:
235,223,149573,1,0,0:0:0:0:
235,222,149648,1,0,0:0:0:0:
235,223,149723,1,2,0:0:0:0:
235,222,149873,1,0,0:0:0:0:
235,222,150023,1,0,0:0:0:0:
235,222,150098,1,0,0:0:0:0:
235,222,150173,1,0,0:0:0:0:
235,222,150248,1,0,0:0:0:0:
234,223,150323,1,6,0:0:0:0:
232,223,150623,1,0,0:0:0:0:
232,223,150773,1,2,0:0:0:0:
232,223,150923,1,0,0:0:0:0:
232,223,151073,1,0,0:0:0:0:
273,196,151223,1,2,0:0:0:0:
273,196,151523,1,0,0:0:0:0:
273,196,151823,1,0,0:0:0:0:
273,196,152123,1,0,0:0:0:0:
273,196,152423,1,0,0:0:0:0:
293,196,152723,5,12,0:0:0:0:
293,197,153173,1,12,0:0:0:0:
195,164,153623,1,12,0:0:0:0:
266,202,154973,5,0,0:0:0:0:
266,202,155123,1,6,0:0:0:0:
263,186,155273,1,0,0:0:0:0:
263,186,155423,1,2,0:0:0:0:
263,186,155723,1,0,0:0:0:0:
263,186,156023,1,0,0:0:0:0:
263,186,156173,1,2,0:0:0:0:
263,186,156473,1,0,0:0:0:0:
263,186,156623,1,2,0:0:0:0:
263,186,156773,1,2,0:0:0:0:
263,186,156923,1,0,0:0:0:0:
263,186,157223,1,2,0:0:0:0:
263,186,157523,1,0,0:0:0:0:
263,186,157673,1,2,0:0:0:0:
232,208,157973,1,0,0:0:0:0:
232,208,158123,1,2,0:0:0:0:
223,201,158273,1,0,0:0:0:0:
230,203,158423,1,0,0:0:0:0:
230,203,158573,1,2,0:0:0:0:
230,205,158873,1,0,0:0:0:0:
230,205,159023,1,2,0:0:0:0:
230,206,159173,1,2,0:0:0:0:
230,206,159323,1,0,0:0:0:0:
223,201,159623,1,0,0:0:0:0:
211,202,159773,1,0,0:0:0:0:
223,201,159923,1,2,0:0:0:0:
250,211,160073,1,0,0:0:0:0:
250,211,160223,1,2,0:0:0:0:
250,208,160523,1,0,0:0:0:0:
249,207,160823,1,2,0:0:0:0:
249,207,160973,1,0,0:0:0:0:
248,205,161273,1,0,0:0:0:0:
248,205,161423,1,2,0:0:0:0:
248,205,161573,1,0,0:0:0:0:
248,205,161723,1,2,0:0:0:0:
248,205,161873,1,2,0:0:0:0:
248,205,162023,1,0,0:0:0:0:
247,203,162323,1,0,0:0:0:0:
247,203,162473,1,2,0:0:0:0:
247,203,162623,1,0,0:0:0:0:
247,203,162773,1,0,0:0:0:0:
247,201,162923,1,2,0:0:0:0:
243,200,163223,1,0,0:0:0:0:
243,200,163373,1,2,0:0:0:0:
243,199,163673,1,2,0:0:0:0:
243,199,163823,1,0,0:0:0:0:
244,199,163973,1,2,0:0:0:0:
244,199,164123,1,0,0:0:0:0:
244,199,164423,1,2,0:0:0:0:
265,196,164723,1,4,0:0:0:0:
265,196,165023,1,2,0:0:0:0:
265,196,165323,1,2,0:0:0:0:
265,195,165623,1,2,0:0:0:0:
265,195,165773,1,2,0:0:0:0:
265,195,165923,1,2,0:0:0:0:
265,195,166223,1,2,0:0:0:0:
265,195,166523,1,2,0:0:0:0:
265,195,166673,1,2,0:0:0:0:
265,195,166823,1,2,0:0:0:0:
265,195,166973,1,2,0:0:0:0:
265,195,167123,1,2,0:0:0:0:
135,211,167423,1,0,0:0:0:0:
301,230,167723,1,8,0:0:0:0:
309,231,168023,1,0,0:0:0:0:
309,231,168173,1,8,0:0:0:0:
309,231,168473,1,0,0:0:0:0:
309,231,168623,1,8,0:0:0:0:
425,324,168773,1,8,0:0:0:0:
443,256,168923,1,0,0:0:0:0:
318,225,169073,1,8,0:0:0:0:
345,229,169223,1,0,0:0:0:0:
394,307,169523,1,0,0:0:0:0:
257,253,169823,1,0,0:0:0:0:
270,253,170123,1,0,0:0:0:0:
270,253,170423,1,8,0:0:0:0:
344,265,170723,1,8,0:0:0:0:
360,258,171023,1,8,0:0:0:0:
360,258,171323,1,8,0:0:0:0:
436,265,171473,1,0,0:0:0:0:
360,258,171623,1,8,0:0:0:0:
311,290,171923,1,0,0:0:0:0:
308,263,171998,1,0,0:0:0:0:
308,263,172073,1,8,0:0:0:0:
308,263,172148,1,0,0:0:0:0:
308,263,172223,1,8,0:0:0:0:
308,263,172298,1,8,0:0:0:0:
308,263,172373,1,0,0:0:0:0:
308,263,172448,1,0,0:0:0:0:
308,263,172523,1,8,0:0:0:0:
308,263,172598,1,0,0:0:0:0:
308,263,172673,1,8,0:0:0:0:
308,263,172748,1,8,0:0:0:0:
308,263,172823,1,0,0:0:0:0:
308,263,172898,1,0,0:0:0:0:
308,263,172973,1,8,0:0:0:0:
308,263,173048,1,0,0:0:0:0:
308,263,173123,1,8,0:0:0:0:
368,261,173198,1,0,0:0:0:0:
368,261,173273,1,0,0:0:0:0:
368,261,173348,1,0,0:0:0:0:
368,261,173423,1,8,0:0:0:0:
368,261,173573,1,0,0:0:0:0:
368,261,173723,1,8,0:0:0:0:
375,232,174023,5,0,0:0:0:0:
327,139,174173,1,0,0:0:0:0:
327,139,174248,1,0,0:0:0:0:
327,139,174323,1,8,0:0:0:0:
397,265,174473,1,0,0:0:0:0:
272,94,174623,1,8,0:0:0:0:
301,130,174773,1,8,0:0:0:0:
404,256,174923,1,0,0:0:0:0:
404,256,174998,1,8,0:0:0:0:
404,256,175073,1,0,0:0:0:0:
404,256,175148,1,0,0:0:0:0:
404,256,175223,1,8,0:0:0:0:
163,222,175373,1,0,0:0:0:0:
385,256,175523,1,8,0:0:0:0:
385,256,175598,1,8,0:0:0:0:
207,228,175673,1,0,0:0:0:0:
245,233,175823,1,8,0:0:0:0:
390,292,175973,1,0,0:0:0:0:
406,260,176123,1,8,0:0:0:0:
253,238,176198,1,8,0:0:0:0:
253,238,176273,1,0,0:0:0:0:
253,238,176348,1,0,0:0:0:0:
253,238,176423,1,8,0:0:0:0:
269,192,176723,5,0,0:0:0:0:
269,192,176873,1,2,0:0:0:0:
276,185,176948,1,0,0:0:0:0:
276,185,177023,1,2,0:0:0:0:
276,185,177173,1,2,0:0:0:0:
276,185,177323,1,0,0:0:0:0:
276,185,177473,1,0,0:0:0:0:
277,182,177623,1,2,0:0:0:0:
277,182,177773,1,0,0:0:0:0:
277,182,178073,1,0,0:0:0:0:
277,182,178223,1,2,0:0:0:0:
244,205,178298,1,0,0:0:0:0:
277,182,178373,1,2,0:0:0:0:
277,182,178448,1,2,0:0:0:0:
277,182,178523,1,0,0:0:0:0:
281,179,178673,1,0,0:0:0:0:
281,179,178748,1,0,0:0:0:0:
281,179,178823,1,2,0:0:0:0:
274,189,178898,1,2,0:0:0:0:
281,179,178973,1,2,0:0:0:0:
281,179,179048,1,2,0:0:0:0:
281,179,179123,1,0,0:0:0:0:
163,184,179273,1,0,0:0:0:0:
163,184,179423,1,8,0:0:0:0:
273,206,179573,1,0,0:0:0:0:
273,206,179648,1,0,0:0:0:0:
273,206,179723,1,8,0:0:0:0:
379,273,179873,1,8,0:0:0:0:
449,292,180023,1,8,0:0:0:0:
379,273,180098,1,0,0:0:0:0:
379,273,180173,1,8,0:0:0:0:
379,273,180323,1,8,0:0:0:0:
379,273,180473,1,0,0:0:0:0:
379,273,180623,1,8,0:0:0:0:
379,273,180698,1,8,0:0:0:0:
379,273,180773,1,0,0:0:0:0:
379,273,180848,1,0,0:0:0:0:
379,273,180923,1,8,0:0:0:0:
379,273,181073,1,8,0:0:0:0:
415,239,181148,1,8,0:0:0:0:
379,273,181223,1,0,0:0:0:0:
249,195,181523,5,0,0:0:0:0:
249,195,181673,1,2,0:0:0:0:
249,195,181748,1,2,0:0:0:0:
251,194,181823,1,0,0:0:0:0:
249,195,181973,1,0,0:0:0:0:
251,194,182123,1,2,0:0:0:0:
265,197,182273,1,0,0:0:0:0:
251,208,182423,1,0,0:0:0:0:
251,208,182573,1,2,0:0:0:0:
253,205,182873,1,0,0:0:0:0:
253,205,183023,1,2,0:0:0:0:
253,205,183098,1,2,0:0:0:0:
253,205,183173,1,0,0:0:0:0:
253,205,183248,1,0,0:0:0:0:
253,205,183323,1,2,0:0:0:0:
253,205,183548,1,0,0:0:0:0:
253,208,183623,1,2,0:0:0:0:
253,208,183923,1,4,0:0:0:0:
261,205,184073,1,0,0:0:0:0:
260,205,184223,1,2,0:0:0:0:
280,199,184373,1,0,0:0:0:0:
260,205,184448,1,2,0:0:0:0:
264,203,184523,1,0,0:0:0:0:
260,205,184673,1,0,0:0:0:0:
265,203,184823,1,2,0:0:0:0:
265,203,184973,1,2,0:0:0:0:
359,184,185048,1,8,0:0:0:0:
359,184,185123,1,0,0:0:0:0:
241,209,185198,1,2,0:0:0:0:
266,202,185273,1,0,0:0:0:0:
266,202,185423,1,2,0:0:0:0:
244,216,185573,1,0,0:0:0:0:
266,202,185648,1,2,0:0:0:0:
266,202,185723,1,0,0:0:0:0:
266,202,185873,1,0,0:0:0:0:
260,205,186023,1,2,0:0:0:0:
167,197,186173,1,0,0:0:0:0:
178,198,186248,1,0,0:0:0:0:
178,198,186323,1,8,0:0:0:0:
376,273,186473,5,0,0:0:0:0:
262,55,186623,1,8,0:0:0:0:
268,92,186698,1,8,0:0:0:0:
268,92,186773,1,8,0:0:0:0:
271,102,186848,1,8,0:0:0:0:
271,104,186923,1,0,0:0:0:0:
328,273,187073,1,0,0:0:0:0:
287,139,187223,1,8,0:0:0:0:
258,168,187298,1,8,0:0:0:0:
383,273,187373,1,8,0:0:0:0:
296,206,187523,1,0,0:0:0:0:
347,272,187673,1,0,0:0:0:0:
258,168,187823,1,8,0:0:0:0:
347,272,187973,1,8,0:0:0:0:
190,216,188123,1,8,0:0:0:0:
190,216,188198,1,0,0:0:0:0:
265,149,188273,1,0,0:0:0:0:
265,149,188348,1,0,0:0:0:0:
265,149,188423,1,8,0:0:0:0:
215,185,188648,1,8,0:0:0:0:
215,185,188723,1,0,0:0:0:0:
267,302,188873,1,0,0:0:0:0:
329,243,189023,1,8,0:0:0:0:
329,243,189098,1,8,0:0:0:0:
186,183,189173,1,0,0:0:0:0:
329,243,189248,1,8,0:0:0:0:
329,243,189323,1,0,0:0:0:0:
273,109,189473,1,0,0:0:0:0:
298,137,189623,1,8,0:0:0:0:
307,158,189698,1,8,0:0:0:0:
307,158,189848,1,8,0:0:0:0:
307,158,189923,1,0,0:0:0:0:
370,170,190073,1,0,0:0:0:0:
155,182,190223,1,8,0:0:0:0:
451,298,190298,1,8,0:0:0:0:
291,229,190373,1,0,0:0:0:0:
291,229,190448,1,0,0:0:0:0:
310,253,190523,1,8,0:0:0:0:
370,170,190673,1,8,0:0:0:0:
418,288,190748,1,8,0:0:0:0:
370,170,190823,1,0,0:0:0:0:
266,191,190973,5,2,0:0:0:0:
266,191,191273,1,0,0:0:0:0:
266,191,191423,1,2,0:0:0:0:
266,191,191573,1,0,0:0:0:0:
266,191,191648,1,2,0:0:0:0:
266,191,191723,1,0,0:0:0:0:
266,191,191873,1,0,0:0:0:0:
266,191,192023,1,2,0:0:0:0:
281,205,192098,1,2,0:0:0:0:
281,205,192173,1,0,0:0:0:0:
281,205,192248,1,2,0:0:0:0:
281,205,192323,1,0,0:0:0:0:
249,198,192473,1,0,0:0:0:0:
249,198,192623,1,2,0:0:0:0:
249,198,192773,1,2,0:0:0:0:
245,191,192848,1,2,0:0:0:0:
245,191,192923,1,0,0:0:0:0:
245,191,193073,1,0,0:0:0:0:
245,191,193223,1,2,0:0:0:0:
215,185,193448,1,8,0:0:0:0:
215,185,193523,1,0,0:0:0:0:
267,302,193673,1,0,0:0:0:0:
329,243,193823,1,8,0:0:0:0:
329,243,193898,1,8,0:0:0:0:
186,183,193973,1,0,0:0:0:0:
329,243,194048,1,8,0:0:0:0:
329,243,194123,1,0,0:0:0:0:
273,109,194273,1,0,0:0:0:0:
298,137,194423,1,8,0:0:0:0:
307,158,194498,1,8,0:0:0:0:
307,158,194648,1,8,0:0:0:0:
307,158,194723,1,0,0:0:0:0:
370,170,194873,1,0,0:0:0:0:
370,170,195023,1,8,0:0:0:0:
444,320,195098,1,8,0:0:0:0:
396,316,195173,1,0,0:0:0:0:
396,316,195248,1,0,0:0:0:0:
396,316,195323,1,8,0:0:0:0:
222,194,195473,1,0,0:0:0:0:
222,194,195548,1,0,0:0:0:0:
223,202,195623,1,8,0:0:0:0:
244,243,195773,1,0,0:0:0:0:
325,245,195923,1,8,0:0:0:0:
314,180,195998,1,8,0:0:0:0:
314,180,196073,1,8,0:0:0:0:
314,180,196148,1,8,0:0:0:0:
314,180,196223,1,0,0:0:0:0:
388,202,196373,1,0,0:0:0:0:
388,202,196523,1,8,0:0:0:0:
508,321,196673,1,0,0:0:0:0:
481,335,196823,1,8,0:0:0:0:
380,276,196898,1,0,0:0:0:0:
388,202,196973,1,8,0:0:0:0:
400,260,197123,1,8,0:0:0:0:
388,202,197273,1,0,0:0:0:0:
400,260,197423,1,0,0:0:0:0:
388,202,197573,1,8,0:0:0:0:
219,228,197723,1,8,0:0:0:0:
219,228,197798,1,8,0:0:0:0:
219,228,197873,1,0,0:0:0:0:
219,228,197948,1,0,0:0:0:0:
222,236,198023,1,8,0:0:0:0:
160,177,198323,1,0,0:0:0:0:
365,270,198473,1,8,0:0:0:0:
365,270,198548,1,8,0:0:0:0:
365,270,198623,1,0,0:0:0:0:
397,263,198773,1,8,0:0:0:0:
397,263,198923,1,0,0:0:0:0:
365,270,198998,1,0,0:0:0:0:
365,270,199073,1,8,0:0:0:0:
104,156,199148,1,8,0:0:0:0:
415,247,199223,1,0,0:0:0:0:
397,263,199373,1,8,0:0:0:0:
397,263,199523,1,0,0:0:0:0:
397,263,199598,1,8,0:0:0:0:
397,263,199748,1,8,0:0:0:0:
397,263,199823,1,0,0:0:0:0:
467,255,199973,1,0,0:0:0:0:
467,255,200048,1,0,0:0:0:0:
467,255,200123,1,8,0:0:0:0:
467,255,200273,1,8,0:0:0:0:
397,263,200423,1,0,0:0:0:0:
273,199,200573,5,2,0:0:0:0:
283,196,200873,1,0,0:0:0:0:
283,196,201023,1,2,0:0:0:0:
283,196,201173,1,0,0:0:0:0:
284,196,201323,1,2,0:0:0:0:
284,196,201623,1,2,0:0:0:0:
284,196,201773,1,0,0:0:0:0:
284,195,202073,1,2,0:0:0:0:
284,195,202223,1,0,0:0:0:0:
284,195,202373,1,2,0:0:0:0:
284,195,202523,1,2,0:0:0:0:
