osu file format v14

[General]
AudioFilename: audio.mp3
AudioLeadIn: 0
PreviewTime: 203379
Countdown: 0
SampleSet: Soft
StackLeniency: 0.4
Mode: 0
LetterboxInBreaks: 0
WidescreenStoryboard: 1

[Editor]
Bookmarks: 83561,159549,224433
DistanceSpacing: 1.2
BeatDivisor: 3
GridSize: 4
TimelineZoom: 2.9

[Metadata]
Title:Tsumi no Namae
TitleUnicode:罪の名前
Artist:soraru vs. yuikonnu
ArtistUnicode:そらる vs. ゆいこんぬ
Creator:Shiratoi
Version:The Malicious Goddess of Fate and the Blooming White Lily
Source:初音ミク -Project DIVA- X
Tags:The Name of the Sin ryo supercell vocaloid hatsune miku utaite cover Time Capsule
BeatmapID:1205694
BeatmapSetID:568692

[Difficulty]
HPDrainRate:7
CircleSize:4
OverallDifficulty:8.6
ApproachRate:9
SliderMultiplier:1.75
SliderTickRate:1

[Events]
//Background and Video events
0,0,"BG.jpg",0,0
//Break Periods
2,134492,142169
2,265149,273419
2,318870,323651
//Storyboard Layer 0 (Background)
//Storyboard Layer 1 (Fail)
//Storyboard Layer 2 (Pass)
//Storyboard Layer 3 (Foreground)
//Storyboard Sound Samples

[TimingPoints]
2843,540.540540540541,4,2,1,70,1,0
20140,-166.666666666667,4,2,1,70,0,0
25647,348.837209302326,4,2,2,40,1,0
25647,-125,4,2,2,40,0,0
25995,-125,4,2,2,70,0,0
36809,-117.647058823529,4,2,1,70,0,0
46228,-117.647058823529,4,2,2,70,0,0
46402,-117.647058823529,4,2,1,70,0,0
46577,-117.647058823529,4,2,2,70,0,0
47972,-166.666666666667,4,2,1,75,0,0
54774,-166.666666666667,4,2,1,5,0,0
54949,-166.666666666667,4,2,1,75,0,0
59135,-111.111111111111,4,2,1,70,0,0
70298,-105.263157894737,4,2,1,70,0,0
80501,-105.263157894737,4,2,1,5,0,0
80588,-105.263157894737,4,2,1,70,0,0
80676,-105.263157894737,4,2,1,5,0,0
80763,-105.263157894737,4,2,1,70,0,0
80850,-105.263157894737,4,2,1,5,0,0
80937,-105.263157894737,4,2,1,70,0,0
81024,-105.263157894737,4,2,1,5,0,0
81112,-105.263157894737,4,2,1,70,0,0
81199,-105.263157894737,4,2,1,5,0,0
81286,-105.263157894737,4,2,1,70,0,0
81373,-105.263157894737,4,2,1,5,0,0
81460,-117.647058823529,4,2,1,70,0,0
87042,-111.111111111111,4,2,1,70,0,0
96809,-142.857142857143,4,2,2,70,0,0
97158,-133.333333333333,4,2,2,70,0,0
97507,-125,4,2,2,70,0,0
97856,-117.647058823529,4,2,2,70,0,0
98205,-125,4,2,1,70,0,0
109367,-100,4,2,1,75,0,1
109629,-100,4,2,1,5,0,1
109716,-100,4,2,1,75,0,1
111024,-100,4,2,1,5,0,1
111112,-100,4,2,1,75,0,1
112420,-100,4,2,1,5,0,1
112507,-100,4,2,1,75,0,1
115210,-100,4,2,1,5,0,1
115298,-100,4,2,1,75,0,1
116606,-100,4,2,1,5,0,1
116693,-100,4,2,1,75,0,1
120530,-125,4,2,1,70,0,0
126112,-111.111111111111,4,2,1,70,0,1
131693,-133.333333333333,4,2,1,70,0,0
131780,-133.333333333333,4,2,2,50,0,0
142856,-142.857142857143,4,2,2,70,0,0
154019,-117.647058823529,4,2,1,70,0,0
163786,-117.647058823529,4,2,2,75,0,0
165181,-111.111111111111,4,2,1,80,0,0
176344,-105.263157894737,4,2,1,80,0,0
180530,-105.263157894737,4,2,3,50,0,0
180705,-105.263157894737,4,2,1,80,0,0
187507,-117.647058823529,4,2,1,80,0,0
193088,-111.111111111111,4,2,1,80,0,0
203553,-166.666666666667,4,2,2,60,0,0
203815,-166.666666666667,4,2,2,5,0,0
203902,-142.857142857143,4,2,2,70,0,0
204164,-142.857142857143,4,2,2,5,0,0
204251,-100,4,2,1,80,0,1
204513,-100,4,2,1,5,0,1
204600,-100,4,2,1,80,0,1
205908,-100,4,2,1,5,0,1
205995,-100,4,2,1,80,0,1
207303,-100,4,2,1,5,0,1
207391,-100,4,2,1,80,0,1
210094,-100,4,2,1,5,0,1
210181,-100,4,2,1,80,0,1
211490,-100,4,2,1,5,0,1
211577,-100,4,2,1,80,0,1
212885,-100,4,2,1,5,0,1
212972,-100,4,2,1,80,0,1
214280,-100,4,2,1,5,0,1
214367,-100,4,2,1,80,0,1
215676,-100,4,2,1,5,0,1
215763,-100,4,2,1,80,0,1
217071,-100,4,2,1,5,0,1
217158,-100,4,2,1,80,0,1
218466,-100,4,2,1,5,0,1
218553,-100,4,2,1,80,0,1
221257,-100,4,2,1,5,0,1
221344,-100,4,2,1,80,0,1
222652,-100,4,2,1,5,0,1
222740,-100,4,2,1,80,0,1
226577,-125,4,2,2,80,0,0
228931,-125,4,2,2,5,0,0
229019,-125,4,2,2,80,0,0
232158,-125,4,2,1,70,0,0
234513,-125,4,2,1,5,0,0
234600,-125,4,2,1,70,0,0
237303,-125,4,2,1,5,0,0
237391,-125,4,2,1,70,0,0
240094,-125,4,2,1,5,0,0
240181,-117.647058823529,4,2,1,60,0,0
240530,-111.111111111111,4,2,1,75,0,0
242187,-111.111111111111,4,2,1,5,0,0
242274,-111.111111111111,4,2,1,75,0,0
262943,-111.111111111111,4,2,2,65,0,0
274019,-153.846153846153,4,2,1,70,0,0
296344,-153.846153846153,4,2,1,80,0,0
301664,-153.846153846153,4,2,1,5,0,0
301751,-153.846153846153,4,2,1,80,0,0
307027,-153.846153846153,4,2,1,30,0,0
307071,-153.846153846153,4,2,1,35,0,0
307115,-153.846153846153,4,2,1,40,0,0
307158,-153.846153846153,4,2,1,45,0,0
307202,-153.846153846153,4,2,1,50,0,0
307245,-153.846153846153,4,2,1,55,0,0
307289,-153.846153846153,4,2,1,60,0,0
307333,-153.846153846153,4,2,1,65,0,0
307376,-153.846153846153,4,2,1,70,0,0
307507,-117.647058823529,4,2,1,80,0,0
317274,-117.647058823529,4,2,2,70,0,0
318670,-117.647058823529,4,2,2,60,0,0
324251,-117.647058823529,4,2,1,70,0,0
324513,-117.647058823529,4,2,1,5,0,0
324600,-117.647058823529,4,2,1,70,0,0
325908,-117.647058823529,4,2,1,5,0,0
325995,-117.647058823529,4,2,1,70,0,0
327303,-117.647058823529,4,2,1,5,0,0
327391,-117.647058823529,4,2,1,70,0,0
328699,-117.647058823529,4,2,1,5,0,0
328786,-117.647058823529,4,2,1,70,0,0
329833,-111.111111111111,4,2,1,80,0,0
334019,-83.3333333333333,4,2,1,70,0,0
336112,-142.857142857143,4,2,2,65,0,0
336809,-100,4,2,1,80,0,1
337071,-100,4,2,1,5,0,1
337158,-100,4,2,1,80,0,1
338466,-100,4,2,1,5,0,1
338553,-100,4,2,1,80,0,1
339862,-100,4,2,1,5,0,1
339949,-100,4,2,1,80,0,1
342652,-100,4,2,1,5,0,1
342740,-100,4,2,1,80,0,1
344048,-100,4,2,1,5,0,1
344135,-100,4,2,1,80,0,1
345443,-100,4,2,1,5,0,1
345530,-100,4,2,1,80,0,1
346838,-100,4,2,1,5,0,1
346926,-100,4,2,1,80,0,1
347885,-100,4,2,1,5,0,1
347972,-100,4,2,1,80,0,1
348234,-100,4,2,1,5,0,1
348321,-100,4,2,1,80,0,1
349629,-100,4,2,1,5,0,1
349716,-100,4,2,1,80,0,1
351024,-100,4,2,1,5,0,1
351112,-100,4,2,1,80,0,1
353815,-100,4,2,1,5,0,1
353902,-100,4,2,1,80,0,1
355210,-100,4,2,1,5,0,1
355298,-100,4,2,1,80,0,1
361926,375,4,2,1,60,1,0
362301,400,4,2,1,60,1,0
362701,444.444444444444,4,2,1,60,1,0
363145,500,4,2,1,60,1,0
363639,967.741935483871,4,2,1,70,1,0
363639,-111.111111111111,4,2,1,70,0,0
366542,-111.111111111111,4,2,1,40,0,0
367509,821.917808219178,4,2,2,50,1,0
367919,681.818181818182,4,2,2,50,1,0
368543,1079.62213225371,4,2,2,50,1,0
371712,1500,4,2,2,50,1,0
372712,1000,4,2,2,50,1,0
374712,1210.8980827447,4,2,2,50,1,0
375317,-100,4,2,2,5,0,0
375922,-100,4,2,2,50,0,0
376528,-100,4,2,2,5,0,0
376982,652.173913043478,4,2,2,50,1,0
377748,652.173913043478,4,2,2,45,1,0
377748,-200,4,2,2,45,0,0
377911,-200,4,2,2,20,0,0
380682,-200,4,2,2,5,0,0

[Colours]
Combo1 : 129,137,197
Combo2 : 235,179,175
Combo3 : 157,196,217
Combo4 : 208,153,207
SliderBorder : 135,158,220
SliderTrackOverride : 2,2,15

[HitObjects]
173,217,2843,22,0,P|141:168|150:112,1,116.666666666667,8|2,0:0|0:0,0:0:0:0:
217,153,3383,2,0,P|263:169|325:140,1,116.666666666667,2|8,0:0|0:0,0:0:0:0:
321,66,3924,2,0,P|276:46|212:69,1,116.666666666667,8|2,0:0|0:0,0:0:0:0:
217,153,4464,2,0,P|251:209|223:282,1,116.666666666667,2|8,0:0|0:0,0:0:0:0:
69,242,5005,22,0,P|125:208|198:236,1,116.666666666667,8|2,0:0|0:0,0:0:0:0:
135,285,5545,2,0,P|146:315|144:363,2,58.3333333333333,2|2|8,0:0|0:0|0:0,0:0:0:0:
69,242,6086,2,0,P|35:186|63:113,1,116.666666666667,8|2,0:0|0:0,0:0:0:0:
73,61,6626,2,0,L|3:62,2,58.3333333333333,2|2|8,0:0|0:0|0:0,0:0:0:0:
159,137,7167,22,0,L|22:138,1,116.666666666667,8|2,0:0|0:0,0:0:0:0:
46,219,7707,2,0,L|182:220,1,116.666666666667,2|8,0:0|0:0,0:0:0:0:
235,177,8248,2,0,B|249:150|240:117|240:117|226:77|250:39,1,116.666666666667,8|2,0:0|0:0,0:0:0:0:
315,87,8788,2,0,P|365:112|420:97,1,116.666666666667,2|8,0:0|0:0,0:0:0:0:
406,209,9329,22,0,L|402:275,2,58.3333333333333,8|8|2,0:0|0:0|0:0,0:0:0:0:
482,207,9870,2,0,L|478:148,2,58.3333333333333,2|2|8,0:0|0:0|0:0,0:0:0:0:
470,282,10410,22,0,L|510:284,6,21.875,8|0|0|0|0|0|0,0:0|0:0|0:0|0:0|0:0|0:0|0:0,0:0:0:0:
416,352,10951,2,0,L|376:354,6,21.875,8|0|0|0|0|0|0,0:0|0:0|0:0|0:0|0:0|0:0|0:0,0:0:0:0:
255,330,11491,22,0,P|223:283|231:227,1,116.666666666667,8|2,0:0|0:0,0:0:0:0:
271,162,12032,2,0,P|303:210|296:266,1,116.666666666667,2|8,0:0|0:0,0:0:0:0:
231,227,12572,2,0,P|183:259|126:252,1,116.666666666667,8|2,0:0|0:0,0:0:0:0:
62,213,13113,2,0,P|109:180|179:196,1,116.666666666667,2|8,0:0|0:0,0:0:0:0:
153,355,13653,22,0,P|120:307|127:251,1,116.666666666667,8|2,0:0|0:0,0:0:0:0:
165,186,14194,2,0,P|172:154|167:109,2,58.3333333333333,2|2|8,0:0|0:0|0:0,0:0:0:0:
231,227,14734,2,0,L|358:225,1,116.666666666667,8|2,0:0|0:0,0:0:0:0:
368,152,15275,2,0,L|251:150,1,116.666666666667,2|8,0:0|0:0,0:0:0:0:
414,86,15815,22,0,P|446:143|424:209,1,116.666666666667,8|2,0:0|0:0,0:0:0:0:
368,152,16356,2,0,P|336:95|358:29,1,116.666666666667,2|8,0:0|0:0,0:0:0:0:
414,86,16897,2,0,L|488:83,2,58.3333333333333,8|8|2,0:0|0:0|0:0,0:0:0:0:
368,152,17437,2,0,L|294:149,2,58.3333333333333,2|2|8,0:0|0:0|0:0,0:0:0:0:
436,190,17978,22,0,L|510:187,2,58.3333333333333,8|8|2,0:0|0:0|0:0,0:0:0:0:
390,256,18518,2,0,L|316:253,2,58.3333333333333,2|2|8,0:0|0:0|0:0,0:0:0:0:
467,290,19059,2,0,P|467:223|424:182,1,116.666666666667,8|2,0:0|0:0,0:0:0:0:
390,256,19599,2,0,P|390:323|433:364,1,116.666666666667,2|8,0:0|0:0,0:0:0:0:
313,354,20140,22,0,B|292:326|292:326|249:339|249:339|231:294|231:294|145:330|107:250|107:250|102:343|22:355,1,419.999987182618,2|8,0:0|0:0,0:0:0:0:
256,192,22437,12,0,24464,0:0:0:0:
402,285,25647,22,0,P|409:325|401:360,1,70,2|6,0:0|0:0,0:0:0:0:
322,275,25995,2,0,P|358:219|481:274,1,210,2|8,0:0|0:0,0:0:0:0:
322,275,26867,1,0,0:0:0:0:
322,275,27216,22,0,P|261:307|182:265,1,140,8|0,0:0|0:0,0:0:0:0:
204,149,27914,2,0,B|182:181|196:219|196:219|210:256|189:309,1,140,8|2,0:0|0:0,0:0:0:0:
273,192,28437,22,0,P|286:136|229:68,1,140,6|0,0:0|0:0,0:0:0:0:
171,29,28960,2,0,P|160:96|203:148,1,140,0|8,0:0|0:0,0:0:0:0:
375,72,29658,22,0,B|327:62|327:62|281:80|281:80|208:66,1,140,0|8,0:0|0:0,0:0:0:0:
375,72,30356,1,0,0:0:0:0:
171,26,31053,5,2,0:0:0:0:
166,39,31141,1,0,0:0:0:0:
160,52,31228,1,0,0:0:0:0:
153,212,31577,5,0,0:0:0:0:
131,292,31751,2,0,P|79:249|79:182,1,140,0|8,0:0|0:0,0:0:0:0:
293,215,32449,2,0,L|148:212,1,140,0|8,0:0|0:0,0:0:0:0:
293,215,33147,1,0,0:0:0:0:
293,215,33495,2,0,P|339:268|329:342,1,140,8|2,0:0|0:0,0:0:0:0:
253,293,33931,1,0,0:0:0:0:
263,293,34019,22,0,B|315:287|315:287|370:303|370:303|426:299,1,140,6|8,0:0|0:0,0:0:0:0:
477,199,34542,2,0,B|455:218|451:246|451:246|490:286|460:351,1,140,0|8,0:0|0:0,0:0:0:0:
477,199,35240,22,0,P|463:156|378:122,1,140,0|8,0:0|0:0,0:0:0:0:
380,121,35937,1,0,0:0:0:0:
380,121,36635,2,0,P|362:120|329:113,1,35,2|0,0:0|0:0,0:0:0:0:
270,157,36809,22,0,B|251:206|251:206|288:256|259:305,1,148.750002837181,6|0,0:0|0:0,0:0:0:0:
132,294,37333,2,0,P|205:265|271:308,1,148.750002837181,2|0,0:0|0:0,0:0:0:0:
96,82,38030,1,2,0:0:0:0:
20,177,38205,22,0,L|186:180,1,148.750002837181,0|2,0:0|0:0,0:0:0:0:
244,79,38728,2,0,L|78:82,1,148.750002837181,0|2,0:0|0:0,0:0:0:0:
298,168,39426,1,0,0:0:0:0:
324,258,39600,22,0,B|378:244|389:193|389:193|421:185|464:213,1,148.750002837181,2|0,0:0|0:0,0:0:0:0:
512,295,40123,2,0,L|420:285,1,74.3750014185906,2|8,0:0|0:0,0:0:0:0:
314,361,40472,2,0,L|406:351,1,74.3750014185906
242,297,40821,22,0,B|169:267|168:323|71:281,1,148.750002837181,2|0,0:0|0:0,0:0:0:0:
111,154,41519,1,0,0:0:0:0:
33,135,41693,2,0,P|66:86|172:101,1,148.750002837181,8|0,0:0|0:0,0:0:0:0:
224,218,42216,22,0,L|298:222,1,74.3750014185906,0|2,0:0|0:0,0:0:0:0:
409,266,42565,1,0,0:0:0:0:
367,118,42740,2,0,L|272:124,1,74.3750014185906,0|2,0:0|0:0,0:0:0:0:
407,25,43088,1,8,0:0:0:0:
464,142,43263,1,0,0:0:0:0:
409,266,43437,2,0,P|400:235|404:191,1,74.3750014185906,0|2,0:0|0:0,0:0:0:0:
492,359,43786,22,0,P|420:349|336:343,1,148.750002837181,0|2,0:0|0:0,0:0:0:0:
268,249,44309,2,0,P|270:211|270:174,1,74.3750014185906,0|8,0:0|0:0,0:0:0:0:
146,223,44658,2,0,P|145:260|148:297,1,74.3750014185906
250,356,45007,1,0,0:0:0:0:
185,140,45181,21,2,0:0:0:0:
54,185,45356,1,0,0:0:0:0:
203,58,45530,2,0,P|167:56|133:71,1,74.3750014185906,2|2,0:0|0:0,0:0:0:0:
268,249,45879,1,8,0:0:0:0:
146,223,46053,1,0,0:0:0:0:
287,82,46228,2,0,P|288:45|274:10,1,74.3750014185906,4|2,0:0|0:0,0:0:0:0:
185,140,46577,21,2,0:0:0:0:
328,176,46752,1,8,0:0:0:0:
357,174,46839,1,8,0:0:0:0:
387,173,46926,1,8,0:0:0:0:
461,69,47101,1,2,0:0:0:0:
483,225,47275,1,8,0:0:0:0:
373,68,47450,1,2,0:0:0:0:
409,261,47624,1,8,0:0:0:0:
508,140,47798,1,2,0:0:0:0:
372,336,47972,22,0,P|401:345|482:223,1,209.999993591309,6|8,0:0|0:0,0:0:0:0:
220,351,49367,22,0,B|291:315|305:378|379:331,1,157.499995193482,2|2,0:0|0:0,0:0:0:0:
327,262,50065,2,0,L|323:222,6,26.2499991989136,8|0|0|0|0|0|8,0:0|0:0|0:0|0:0|0:0|0:0|0:0,0:0:0:0:
409,261,50763,22,0,L|392:92,1,157.499995193482,6|0,0:0|0:0,0:0:0:0:
308,144,51460,1,8,0:0:0:0:
308,144,52158,22,0,B|269:174|210:172|210:172|197:135|163:125,1,157.499995193482,2|2,0:0|0:0,0:0:0:0:
119,76,52856,2,0,P|100:108|96:145,1,52.4999983978272,8|0,0:0|0:0,0:0:0:0:
132,200,53205,2,0,L|98:202,2,26.2499991989136,2|0|8,0:0|0:0|0:0,0:0:0:0:
177,131,53553,21,6,0:0:0:0:
177,131,54251,2,0,P|198:97|134:0,1,157.499995193482,8|8,0:0|0:0,0:0:0:0:
119,76,54949,22,0,L|298:65,1,157.499995193482,2|2,0:0|0:0,0:0:0:0:
355,116,55647,2,0,L|356:158,6,26.2499991989136,8|0|0|0|0|0|8,0:0|0:0|0:0|0:0|0:0|0:0|0:0,0:0:0:0:
391,35,56344,22,0,B|428:73|428:73|434:187,1,157.499995193482,6|0,0:0|0:0,0:0:0:0:
362,252,57042,1,8,0:0:0:0:
362,252,57740,21,2,0:0:0:0:
197,232,58088,1,0,0:0:0:0:
323,166,58437,2,0,L|350:166,9,17.4999994659424
197,232,59135,22,0,P|257:230|290:243,1,78.7499975967408,2|0,0:0|0:0,0:0:0:0:
362,252,59397,1,0,0:0:0:0:
375,271,59484,1,2,0:0:0:0:
323,166,59658,2,0,B|314:123|314:123|331:73,1,78.7499975967408,0|2,0:0|0:0,0:0:0:0:
462,222,60007,2,0,B|473:254|473:254|464:297,1,78.7499975967408,0|2,0:0|0:0,0:0:0:0:
388,358,60269,1,0,0:0:0:0:
358,355,60356,22,0,L|279:351,1,78.7499975967408,2|0,0:0|0:0,0:0:0:0:
138,235,60705,2,0,L|216:231,1,78.7499975967408,0|2,0:0|0:0,0:0:0:0:
68,172,61053,2,0,P|40:223|46:265,1,78.7499975967408,0|2,0:0|0:0,0:0:0:0:
100,357,61403,1,0,0:0:0:0:
139,354,61490,1,0,0:0:0:0:
178,352,61577,1,2,0:0:0:0:
216,230,61751,2,0,L|176:231,1,39.3749987983704
68,172,61926,22,0,P|102:149|88:42,1,157.499995193482,2|2,0:0|0:0,0:0:0:0:
225,76,62449,2,0,L|303:74,1,78.7499975967408,0|2,0:0|0:0,0:0:0:0:
425,181,62798,2,0,L|346:179,1,78.7499975967408,0|2,0:0|0:0,0:0:0:0:
246,281,63147,1,0,0:0:0:0:
280,289,63234,1,0,0:0:0:0:
314,282,63321,21,2,0:0:0:0:
479,309,63495,1,0,0:0:0:0:
444,300,63582,1,0,0:0:0:0:
410,307,63669,1,2,0:0:0:0:
236,364,63844,2,0,P|286:373|331:362,1,78.7499975967408,0|2,0:0|0:0,0:0:0:0:
425,181,64193,1,0,0:0:0:0:
288,131,64367,2,0,P|279:181|290:226,1,78.7499975967408,2|0,0:0|0:0,0:0:0:0:
246,281,64629,1,0,0:0:0:0:
246,281,64716,22,0,L|146:283,1,78.7499975967408,2|0,0:0|0:0,0:0:0:0:
98,239,64978,1,0,0:0:0:0:
85,220,65065,1,2,0:0:0:0:
177,112,65240,2,0,P|186:162|175:207,1,78.7499975967408,0|2,0:0|0:0,0:0:0:0:
73,107,65588,2,0,P|64:68|68:29,1,78.7499975967408,0|2,0:0|0:0,0:0:0:0:
173,18,65850,1,0,0:0:0:0:
199,30,65937,22,0,B|233:37|233:37|276:28,1,78.7499975967408,0|2,0:0|0:0,0:0:0:0:
407,101,66286,2,0,B|372:93|372:93|329:102,1,78.7499975967408,0|2,0:0|0:0,0:0:0:0:
498,139,66635,2,0,L|489:48,1,78.7499975967408,0|2,0:0|0:0,0:0:0:0:
381,15,66984,1,0,0:0:0:0:
351,16,67071,1,0,0:0:0:0:
329,18,67158,1,2,0:0:0:0:
407,101,67333,2,0,L|410:140,1,39.3749987983704
381,300,67507,22,0,P|408:231|487:220,1,157.499995193482,2|2,0:0|0:0,0:0:0:0:
480,367,68030,2,0,P|473:315|443:272,1,78.7499975967408,0|2,0:0|0:0,0:0:0:0:
315,220,68379,2,0,P|300:256|301:316,1,78.7499975967408,0|2,0:0|0:0,0:0:0:0:
231,181,68728,1,0,0:0:0:0:
196,183,68815,1,0,0:0:0:0:
160,185,68902,21,2,0:0:0:0:
75,267,69077,2,0,L|169:273,1,78.7499975967408,0|2,0:0|0:0,0:0:0:0:
246,93,69426,2,0,L|152:99,1,78.7499975967408,0|2,0:0|0:0,0:0:0:0:
49,178,69774,1,0,0:0:0:0:
70,68,69949,1,2,0:0:0:0:
180,183,70123,1,0,0:0:0:0:
237,11,70298,22,0,B|363:9|363:9|329:30|325:58,1,166.249995560646,2|2,0:0|0:0,0:0:0:0:
246,93,70821,1,0,0:0:0:0:
402,77,70995,2,0,P|416:126|405:171,1,83.1249977803231,8|0,0:0|0:0,0:0:0:0:
328,274,71344,1,2,0:0:0:0:
332,125,71519,1,0,0:0:0:0:
441,347,71693,22,0,B|405:371|405:371|368:349|368:349|323:377|265:337,1,166.249995560646,2|2,0:0|0:0,0:0:0:0:
389,230,72216,1,0,0:0:0:0:
508,293,72391,1,8,0:0:0:0:
483,131,72565,1,0,0:0:0:0:
483,131,72652,1,0,0:0:0:0:
483,131,72740,2,0,L|482:29,1,83.1249977803231,2|0,0:0|0:0,0:0:0:0:
374,148,73088,22,0,P|310:214|335:289,1,166.249995560646,2|2,0:0|0:0,0:0:0:0:
240,115,73612,2,0,P|192:123|148:110,1,83.1249977803231,0|8,0:0|0:0,0:0:0:0:
52,209,73960,2,0,P|100:201|144:214,1,83.1249977803231,0|2,0:0|0:0,0:0:0:0:
232,288,74309,1,0,0:0:0:0:
246,318,74397,1,0,0:0:0:0:
260,348,74484,21,2,0:0:0:0:
307,200,74658,1,0,0:0:0:0:
240,115,74833,1,2,0:0:0:0:
232,288,75007,1,0,0:0:0:0:
357,110,75181,2,0,L|352:21,1,83.1249977803231,8|0,0:0|0:0,0:0:0:0:
240,115,75530,1,2,0:0:0:0:
410,196,75705,22,0,P|445:161|458:110,1,83.1249977803231,0|2,0:0|0:0,0:0:0:0:
240,115,76053,1,0,0:0:0:0:
333,240,76228,2,0,P|359:271|397:288,1,83.1249977803231,2|0,0:0|0:0,0:0:0:0:
357,110,76577,1,8,0:0:0:0:
218,219,76751,1,0,0:0:0:0:
410,196,76926,1,2,0:0:0:0:
240,115,77100,1,0,0:0:0:0:
325,322,77274,22,0,L|333:234,1,83.1249977803231,2|0,0:0|0:0,0:0:0:0:
218,219,77623,1,0,0:0:0:0:
195,221,77710,1,0,0:0:0:0:
174,223,77798,1,2,0:0:0:0:
122,343,77972,1,8,0:0:0:0:
145,345,78059,1,0,0:0:0:0:
166,347,78147,1,2,0:0:0:0:
264,295,78321,1,2,0:0:0:0:
250,140,78495,1,0,0:0:0:0:
244,127,78583,1,0,0:0:0:0:
240,115,78670,22,0,L|241:10,1,83.1249977803231,2|0,0:0|0:0,0:0:0:0:
100,178,79019,1,2,0:0:0:0:
85,46,79193,1,0,0:0:0:0:
250,140,79367,2,0,P|293:171|314:213,1,83.1249977803231,8|0,0:0|0:0,0:0:0:0:
157,98,79716,1,2,0:0:0:0:
291,25,79891,1,0,0:0:0:0:
224,223,80065,22,0,P|193:266|151:287,1,83.1249977803231,2|2,0:0|0:0,0:0:0:0:
277,313,80327,1,0,0:0:0:0:
277,313,80414,2,0,L|334:320,1,41.5624988901615,8|0,0:0|0:0,0:0:0:0:
462,243,80588,2,0,L|421:249,1,41.5624988901615,8|0,0:0|0:0,0:0:0:0:
303,158,80763,2,0,L|360:165,1,41.5624988901615,2|0,0:0|0:0,0:0:0:0:
468,79,80937,2,0,L|426:84,1,41.5624988901615,2|0,0:0|0:0,0:0:0:0:
316,16,81112,2,0,L|318:57,1,41.5624988901615,8|0,0:0|0:0,0:0:0:0:
205,143,81286,2,0,L|207:101,1,41.5624988901615,8|0,0:0|0:0,0:0:0:0:
186,5,81460,21,6,0:0:0:0:
243,236,81809,1,2,0:0:0:0:
264,256,82158,1,2,0:0:0:0:
286,276,82507,1,8,0:0:0:0:
144,255,82856,21,2,0:0:0:0:
286,276,83205,1,2,0:0:0:0:
307,296,83553,1,2,0:0:0:0:
329,316,83902,1,8,0:0:0:0:
144,255,84251,21,2,0:0:0:0:
329,316,84600,1,2,0:0:0:0:
350,336,84949,1,2,0:0:0:0:
372,356,85298,1,8,0:0:0:0:
144,255,85647,21,2,0:0:0:0:
161,279,85995,1,2,0:0:0:0:
178,303,86344,2,0,P|176:353|190:383,1,74.3750014185906,2|0,0:0|0:0,0:0:0:0:
329,316,86693,2,0,P|331:266|317:236,1,74.3750014185906,10|0,0:0|0:0,0:0:0:0:
183,163,87042,22,0,B|221:188|267:183|267:183|299:157|343:167,1,157.499995193482,6|2,0:0|0:0,0:0:0:0:
431,216,87565,1,0,0:0:0:0:
359,93,87740,2,0,P|307:88|273:97,1,78.7499975967408,2|0,0:0|0:0,0:0:0:0:
435,135,88088,2,0,P|487:140|521:131,1,78.7499975967408,8|0,0:0|0:0,0:0:0:0:
359,93,88437,22,0,P|364:41|355:7,1,78.7499975967408,2|0,0:0|0:0,0:0:0:0:
352,178,88786,2,0,P|347:230|356:264,1,78.7499975967408,2|0,0:0|0:0,0:0:0:0:
277,125,89135,2,0,P|225:120|191:129,1,78.7499975967408,2|0,0:0|0:0,0:0:0:0:
91,223,89484,2,0,P|143:228|177:219,1,78.7499975967408,8|0,0:0|0:0,0:0:0:0:
124,61,89833,22,0,P|119:113|128:147,1,78.7499975967408,2|0,0:0|0:0,0:0:0:0:
251,280,90181,2,0,P|256:228|247:194,1,78.7499975967408,2|0,0:0|0:0,0:0:0:0:
164,318,90530,1,2,0:0:0:0:
279,371,90705,1,0,0:0:0:0:
327,261,90879,2,0,L|215:288,1,78.7499975967408,8|0,0:0|0:0,0:0:0:0:
427,249,91228,22,0,L|503:267,1,78.7499975967408,2|0,0:0|0:0,0:0:0:0:
346,168,91577,2,0,L|269:186,1,78.7499975967408,2|0,0:0|0:0,0:0:0:0:
392,334,91926,2,0,L|468:352,1,78.7499975967408,2|0,0:0|0:0,0:0:0:0:
437,157,92274,2,0,P|424:122|388:89,1,78.7499975967408,8|0,0:0|0:0,0:0:0:0:
212,50,92623,22,0,B|257:86|326:44|326:44|306:94,1,157.499995193482,6|2,0:0|0:0,0:0:0:0:
269,186,93147,1,2,0:0:0:0:
134,86,93321,2,0,P|129:37|141:4,1,78.7499975967408,8|0,0:0|0:0,0:0:0:0:
104,178,93670,1,2,0:0:0:0:
212,50,93844,1,0,0:0:0:0:
190,188,94019,22,0,L|278:185,1,78.7499975967408
350,292,94367,2,0,L|262:289,1,78.7499975967408,2|0,0:0|0:0,0:0:0:0:
185,277,94716,2,0,L|188:356,1,78.7499975967408,8|0,0:0|0:0,0:0:0:0:
350,292,95065,1,0,0:0:0:0:
269,186,95240,1,0,0:0:0:0:
445,286,95414,21,2,0:0:0:0:
446,148,95588,1,0,0:0:0:0:
350,292,95763,1,2,0:0:0:0:
510,220,95937,1,2,0:0:0:0:
345,174,96112,2,0,P|295:188|255:182,1,78.7499975967408,8|0,0:0|0:0,0:0:0:0:
101,104,96460,2,0,P|151:90|191:96,1,78.7499975967408,2|0,0:0|0:0,0:0:0:0:
158,182,96809,22,0,P|152:209|155:251,2,40.8333320871989,8|0|2,0:0|0:0|0:0,0:0:0:0:
227,269,97158,2,0,P|232:296|251:333,2,43.7500016689301,8|0|2,0:0|0:0|0:0,0:0:0:0:
330,323,97507,2,0,P|345:346|377:373,2,46.6666666666667,8|0|2,0:0|0:0|0:0,0:0:0:0:
440,321,97856,2,0,P|463:336|503:348,2,49.5833342790604,8|0|2,0:0|0:0|0:0,0:0:0:0:
388,241,98205,22,0,L|397:90,2,140,2|2|8,0:0|0:0|0:0,0:0:0:0:
396,101,99251,1,0,0:0:0:0:
264,102,99600,22,0,P|327:81|411:112,1,140,0|2,0:0|0:0,0:0:0:0:
263,101,100298,2,0,P|200:122|116:91,1,140,8|0,0:0|0:0,0:0:0:0:
263,101,100995,22,0,L|255:241,2,140,2|2|8,0:0|0:0|0:0,0:0:0:0:
263,101,102042,1,0,0:0:0:0:
255,240,102391,21,2,0:0:0:0:
255,241,103088,2,0,B|224:257|224:257|191:232|134:250,2,93.3333333333333,8|2|8,0:0|0:0|0:0,0:0:0:0:
174,327,103786,21,2,0:0:0:0:
482,338,104484,1,8,0:0:0:0:
243,67,105181,21,2,0:0:0:0:
314,174,105530,1,2,0:0:0:0:
385,67,105879,1,8,0:0:0:0:
165,240,106577,21,2,0:0:0:0:
437,178,107274,1,8,0:0:0:0:
167,116,107972,21,2,0:0:0:0:
164,244,108321,1,2,0:0:0:0:
48,192,108670,2,0,P|32:149|34:104,1,70,8|0,0:0|0:0,0:0:0:0:
116,51,109019,2,0,P|123:20|125:-5,3,35,2|0|0|0,0:0|0:0|0:0|0:0,0:0:0:0:
167,116,109367,22,0,P|219:89|298:126,1,131.25,6|0,0:0|0:0,0:0:0:0:
236,247,109716,2,0,B|222:204|222:204|234:144,1,87.5,2|0,0:0|0:0,0:0:0:0:
347,242,110065,1,2,0:0:0:0:
292,359,110240,1,0,0:0:0:0:
419,192,110414,2,0,B|433:235|433:235|421:295,1,87.5,8|0,0:0|0:0,0:0:0:0:
236,247,110763,22,0,B|193:237|193:237|154:247|154:247|83:230,1,131.25,2|0,0:0|0:0,0:0:0:0:
29,227,111112,2,0,P|47:185|86:161,1,87.5,2|0,0:0|0:0,0:0:0:0:
236,247,111460,1,2,0:0:0:0:
122,357,111635,1,0,0:0:0:0:
262,167,111809,2,0,P|305:204|318:256,1,87.5,8|0,0:0|0:0,0:0:0:0:
240,366,112158,22,0,B|263:334|304:324|304:324|352:327|385:292,1,131.25,6|0,0:0|0:0,0:0:0:0:
458,291,112507,2,0,B|443:271|443:271|435:232|450:192,1,87.5,2|0,0:0|0:0,0:0:0:0:
262,167,112856,1,2,0:0:0:0:
240,366,113030,1,0,0:0:0:0:
181,140,113205,2,0,P|215:98|257:85,1,87.5,8|0,0:0|0:0,0:0:0:0:
60,218,113553,22,0,P|93:146|204:158,1,175,2|2,0:0|0:0,0:0:0:0:
283,252,114077,1,0,0:0:0:0:
151,335,114251,2,0,B|129:272|129:272|146:188,2,131.25,2|0|2,0:0|0:0|0:0,0:0:0:0:
393,293,114949,22,0,P|330:244|261:270,1,131.25,6|0,0:0|0:0,0:0:0:0:
254,377,115298,2,0,P|301:355|323:305,1,87.5,2|0,0:0|0:0,0:0:0:0:
301,161,115647,1,2,0:0:0:0:
217,299,115821,1,0,0:0:0:0:
189,83,115995,2,0,L|294:80,1,87.5,8|0,0:0|0:0,0:0:0:0:
432,158,116344,22,0,L|300:161,1,131.25,2|0,0:0|0:0,0:0:0:0:
275,239,116693,2,0,P|239:214|221:175,1,87.5,2|0,0:0|0:0,0:0:0:0:
355,79,117042,1,2,0:0:0:0:
362,245,117216,1,0,0:0:0:0:
443,73,117391,2,0,P|418:11|375:-10,1,87.5,8|0,0:0|0:0,0:0:0:0:
275,239,117740,22,0,L|388:248,1,87.5,6|0,0:0|0:0,0:0:0:0:
443,73,118088,1,2,0:0:0:0:
453,240,118263,1,0,0:0:0:0:
355,79,118437,2,0,L|442:72,1,87.5,2|0,0:0|0:0,0:0:0:0:
362,245,118786,1,8,0:0:0:0:
501,152,118960,1,0,0:0:0:0:
303,159,119135,22,0,P|275:209|280:262,1,87.5,2|0,0:0|0:0,0:0:0:0:
231,369,119397,1,0,0:0:0:0:
229,348,119484,2,0,P|219:305|191:272,1,87.5,2|0,0:0|0:0,0:0:0:0:
86,131,119833,1,2,0:0:0:0:
213,149,120007,1,0,0:0:0:0:
95,259,120181,1,8,0:0:0:0:
219,65,120356,1,0,0:0:0:0:
256,68,120443,1,0,0:0:0:0:
289,72,120530,22,0,B|338:71|338:71|372:87|372:87|438:85,1,140,6|0,0:0|0:0,0:0:0:0:
404,9,121053,1,2,0:0:0:0:
404,9,121141,1,0,0:0:0:0:
404,9,121228,2,0,B|473:7,1,70,8|0,0:0|0:0,0:0:0:0:
289,72,121577,2,0,B|209:65,1,70,0|2,0:0|0:0,0:0:0:0:
374,196,121926,22,0,P|383:151|366:108,2,93.3333333333333,0|2|8,0:0|0:0|0:0,0:0:0:0:
280,278,122536,1,0,0:0:0:0:
280,278,122623,2,0,B|325:265|325:265|355:285|399:276,2,105,2|8|2,0:0|0:0|0:0,0:0:0:0:
187,337,123321,21,2,0:0:0:0:
277,374,123495,1,0,0:0:0:0:
169,226,123670,1,0,0:0:0:0:
258,175,123844,1,2,0:0:0:0:
187,337,124019,2,0,P|141:357|98:353,1,70,8|0,0:0|0:0,0:0:0:0:
7,275,124367,2,0,P|53:255|96:259,1,70,2|0,0:0|0:0,0:0:0:0:
187,337,124716,21,2,0:0:0:0:
183,357,124803,1,0,0:0:0:0:
262,195,124978,1,0,0:0:0:0:
258,175,125065,1,2,0:0:0:0:
293,343,125240,21,2,0:0:0:0:
324,357,125327,1,0,0:0:0:0:
359,359,125414,1,8,0:0:0:0:
396,352,125501,1,0,0:0:0:0:
428,339,125588,1,0,0:0:0:0:
467,196,125763,2,0,P|492:244|494:286,1,70,8|2,0:0|0:0,0:0:0:0:
258,175,126112,22,0,B|295:130|295:130|335:121|335:121|334:88|354:62,1,157.499995193482,12|2,0:0|0:0,0:0:0:0:
346,206,126635,1,8,0:0:0:0:
274,28,126809,1,2,0:0:0:0:
258,175,126984,1,0,0:0:0:0:
351,66,127158,1,8,0:0:0:0:
283,263,127333,1,0,0:0:0:0:
208,83,127507,21,2,0:0:0:0:
346,206,127681,1,8,0:0:0:0:
274,28,127856,1,2,0:0:0:0:
204,241,128030,1,0,0:0:0:0:
417,119,128205,21,2,0:0:0:0:
374,287,128379,1,8,0:0:0:0:
274,28,128553,1,2,0:0:0:0:
283,263,128728,1,0,0:0:0:0:
454,44,128902,22,0,B|510:73|513:153|513:153|466:168,1,157.499995193482,12|2,0:0|0:0,0:0:0:0:
258,175,129426,1,8,0:0:0:0:
417,119,129600,1,2,0:0:0:0:
374,287,129774,1,0,0:0:0:0:
274,28,129949,1,8,0:0:0:0:
283,263,130123,1,0,0:0:0:0:
454,44,130298,21,2,0:0:0:0:
454,247,130472,1,8,0:0:0:0:
351,66,130647,1,2,0:0:0:0:
446,334,130821,1,0,0:0:0:0:
417,119,130995,21,2,0:0:0:0:
308,339,131170,1,8,0:0:0:0:
258,175,131344,1,2,0:0:0:0:
377,378,131519,1,0,0:0:0:0:
487,161,131693,21,14,0:0:0:0:
256,192,131780,12,6,133088,0:0:0:0:
138,303,142769,22,0,P|128:293|120:283,2,16.4062506258488
138,303,144077,21,8,0:0:0:0:
168,300,144164,1,8,0:0:0:0:
198,297,144251,1,12,0:0:0:0:
197,98,145734,22,0,B|221:114|250:100|250:100|251:132|310:111|384:219|246:268|220:196|204:165|295:103|295:103|325:118|356:93,1,398.12498785019,4|8,0:0|0:0,0:0:0:0:
410,47,146955,1,8,0:0:0:0:
422,39,147042,1,12,0:0:0:0:
165,94,148437,22,0,L|164:69,1,20.4166660435995,2|0,0:0|0:0,0:0:0:0:
241,171,148786,2,0,B|260:197|260:197|245:227|245:227|283:235|323:266|303:383|174:354|192:265,1,306.249990653992,0|8,0:0|0:0,0:0:0:0:
165,199,149745,1,8,0:0:0:0:
154,188,149833,1,12,0:0:0:0:
241,171,151053,1,0,0:0:0:0:
339,190,151228,22,0,B|400:209|397:161|477:204,1,122.499996261597,2|0,0:0|0:0,0:0:0:0:
512,271,151751,2,0,P|487:210|515:141,1,122.499996261597
339,190,152449,1,8,0:0:0:0:
340,207,152536,1,8,0:0:0:0:
341,220,152623,21,0,0:0:0:0:
280,296,152798,1,0,0:0:0:0:
280,296,153147,2,0,P|345:316|407:291,1,122.499996261597
496,73,154019,22,0,B|455:92|404:77|404:77|381:53|347:54,1,148.750002837181,2|0,0:0|0:0,0:0:0:0:
223,144,154542,2,0,P|278:169|357:109,1,148.750002837181,2|0,0:0|0:0,0:0:0:0:
349,128,155240,1,0,0:0:0:0:
465,194,155414,22,0,P|427:140|338:132,1,148.750002837181,0|2,0:0|0:0,0:0:0:0:
294,228,155937,2,0,P|332:282|421:290,1,148.750002837181
179,124,156635,1,0,0:0:0:0:
194,235,156809,22,0,P|136:243|17:248,1,148.750002837181,2|0,0:0|0:0,0:0:0:0:
30,137,157333,2,0,P|88:129|207:124,1,148.750002837181,2|0,0:0|0:0,0:0:0:0:
338,232,158030,22,0,B|258:268|265:199|172:243,1,148.750002837181
193,234,158728,1,0,0:0:0:0:
298,152,158902,2,0,L|291:56,1,74.3750014185906,8|0,0:0|0:0,0:0:0:0:
199,159,159251,2,0,L|193:233,1,74.3750014185906
365,319,159600,22,0,P|283:288|211:338,1,148.750002837181,2|0,0:0|0:0,0:0:0:0:
297,379,160123,1,2,0:0:0:0:
376,225,160298,2,0,P|383:173|375:132,1,74.3750014185906,8|0,0:0|0:0,0:0:0:0:
228,89,160647,2,0,P|221:141|229:182,1,74.3750014185906,2|0,0:0|0:0,0:0:0:0:
376,70,160995,22,0,L|215:91,1,148.750002837181,0|2,0:0|0:0,0:0:0:0:
130,173,161519,2,0,L|208:185,1,74.3750014185906,0|8,0:0|0:0,0:0:0:0:
114,71,161867,2,0,L|29:91,1,74.3750014185906
15,198,162216,1,0,0:0:0:0:
114,71,162391,21,0,0:0:0:0:
93,259,162565,2,0,P|87:302|90:348,1,74.3750014185906
189,375,162914,1,2,0:0:0:0:
3,286,163088,1,8,0:0:0:0:
130,173,163263,2,0,P|171:175|225:171,1,74.3750014185906,0|2,0:0|0:0,0:0:0:0:
262,275,163612,1,0,0:0:0:0:
325,114,163786,22,0,P|304:77|285:24,1,74.3750014185906,12|8,0:0|0:0,0:0:0:0:
457,123,164048,1,8,0:0:0:0:
457,123,164135,2,0,L|414:135,1,37.1875007092953,12|0,0:0|0:0,0:0:0:0:
281,190,164309,2,0,L|324:202,1,37.1875007092953,8|0,0:0|0:0,0:0:0:0:
389,56,164484,2,0,L|379:20,1,37.1875007092953,12|0,0:0|0:0,0:0:0:0:
420,230,164658,2,0,L|410:265,1,37.1875007092953,8|0,0:0|0:0,0:0:0:0:
475,43,164833,2,0,L|465:7,1,37.1875007092953,12|0,0:0|0:0,0:0:0:0:
506,217,165007,2,0,L|496:252,1,37.1875007092953,8|0,0:0|0:0,0:0:0:0:
482,361,165181,22,0,B|441:350|441:350|374:354,1,78.7499975967408,6|0,0:0|0:0,0:0:0:0:
330,374,165443,1,2,0:0:0:0:
307,380,165530,1,2,0:0:0:0:
326,245,165705,2,0,P|332:202|317:158,1,78.7499975967408,2|8,0:0|0:0,0:0:0:0:
224,292,166053,1,0,0:0:0:0:
224,312,166140,1,0,0:0:0:0:
225,331,166228,1,2,0:0:0:0:
242,207,166402,22,0,L|157:208,1,78.7499975967408,0|2,0:0|0:0,0:0:0:0:
48,287,166751,2,0,L|133:288,1,78.7499975967408,0|2,0:0|0:0,0:0:0:0:
158,122,167100,2,0,L|73:123,1,78.7499975967408,2|8,0:0|0:0,0:0:0:0:
242,207,167449,1,0,0:0:0:0:
252,176,167536,1,0,0:0:0:0:
262,147,167623,1,2,0:0:0:0:
356,256,167798,2,0,L|309:268,1,39.3749987983704
224,339,167972,22,0,P|263:296|240:208,1,118.124996395111,2|2,0:0|0:0,0:0:0:0:
242,207,168321,1,2,0:0:0:0:
147,329,168495,2,0,P|198:341|238:334,1,78.7499975967408,2|8,0:0|0:0,0:0:0:0:
432,265,168844,2,0,P|381:253|341:260,1,78.7499975967408,0|2,0:0|0:0,0:0:0:0:
495,323,169193,1,0,0:0:0:0:
511,287,169280,1,0,0:0:0:0:
512,248,169367,21,2,0:0:0:0:
447,92,169542,1,0,0:0:0:0:
430,127,169629,1,0,0:0:0:0:
429,166,169716,1,2,0:0:0:0:
495,23,169891,2,0,P|453:8|411:16,1,78.7499975967408,2|8,0:0|0:0,0:0:0:0:
332,118,170240,1,0,0:0:0:0:
321,5,170414,2,0,P|279:20|237:12,1,78.7499975967408,2|0,0:0|0:0,0:0:0:0:
158,19,170676,1,0,0:0:0:0:
158,19,170763,22,0,P|173:61|165:103,1,78.7499975967408,2|0,0:0|0:0,0:0:0:0:
97,141,171024,1,2,0:0:0:0:
74,147,171111,1,2,0:0:0:0:
227,212,171286,2,0,L|316:200,1,78.7499975967408,2|8,0:0|0:0,0:0:0:0:
166,286,171635,1,0,0:0:0:0:
143,276,171722,1,0,0:0:0:0:
120,267,171809,1,0,0:0:0:0:
229,369,171984,22,0,P|257:318|256:284,1,78.7499975967408,0|2,0:0|0:0,0:0:0:0:
197,141,172333,2,0,P|203:179|226:211,1,78.7499975967408,0|2,0:0|0:0,0:0:0:0:
387,255,172681,2,0,P|336:227|302:228,1,78.7499975967408,0|8,0:0|0:0,0:0:0:0:
298,136,173030,1,0,0:0:0:0:
298,113,173117,1,0,0:0:0:0:
299,90,173204,1,2,0:0:0:0:
444,200,173379,2,0,P|460:219|470:250,1,39.3749987983704
428,377,173553,22,0,P|376:340|384:256,1,118.124996395111,2|0,0:0|0:0,0:0:0:0:
387,255,173902,1,2,0:0:0:0:
439,124,174077,2,0,P|450:175|428:226,1,78.7499975967408,2|8,0:0|0:0,0:0:0:0:
279,124,174426,2,0,P|268:73|290:22,1,78.7499975967408,0|2,0:0|0:0,0:0:0:0:
439,124,174774,1,0,0:0:0:0:
400,114,174861,1,0,0:0:0:0:
367,93,174948,21,2,0:0:0:0:
201,126,175123,2,0,L|300:124,1,78.7499975967408,0|2,0:0|0:0,0:0:0:0:
188,232,175472,2,0,L|109:230,1,78.7499975967408,2|8,0:0|0:0,0:0:0:0:
50,127,175821,1,0,0:0:0:0:
201,126,175995,1,2,0:0:0:0:
188,232,176170,1,0,0:0:0:0:
130,88,176344,22,0,P|163:54|260:71,1,124.687496670485,6|2,0:0|0:0,0:0:0:0:
269,75,176693,1,2,0:0:0:0:
279,194,176867,1,2,0:0:0:0:
356,89,177042,2,0,P|400:97|448:84,1,83.1249977803231,8|0,0:0|0:0,0:0:0:0:
512,207,177391,2,0,P|468:199|420:212,1,83.1249977803231,2|0,0:0|0:0,0:0:0:0:
272,294,177740,22,0,B|325:257|307:175|307:175|263:203,1,166.249995560646,2|2,0:0|0:0,0:0:0:0:
172,321,178263,1,0,0:0:0:0:
285,379,178437,1,8,0:0:0:0:
184,232,178612,1,0,0:0:0:0:
184,232,178699,1,0,0:0:0:0:
184,232,178786,2,0,L|188:136,1,83.1249977803231,2|0,0:0|0:0,0:0:0:0:
94,85,179135,22,0,P|152:110|216:56,1,124.687496670485,2|2,0:0|0:0,0:0:0:0:
229,55,179484,1,2,0:0:0:0:
24,41,179658,2,0,P|15:90|31:134,1,83.1249977803231,2|8,0:0|0:0,0:0:0:0:
94,267,180007,2,0,P|103:218|87:174,1,83.1249977803231,0|2,0:0|0:0,0:0:0:0:
26,352,180356,1,0,0:0:0:0:
59,354,180443,1,0,0:0:0:0:
92,357,180530,21,6,0:0:0:0:
184,232,180705,1,0,0:0:0:0:
20,222,180879,1,2,0:0:0:0:
92,357,181053,1,0,0:0:0:0:
270,228,181228,2,0,P|257:184|211:153,1,83.1249977803231,8|0,0:0|0:0,0:0:0:0:
60,153,181577,2,0,P|30:181|19:221,1,83.1249977803231,2|0,0:0|0:0,0:0:0:0:
262,315,181926,22,0,B|309:311|309:311|352:267,1,83.1249977803231,2|0,0:0|0:0,0:0:0:0:
413,95,182274,2,0,B|366:99|366:99|323:143,1,83.1249977803231,2|2,0:0|0:0,0:0:0:0:
456,198,182623,1,8,0:0:0:0:
479,27,182798,1,0,0:0:0:0:
374,200,182972,1,2,0:0:0:0:
508,112,183147,1,0,0:0:0:0:
387,15,183321,22,0,L|417:109,1,83.1249977803231,2|0,0:0|0:0,0:0:0:0:
456,198,183670,1,2,0:0:0:0:
479,27,183844,1,2,0:0:0:0:
308,66,184019,2,0,P|258:87|221:82,1,83.1249977803231,8|0,0:0|0:0,0:0:0:0:
290,185,184367,1,2,0:0:0:0:
252,0,184542,1,0,0:0:0:0:
202,173,184716,22,0,L|207:271,1,83.1249977803231,2|0,0:0|0:0,0:0:0:0:
308,66,185065,1,2,0:0:0:0:
123,125,185240,1,2,0:0:0:0:
290,185,185414,2,0,L|371:262,1,83.1249977803231,8|0,0:0|0:0,0:0:0:0:
230,84,185763,1,2,0:0:0:0:
201,256,185937,1,0,0:0:0:0:
361,131,186112,22,0,L|456:132,1,83.1249977803231,2|2,0:0|0:0,0:0:0:0:
456,231,186373,1,0,0:0:0:0:
456,231,186460,2,0,L|455:281,1,41.5624988901615,8|0,0:0|0:0,0:0:0:0:
361,131,186635,2,0,L|362:81,1,41.5624988901615,8|0,0:0|0:0,0:0:0:0:
374,266,186809,2,0,L|373:316,1,41.5624988901615,2|0,0:0|0:0,0:0:0:0:
277,149,186984,2,0,L|278:99,1,41.5624988901615,2|0,0:0|0:0,0:0:0:0:
288,298,187158,2,0,L|287:340,1,41.5624988901615,8|0,0:0|0:0,0:0:0:0:
195,175,187333,2,0,L|193:134,1,41.5624988901615,8|0,0:0|0:0,0:0:0:0:
128,46,187507,21,6,0:0:0:0:
24,207,187856,1,2,0:0:0:0:
45,227,188205,1,2,0:0:0:0:
67,247,188554,1,8,0:0:0:0:
68,104,188902,21,2,0:0:0:0:
67,247,189251,1,2,0:0:0:0:
88,267,189600,1,2,0:0:0:0:
110,287,189949,1,8,0:0:0:0:
68,104,190298,21,2,0:0:0:0:
110,287,190647,1,2,0:0:0:0:
131,307,190995,1,2,0:0:0:0:
153,327,191344,1,8,0:0:0:0:
68,104,191693,21,2,0:0:0:0:
89,124,192042,1,2,0:0:0:0:
111,144,192391,2,0,P|159:151|199:135,1,74.3750014185906,2|0,0:0|0:0,0:0:0:0:
289,57,192740,2,0,P|241:50|201:66,1,74.3750014185906,8|0,0:0|0:0,0:0:0:0:
346,119,193088,22,0,B|391:67|356:6|356:6|377:31|403:35,1,157.499995193482,6|0,0:0|0:0,0:0:0:0:
463,135,193612,1,2,0:0:0:0:
381,219,193786,2,0,P|329:207|281:213,1,78.7499975967408,8|0,0:0|0:0,0:0:0:0:
301,314,194135,2,0,P|353:326|401:320,1,78.7499975967408,2|0,0:0|0:0,0:0:0:0:
224,236,194484,22,0,L|217:330,1,78.7499975967408,2|0,0:0|0:0,0:0:0:0:
128,362,194833,2,0,L|122:283,1,78.7499975967408,0|2,0:0|0:0,0:0:0:0:
34,198,195181,2,0,L|27:292,1,78.7499975967408,8|0,0:0|0:0,0:0:0:0:
139,190,195530,2,0,L|133:111,1,78.7499975967408,2|0,0:0|0:0,0:0:0:0:
247,189,195879,22,0,P|285:200|340:187,1,78.7499975967408,2|0,0:0|0:0,0:0:0:0:
431,111,196228,2,0,P|393:100|338:113,1,78.7499975967408,0|2,0:0|0:0,0:0:0:0:
247,189,196577,2,0,P|258:151|245:96,1,78.7499975967408,8|0,0:0|0:0,0:0:0:0:
134,193,196926,2,0,P|123:231|136:286,1,78.7499975967408,2|0,0:0|0:0,0:0:0:0:
262,310,197274,21,2,0:0:0:0:
247,189,197449,1,0,0:0:0:0:
134,193,197623,2,0,L|52:204,1,78.7499975967408,0|2,0:0|0:0,0:0:0:0:
126,89,197972,2,0,L|208:100,1,78.7499975967408,8|0,0:0|0:0,0:0:0:0:
325,178,198321,2,0,L|243:189,1,78.7499975967408,2|0,0:0|0:0,0:0:0:0:
389,58,198670,22,0,B|391:118|391:118|412:151|412:151|413:224,1,157.499995193482,6|0,0:0|0:0,0:0:0:0:
477,83,199193,1,2,0:0:0:0:
306,98,199367,2,0,L|224:109,1,78.7499975967408,8|0,0:0|0:0,0:0:0:0:
134,193,199716,2,0,L|216:204,1,78.7499975967408,2|0,0:0|0:0,0:0:0:0:
338,254,200065,22,0,P|323:204|332:150,1,78.7499975967408,2|0,0:0|0:0,0:0:0:0:
244,278,200414,2,0,P|259:328|250:382,1,78.7499975967408,0|2,0:0|0:0,0:0:0:0:
368,342,200763,2,0,P|418:327|472:336,1,78.7499975967408,8|0,0:0|0:0,0:0:0:0:
488,195,201112,2,0,P|438:210|384:201,1,78.7499975967408,2|0,0:0|0:0,0:0:0:0:
306,98,201460,21,2,0:0:0:0:
441,83,201635,1,0,0:0:0:0:
326,183,201809,1,0,0:0:0:0:
334,9,201984,1,2,0:0:0:0:
240,161,202158,2,0,B|238:206|238:206|267:248,1,78.7499975967408,8|0,0:0|0:0,0:0:0:0:
306,98,202507,1,2,0:0:0:0:
157,179,202681,1,0,0:0:0:0:
232,342,203553,6,0,P|189:332|145:335,1,78.7499975967408,12|0,0:0|0:0,0:0:0:0:
232,342,203902,22,0,P|206:295|158:266,1,91.8749971961976,6|0,0:0|0:0,0:0:0:0:
232,342,204251,22,0,B|282:351|319:320|319:320|350:321|386:337,1,131.25,6|2,0:0|0:0,0:0:0:0:
454,346,204600,2,0,P|431:298|436:250,1,87.5,2|2,0:0|0:0,0:0:0:0:
512,147,204949,1,8,0:0:0:0:
510,283,205123,1,0,0:0:0:0:
442,101,205298,2,0,L|348:95,1,87.5,2|0,0:0|0:0,0:0:0:0:
194,173,205647,22,0,B|231:189|231:189|296:193|327:149,1,131.25,2|2,0:0|0:0,0:0:0:0:
211,88,205995,2,0,P|150:95|122:118,1,87.5,2|2,0:0|0:0,0:0:0:0:
169,299,206344,1,8,0:0:0:0:
194,173,206519,1,0,0:0:0:0:
93,255,206693,2,0,P|82:298|99:346,1,87.5,2|0,0:0|0:0,0:0:0:0:
286,298,207042,22,0,P|259:280|164:303,1,131.25,2|2,0:0|0:0,0:0:0:0:
93,255,207391,2,0,P|81:213|93:172,1,87.5,2|2,0:0|0:0,0:0:0:0:
286,298,207740,1,8,0:0:0:0:
93,338,207914,1,0,0:0:0:0:
282,201,208088,2,0,B|328:210|328:210|373:260,1,87.5,2|0,0:0|0:0,0:0:0:0:
407,99,208437,22,0,B|371:173|371:173|276:204,1,175,2|2,0:0|0:0,0:0:0:0:
252,67,208960,1,2,0:0:0:0:
367,30,209135,2,0,P|432:23|488:99,2,131.25,8|2|8,0:0|0:0|0:0,0:0:0:0:
139,100,209833,22,0,P|204:107|260:31,1,131.25,6|2,0:0|0:0,0:0:0:0:
69,51,210181,2,0,P|57:86|75:149,1,87.5,2|2,0:0|0:0,0:0:0:0:
193,205,210530,1,8,0:0:0:0:
182,30,210705,1,0,0:0:0:0:
110,221,210879,2,0,P|126:254|183:286,1,87.5,2|0,0:0|0:0,0:0:0:0:
313,209,211228,22,0,P|224:188|177:220,1,131.25,2|2,0:0|0:0,0:0:0:0:
315,296,211577,2,0,L|312:199,1,87.5,2|2,0:0|0:0,0:0:0:0:
420,317,211926,1,8,0:0:0:0:
244,359,212100,1,0,0:0:0:0:
399,228,212274,2,0,P|454:227|489:257,1,87.5,2|0,0:0|0:0,0:0:0:0:
244,359,212623,22,0,B|216:334|211:291|211:291|240:261|231:217,1,131.25,2|2,0:0|0:0,0:0:0:0:
144,228,212972,2,0,P|103:218|47:235,1,87.5,2|2,0:0|0:0,0:0:0:0:
102,320,213321,1,8,0:0:0:0:
200,165,213495,1,0,0:0:0:0:
244,359,213670,2,0,P|285:369|341:352,1,87.5,2|0,0:0|0:0,0:0:0:0:
337,165,214019,22,0,P|289:216|302:303,1,131.25,2|2,0:0|0:0,0:0:0:0:
419,190,214367,2,0,P|418:140|398:102,1,87.5,2|8,0:0|0:0,0:0:0:0:
302,99,214716,2,0,L|214:103,1,87.5,2|8,0:0|0:0,0:0:0:0:
211,119,214978,1,0,0:0:0:0:
207,135,215065,1,2,0:0:0:0:
204,149,215152,1,0,0:0:0:0:
200,165,215240,1,8,0:0:0:0:
275,312,215414,22,0,B|303:271|303:271|302:221|263:165,1,131.25,6|2,0:0|0:0,0:0:0:0:
185,257,215763,2,0,L|81:263,1,87.5,2|8,0:0|0:0,0:0:0:0:
192,345,216112,1,2,0:0:0:0:
200,165,216286,1,2,0:0:0:0:
275,312,216460,2,0,L|379:318,1,87.5,8|0,0:0|0:0,0:0:0:0:
387,93,216809,22,0,P|353:138|384:222,1,131.25,2|2,0:0|0:0,0:0:0:0:
512,160,217158,2,0,P|451:150|416:165,1,87.5,2|8,0:0|0:0,0:0:0:0:
471,234,217507,1,2,0:0:0:0:
469,65,217681,1,2,0:0:0:0:
296,87,217856,2,0,P|277:132|284:202,1,87.5,8|0,0:0|0:0,0:0:0:0:
471,234,218205,22,0,B|406:221|406:221|330:247,1,131.25,2|2,0:0|0:0,0:0:0:0:
251,257,218553,2,0,B|203:267|203:267|138:246,1,87.5,2|8,0:0|0:0,0:0:0:0:
277,358,218902,1,2,0:0:0:0:
208,175,219077,1,2,0:0:0:0:
343,289,219251,2,0,P|370:333|372:375,1,87.5,8|0,0:0|0:0,0:0:0:0:
300,146,219600,22,0,P|343:176|340:292,1,175,2|2,0:0|0:0,0:0:0:0:
208,175,220123,1,8,0:0:0:0:
379,93,220298,2,0,P|418:133|447:220,2,131.25,2|8|2,0:0|0:0|0:0,0:0:0:0:
171,43,220995,22,0,L|306:36,1,131.25,6|2,0:0|0:0,0:0:0:0:
466,89,221344,2,0,L|378:93,1,87.5,2|8,0:0|0:0,0:0:0:0:
510,197,221693,1,2,0:0:0:0:
510,18,221867,1,2,0:0:0:0:
407,177,222042,2,0,L|319:181,1,87.5,8|0,0:0|0:0,0:0:0:0:
144,214,222391,22,0,B|197:194|243:214|243:214|271:246,1,131.25,2|2,0:0|0:0,0:0:0:0:
198,367,222740,2,0,P|185:317|200:273,1,87.5,2|8,0:0|0:0,0:0:0:0:
302,362,223088,1,2,0:0:0:0:
102,329,223263,1,2,0:0:0:0:
336,279,223437,2,0,P|375:318|386:356,1,87.5,8|0,0:0|0:0,0:0:0:0:
185,160,223786,22,0,B|229:137|229:137|288:139,1,87.5,2|0,0:0|0:0,0:0:0:0:
336,279,224135,1,2,0:0:0:0:
347,121,224309,2,0,B|347:77|347:77|325:39,1,87.5,8|0,0:0|0:0,0:0:0:0:
185,160,224658,1,2,0:0:0:0:
336,279,224833,1,8,0:0:0:0:
347,121,225007,1,0,0:0:0:0:
224,264,225181,22,0,B|131:269,1,87.5,2|0,0:0|0:0,0:0:0:0:
410,202,225530,2,0,B|503:206,1,87.5,2|8,0:0|0:0,0:0:0:0:
347,121,225879,1,2,0:0:0:0:
336,279,226053,1,0,0:0:0:0:
266,138,226228,1,8,0:0:0:0:
426,288,226402,1,0,0:0:0:0:
493,76,226577,22,0,L|409:92,1,70,12|0,0:0|0:0,0:0:0:0:
248,23,226926,2,0,L|332:39,1,70,2|0,0:0|0:0,0:0:0:0:
493,76,227274,2,0,P|509:116|500:167,1,70,8|0,0:0|0:0,0:0:0:0:
332,187,227623,2,0,P|332:152|347:120,1,70,2|0,0:0|0:0,0:0:0:0:
424,153,227885,1,0,0:0:0:0:
437,172,227972,21,8,0:0:0:0:
298,286,228147,1,0,0:0:0:0:
173,157,228321,2,0,L|87:156,1,70,2|0,0:0|0:0,0:0:0:0:
203,294,228670,22,0,P|259:308|307:274,1,105,8|0,0:0|0:0,0:0:0:0:
107,302,229019,22,0,P|156:316|202:294,1,105,2|0,0:0|0:0,0:0:0:0:
242,161,229367,22,0,L|246:230,1,70,8|0,0:0|0:0,0:0:0:0:
394,211,229716,2,0,P|346:204|303:217,1,70,2|0,0:0|0:0,0:0:0:0:
173,157,230065,2,0,P|221:164|264:151,1,70,8|0,0:0|0:0,0:0:0:0:
375,49,230414,2,0,L|370:121,1,70,2|0,0:0|0:0,0:0:0:0:
510,217,230763,21,8,0:0:0:0:
475,105,230937,1,0,0:0:0:0:
394,211,231112,2,0,L|389:283,1,70,2|0,0:0|0:0,0:0:0:0:
176,291,231460,2,0,B|236:261|255:315|312:284,1,140,8|6,0:0|0:0,0:0:0:0:
275,203,231984,1,0,0:0:0:0:
98,263,232158,22,0,P|96:316|120:352,1,70,2|0,0:0|0:0,0:0:0:0:
193,187,232507,2,0,P|202:153|197:119,1,70,2|0,0:0|0:0,0:0:0:0:
176,291,232856,1,2,0:0:0:0:
275,203,233030,1,0,0:0:0:0:
116,147,233205,2,0,L|22:144,1,70,2|0,0:0|0:0,0:0:0:0:
193,187,233553,22,0,P|202:153|197:119,1,70,2|0,0:0|0:0,0:0:0:0:
288,36,233902,2,0,P|282:70|292:103,1,70,2|0,0:0|0:0,0:0:0:0:
387,127,234251,2,0,P|423:107|501:127,1,105,2|0,0:0|0:0,0:0:0:0:
387,127,234600,2,0,P|394:161|385:194,1,70,8|0,0:0|0:0,0:0:0:0:
261,276,234949,22,0,B|297:250|336:254|336:254|375:283|423:264,1,140,2|2,0:0|0:0,0:0:0:0:
325,353,235472,1,0,0:0:0:0:
194,322,235647,2,0,P|182:294|188:241,1,70,2|0,0:0|0:0,0:0:0:0:
276,195,235995,1,2,0:0:0:0:
69,138,236170,22,0,L|230:131,1,140
157,41,236693,2,0,L|88:39,1,70,2|0,0:0|0:0,0:0:0:0:
209,133,237042,2,0,P|265:109|326:126,1,105,2|0,0:0|0:0,0:0:0:0:
370,171,237391,1,8,0:0:0:0:
309,23,237565,1,0,0:0:0:0:
276,195,237740,22,0,B|260:236|281:274,1,70,2|0,0:0|0:0,0:0:0:0:
440,168,238088,2,0,L|361:172,1,70,2|0,0:0|0:0,0:0:0:0:
428,270,238437,2,0,L|497:273,1,70,2|0,0:0|0:0,0:0:0:0:
440,168,238786,2,0,L|437:99,1,70,2|0,0:0|0:0,0:0:0:0:
309,23,239135,22,0,L|305:92,1,70,2|0,0:0|0:0,0:0:0:0:
274,190,239484,1,2,0:0:0:0:
213,62,239658,1,0,0:0:0:0:
199,213,239833,2,0,P|230:259|283:267,1,105,2|0,0:0|0:0,0:0:0:0:
349,232,240181,22,0,L|383:229,6,18.5937503546476,8|0|0|0|2|0|0,0:0|0:0|0:0|0:0|0:0|0:0|0:0,0:0:0:0:
426,295,240530,22,0,P|448:254|445:206,1,78.7499975967408,6|0,0:0|0:0,0:0:0:0:
405,147,240792,1,2,0:0:0:0:
392,128,240879,1,2,0:0:0:0:
349,232,241053,1,8,0:0:0:0:
311,90,241228,2,0,P|266:100|222:86,1,78.7499975967408,2|0,0:0|0:0,0:0:0:0:
182,26,241490,1,0,0:0:0:0:
169,7,241577,1,8,0:0:0:0:
189,176,241751,1,0,0:0:0:0:
311,90,241926,22,0,P|351:49|426:48,1,118.124996395111,2|2,0:0|0:0,0:0:0:0:
359,149,242274,2,0,P|323:119|308:75,1,78.7499975967408,2|8,0:0|2:0,2:0:0:0:
457,157,242623,2,0,L|465:249,1,78.7499975967408,2|0,0:0|0:0,0:0:0:0:
511,344,242972,1,8,0:0:0:0:
475,327,243059,1,0,0:0:0:0:
436,325,243146,1,0,0:0:0:0:
399,338,243233,1,0,0:0:0:0:
368,358,243321,22,0,B|321:380|275:348,1,78.7499975967408,6|0,0:0|0:0,0:0:0:0:
144,285,243583,1,2,0:0:0:0:
144,285,243670,2,0,P|185:272|237:288,1,78.7499975967408,2|8,0:0|0:0,0:0:0:0:
365,227,244019,2,0,L|358:148,1,78.7499975967408,2|0,0:0|0:0,0:0:0:0:
292,86,244280,1,0,0:0:0:0:
279,67,244367,1,8,0:0:0:0:
221,185,244542,1,0,0:0:0:0:
439,168,244716,22,0,L|432:89,1,78.7499975967408,2|0,0:0|0:0,0:0:0:0:
366,27,244977,1,2,0:0:0:0:
353,8,245064,1,2,0:0:0:0:
304,169,245240,1,8,0:0:0:0:
439,168,245414,2,0,P|481:157|522:168,1,78.7499975967408,2|0,0:0|0:0,0:0:0:0:
323,277,245763,1,8,0:0:0:0:
299,245,245850,1,0,0:0:0:0:
293,207,245937,1,0,0:0:0:0:
304,169,246024,1,0,0:0:0:0:
323,129,246112,22,0,L|244:129,1,78.7499975967408,6|0,0:0|0:0,0:0:0:0:
124,259,246373,1,2,0:0:0:0:
124,259,246460,2,0,L|203:259,1,78.7499975967408,2|8,0:0|0:0,0:0:0:0:
148,160,246809,2,0,P|158:109|139:56,1,78.7499975967408,2|0,0:0|0:0,0:0:0:0:
84,37,247071,1,0,0:0:0:0:
62,24,247158,1,8,0:0:0:0:
29,148,247333,1,0,0:0:0:0:
244,129,247507,22,0,L|323:129,1,78.7499975967408,2|0,0:0|0:0,0:0:0:0:
401,169,247769,1,2,0:0:0:0:
414,188,247856,1,2,0:0:0:0:
440,62,248030,1,8,0:0:0:0:
324,207,248205,2,0,P|313:261|333:304,1,78.7499975967408,2|0,0:0|0:0,0:0:0:0:
496,314,248553,1,8,0:0:0:0:
458,303,248640,1,0,0:0:0:0:
419,309,248727,1,0,0:0:0:0:
386,330,248814,1,0,0:0:0:0:
365,357,248902,22,0,P|309:362|270:346,1,78.7499975967408,6|2,0:0|0:0,0:0:0:0:
142,230,249251,2,0,P|198:225|237:241,1,78.7499975967408,8|2,0:0|0:0,0:0:0:0:
66,330,249600,2,0,L|58:245,1,78.7499975967408,2|2,0:0|0:0,0:0:0:0:
82,164,249862,1,0,0:0:0:0:
95,145,249949,1,8,0:0:0:0:
178,308,250123,1,2,0:0:0:0:
215,131,250298,22,0,P|258:141|314:117,1,78.7499975967408,6|2,0:0|0:0,0:0:0:0:
347,65,250559,1,0,0:0:0:0:
360,46,250646,1,8,0:0:0:0:
346,220,250821,1,2,0:0:0:0:
235,48,250995,2,0,B|191:47|191:47|143:74,1,78.7499975967408,2|2,0:0|0:0,0:0:0:0:
199,276,251344,1,8,0:0:0:0:
225,247,251431,1,0,0:0:0:0:
239,210,251518,1,2,0:0:0:0:
237,171,251605,1,0,0:0:0:0:
215,131,251693,22,0,L|134:136,1,78.7499975967408,6|0,0:0|0:0,0:0:0:0:
120,271,252042,2,0,L|201:276,1,78.7499975967408,8|0,0:0|0:0,0:0:0:0:
315,166,252391,2,0,L|234:171,1,78.7499975967408,2|0,0:0|0:0,0:0:0:0:
270,340,252740,2,0,L|351:345,1,78.7499975967408,8|0,0:0|0:0,0:0:0:0:
390,172,253088,22,0,B|348:158|348:158|287:171,1,78.7499975967408,2|0,0:0|0:0,0:0:0:0:
467,255,253437,1,8,0:0:0:0:
478,97,253612,1,0,0:0:0:0:
387,254,253786,2,0,P|395:300|433:334,1,78.7499975967408,2|0,0:0|0:0,0:0:0:0:
478,97,254135,2,0,P|448:60|398:49,1,78.7499975967408,8|0,0:0|0:0,0:0:0:0:
314,165,254484,22,0,L|233:170,1,78.7499975967408,6|0,0:0|0:0,0:0:0:0:
191,335,254833,2,0,L|272:340,1,78.7499975967408,8|0,0:0|0:0,0:0:0:0:
139,167,255181,2,0,P|130:232|145:258,1,78.7499975967408,2|0,0:0|0:0,0:0:0:0:
314,165,255530,2,0,P|323:100|308:74,1,78.7499975967408,8|0,0:0|0:0,0:0:0:0:
139,167,255879,21,2,0:0:0:0:
245,256,256053,1,0,0:0:0:0:
138,77,256228,2,0,B|94:85|94:85|55:129,1,78.7499975967408,8|0,0:0|0:0,0:0:0:0:
111,277,256577,2,0,B|142:220|142:220|136:138,2,118.124996395111,2|8|2,0:0|0:0|0:0,0:0:0:0:
282,208,257274,22,0,L|360:207,1,78.7499975967408,6|0,0:0|0:0,0:0:0:0:
189,277,257623,2,0,L|110:276,1,78.7499975967408,8|0,0:0|0:0,0:0:0:0:
282,129,257972,2,0,L|282:207,1,78.7499975967408,2|0,0:0|0:0,0:0:0:0:
188,355,258321,2,0,L|188:276,1,78.7499975967408,8|0,0:0|0:0,0:0:0:0:
282,129,258670,22,0,L|360:128,1,78.7499975967408,2|0,0:0|0:0,0:0:0:0:
421,295,259019,2,0,L|342:294,1,78.7499975967408,8|0,0:0|0:0,0:0:0:0:
429,83,259367,2,0,P|440:137|426:174,1,78.7499975967408,2|0,0:0|0:0,0:0:0:0:
279,338,259716,2,0,P|268:284|282:247,1,78.7499975967408,8|0,0:0|0:0,0:0:0:0:
496,291,260065,22,0,B|458:304|458:304|401:290,1,78.7499975967408,6|0,0:0|0:0,0:0:0:0:
286,167,260414,1,8,0:0:0:0:
279,338,260588,1,0,0:0:0:0:
210,170,260763,2,0,B|248:157|248:157|305:171,1,78.7499975967408,2|0,0:0|0:0,0:0:0:0:
161,278,261112,1,8,0:0:0:0:
155,99,261286,1,0,0:0:0:0:
264,270,261460,22,0,P|283:319|274:363,1,78.7499975967408,2|0,0:0|0:0,0:0:0:0:
87,157,261809,2,0,P|68:107|77:63,1,78.7499975967408,8|0,0:0|0:0,0:0:0:0:
257,84,262158,1,2,0:0:0:0:
161,278,262333,1,0,0:0:0:0:
214,77,262507,1,8,0:0:0:0:
236,80,262594,1,0,0:0:0:0:
257,84,262681,1,0,0:0:0:0:
264,270,262856,21,6,0:0:0:0:
256,192,262943,12,6,264949,0:0:0:0:
123,276,274019,21,2,0:0:0:0:
123,276,274368,2,0,B|99:238|117:188|117:188|153:220,1,113.749994792938,0|2,0:0|0:0,0:0:0:0:
210,258,274892,2,0,L|280:252,1,56.8749973964692
261,167,275241,22,0,L|191:161,1,56.8749973964692,0|2,0:0|0:0,0:0:0:0:
210,76,275589,2,0,L|280:70,1,56.8749973964692
391,126,275938,2,0,L|321:120,1,56.8749973964692,0|2,0:0|0:0,0:0:0:0:
378,32,276287,2,0,L|448:26,1,56.8749973964692,0|2,0:0|0:0,0:0:0:0:
495,108,276636,1,0,0:0:0:0:
391,126,276810,22,0,B|375:190|405:185|383:246,1,113.749994792938,2|0,0:0|0:0,0:0:0:0:
328,323,277333,2,0,P|366:315|403:326,1,56.8749973964692,0|2,0:0|0:0,0:0:0:0:
256,361,277682,2,0,P|248:323|259:286,1,56.8749973964692
298,187,278030,22,0,P|306:225|295:262,1,56.8749973964692,0|2,0:0|0:0,0:0:0:0:
166,221,278379,2,0,L|223:221,1,56.8749973964692
72,135,278729,2,0,L|185:133,1,113.749994792938,2|0,0:0|0:0,0:0:0:0:
270,102,279252,1,2,0:0:0:0:
298,187,279427,1,0,0:0:0:0:
217,45,279601,22,0,P|254:26|333:59,1,113.749994792938,2|0,0:0|0:0,0:0:0:0:
377,111,280124,2,0,L|390:177,1,56.8749973964692,0|2,0:0|0:0,0:0:0:0:
298,187,280473,2,0,L|285:253,1,56.8749973964692
386,260,280822,22,0,P|426:252|462:265,1,56.8749973964692,0|2,0:0|0:0,0:0:0:0:
448,339,281171,2,0,P|408:347|372:334,1,56.8749973964692
313,323,281520,2,0,P|321:363|308:399,1,56.8749973964692,0|2,0:0|0:0,0:0:0:0:
229,373,281868,2,0,P|221:333|234:297,1,56.8749973964692,0|2,0:0|0:0,0:0:0:0:
271,244,282216,1,0,0:0:0:0:
229,373,282392,22,0,L|111:361,1,113.749994792938,2|0,0:0|0:0,0:0:0:0:
64,289,282915,2,0,L|73:222,1,56.8749973964692,0|2,0:0|0:0,0:0:0:0:
171,227,283264,2,0,L|178:283,1,56.8749973964692
271,244,283612,22,0,L|280:177,1,56.8749973964692,0|2,0:0|0:0,0:0:0:0:
376,224,283961,2,0,L|383:280,1,56.8749973964692
479,229,284310,2,0,P|434:207|359:240,1,113.749994792938,2|0,0:0|0:0,0:0:0:0:
271,244,284834,1,2,0:0:0:0:
318,334,285008,1,0,0:0:0:0:
479,229,285182,22,0,B|463:166|493:175|476:114,1,113.749994792938,2|0,0:0|0:0,0:0:0:0:
424,43,285706,1,0,0:0:0:0:
424,43,286402,1,0,0:0:0:0:
358,118,286578,22,0,P|374:169|360:231,1,113.749994792938,2|0,0:0|0:0,0:0:0:0:
271,244,287100,1,2,0:0:0:0:
271,244,287798,1,0,0:0:0:0:
312,344,287973,22,0,P|279:303|271:240,1,113.749994792938,2|0,0:0|0:0,0:0:0:0:
286,146,288496,2,0,P|297:98|294:71,1,56.8749973964692,0|2,0:0|0:0,0:0:0:0:
187,95,288845,2,0,P|188:123|197:150,1,56.8749973964692
245,237,289194,1,0,0:0:0:0:
187,95,289368,22,0,P|133:79|80:98,1,113.749994792938,2|0,0:0|0:0,0:0:0:0:
37,179,289892,1,2,0:0:0:0:
133,225,290066,2,0,L|138:145,1,56.8749973964692
245,237,290415,2,0,L|248:293,1,56.8749973964692,2|0,0:0|0:0,0:0:0:0:
316,166,290764,22,0,B|281:149|281:149|239:147|239:147|196:125,1,113.749994792938,2|0,0:0|0:0,0:0:0:0:
276,56,291286,1,0,0:0:0:0:
367,97,291461,2,0,P|389:121|398:153,1,56.8749973964692,2|0,0:0|0:0,0:0:0:0:
403,292,291810,2,0,P|381:268|372:236,1,56.8749973964692
501,200,292159,22,0,L|433:232,1,56.8749973964692,2|0,0:0|0:0,0:0:0:0:
346,294,292508,2,0,L|409:291,1,56.8749973964692,0|2,0:0|0:0,0:0:0:0:
315,183,292857,2,0,L|247:215,1,56.8749973964692
160,276,293206,2,0,L|223:273,1,56.8749973964692,2|0,0:0|0:0,0:0:0:0:
189,131,293554,22,0,P|178:162|191:208,1,56.8749973964692,2|0,0:0|0:0,0:0:0:0:
315,183,293903,2,0,P|326:152|313:106,1,56.8749973964692
218,49,294252,2,0,B|186:43|186:43|147:55,1,56.8749973964692,2|0,0:0|0:0,0:0:0:0:
42,126,294601,2,0,B|74:132|74:132|113:120,1,56.8749973964692
218,49,294949,22,0,L|261:45,3,28.4374986982346,2|0|0|0,0:0|0:0|0:0|0:0,0:0:0:0:
223,134,295298,2,0,L|194:131,3,28.4374986982346,2|0|0|0,0:0|0:0|0:0|0:0,0:0:0:0:
301,107,295647,21,2,0:0:0:0:
319,120,295735,1,0,0:0:0:0:
340,126,295822,1,0,0:0:0:0:
363,124,295909,1,0,0:0:0:0:
385,115,295996,1,2,0:0:0:0:
409,101,296083,1,0,0:0:0:0:
436,94,296170,1,0,0:0:0:0:
464,101,296258,1,0,0:0:0:0:
488,116,296345,22,0,P|507:147|500:226,1,113.749994792938,6|0,0:0|0:0,0:0:0:0:
366,268,296868,2,0,P|415:254|442:258,1,56.8749973964692,0|8,0:0|0:0,0:0:0:0:
392,349,297217,2,0,P|343:363|316:359,1,56.8749973964692
278,279,297566,22,0,L|276:211,1,56.8749973964692,0|2,0:0|0:0,0:0:0:0:
188,280,297915,2,0,L|186:336,1,56.8749973964692
96,276,298264,2,0,L|94:208,1,56.8749973964692,2|0,0:0|0:0,0:0:0:0:
1,284,298613,2,0,L|0:340,1,56.8749973964692,0|2,0:0|0:0,0:0:0:0:
101,383,298961,1,0,0:0:0:0:
188,280,299136,22,0,P|133:250|91:293,1,113.749994792938,2|0,0:0|0:0,0:0:0:0:
196,368,299659,2,0,L|272:358,1,56.8749973964692,0|8,0:0|0:0,0:0:0:0:
334,282,300008,2,0,L|277:274,1,56.8749973964692
188,280,300357,1,0,0:0:0:0:
279,186,300531,22,0,P|296:142|278:61,1,113.749994792938,2|0,0:0|0:0,0:0:0:0:
222,183,301054,2,0,L|295:185,1,56.8749973964692,2|0,0:0|0:0,0:0:0:0:
372,73,301403,2,0,L|274:77,1,85.3124960947039
214,41,301752,1,2,0:0:0:0:
372,184,301926,22,0,P|381:134|363:53,1,113.749994792938,6|0,0:0|0:0,0:0:0:0:
456,131,302449,2,0,P|484:134|532:124,1,56.8749973964692,0|8,0:0|0:0,0:0:0:0:
372,184,302798,2,0,P|389:205|430:232,1,56.8749973964692
300,241,303147,22,0,L|238:242,1,56.8749973964692,0|2,0:0|0:0,0:0:0:0:
321,335,303496,2,0,L|383:336,1,56.8749973964692
244,319,303845,2,0,L|243:381,1,56.8749973964692,2|0,0:0|0:0,0:0:0:0:
150,298,304194,2,0,L|149:236,1,56.8749973964692,0|2,0:0|0:0,0:0:0:0:
67,154,304543,1,0,0:0:0:0:
47,289,304717,22,0,P|94:314|161:285,1,113.749994792938,2|0,0:0|0:0,0:0:0:0:
240,199,305241,2,0,P|200:188|168:192,1,56.8749973964692,0|8,0:0|0:0,0:0:0:0:
244,319,305589,2,0,P|284:330|316:326,1,56.8749973964692
354,218,305937,1,0,0:0:0:0:
240,199,306112,21,2,0:0:0:0:
240,199,306984,2,0,L|217:200,10,14.2187493491173
240,199,307508,22,0,L|244:108,1,74.3750014185906,12|0,0:0|0:0,0:0:0:0:
288,48,307769,1,2,0:0:0:0:
300,27,307856,1,2,0:0:0:0:
352,159,308030,1,2,0:0:0:0:
155,81,308205,2,0,L|158:155,1,74.3750014185906,8|0,0:0|0:0,0:0:0:0:
240,199,308466,1,0,0:0:0:0:
252,220,308553,1,2,0:0:0:0:
371,72,308728,1,0,0:0:0:0:
335,247,308902,22,0,P|385:245|420:216,1,74.3750014185906,8|0,0:0|0:0,0:0:0:0:
442,147,309164,1,2,0:0:0:0:
454,126,309251,1,2,0:0:0:0:
468,306,309426,1,2,0:0:0:0:
352,159,309600,1,8,0:0:0:0:
305,342,309774,1,0,0:0:0:0:
340,350,309861,1,0,0:0:0:0:
376,346,309949,1,2,0:0:0:0:
252,220,310123,2,0,L|241:283,1,37.1875007092953
171,362,310298,22,0,L|161:275,1,74.3750014185906,8|0,0:0|0:0,0:0:0:0:
83,163,310559,1,2,0:0:0:0:
83,163,310647,2,0,L|74:236,1,74.3750014185906,2|2,0:0|0:0,0:0:0:0:
252,220,310995,1,8,0:0:0:0:
218,203,311082,1,0,0:0:0:0:
181,200,311169,1,0,0:0:0:0:
335,247,311344,2,0,P|353:197|345:149,1,74.3750014185906,2|0,0:0|0:0,0:0:0:0:
307,96,311606,1,0,0:0:0:0:
295,75,311693,21,8,0:0:0:0:
252,220,311867,1,0,0:0:0:0:
294,233,311955,1,2,0:0:0:0:
335,247,312042,2,0,L|427:237,1,74.3750014185906,2|2,0:0|0:0,0:0:0:0:
467,177,312303,1,0,0:0:0:0:
479,156,312390,1,8,0:0:0:0:
457,326,312565,1,0,0:0:0:0:
384,149,312740,2,0,L|310:157,1,74.3750014185906,2|0,0:0|0:0,0:0:0:0:
141,112,313088,22,0,B|181:101|181:101|230:116,1,74.3750014185906,12|0,0:0|0:0,0:0:0:0:
236,195,313350,1,2,0:0:0:0:
248,216,313437,1,2,0:0:0:0:
299,57,313612,1,2,0:0:0:0:
141,112,313786,2,0,L|82:141,2,37.1875007092953,8|0|0,0:0|0:0|0:0,0:0:0:0:
248,216,314135,1,2,0:0:0:0:
299,57,314309,2,0,L|333:8,1,37.1875007092953
381,98,314484,22,0,L|403:192,1,74.3750014185906,8|0,0:0|0:0,0:0:0:0:
231,288,314745,1,2,0:0:0:0:
231,288,314833,2,0,L|247:215,1,74.3750014185906,2|2,0:0|0:0,0:0:0:0:
402,254,315181,1,8,0:0:0:0:
372,252,315268,1,0,0:0:0:0:
342,251,315355,1,0,0:0:0:0:
231,288,315530,1,2,0:0:0:0:
372,366,315705,1,0,0:0:0:0:
390,350,315792,1,0,0:0:0:0:
405,326,315879,22,0,P|410:281|390:237,1,74.3750014185906,8|0,0:0|0:0,0:0:0:0:
231,288,316228,1,2,0:0:0:0:
353,381,316402,1,0,0:0:0:0:
259,208,316577,1,8,0:0:0:0:
221,202,316664,1,0,0:0:0:0:
186,213,316751,1,0,0:0:0:0:
133,317,316926,1,2,0:0:0:0:
259,208,317100,1,0,2:0:0:0:
265,170,317187,1,0,2:0:0:0:
254,135,317274,22,0,P|239:90|212:60,1,74.3750014185906,6|0,0:0|0:0,0:0:0:0:
103,57,317623,2,0,P|118:102|145:132,1,74.3750014185906,8|0,0:0|0:0,0:0:0:0:
186,213,317884,1,0,0:0:0:0:
169,212,317972,2,0,L|72:209,1,74.3750014185906,2|0,0:0|0:0,0:0:0:0:
231,288,318321,2,0,L|328:285,1,74.3750014185906,8|0,0:0|0:0,0:0:0:0:
429,187,318670,21,6,0:0:0:0:
86,348,324251,22,0,L|78:215,1,111.562502127886,2|0,0:0|0:0,0:0:0:0:
168,230,324601,2,0,L|172:304,1,74.3750014185906,2|0,0:0|0:0,0:0:0:0:
260,347,324950,2,0,L|264:272,1,74.3750014185906,8|0,0:0|0:0,0:0:0:0:
370,254,325299,2,0,L|365:328,1,74.3750014185906,2|0,0:0|0:0,0:0:0:0:
451,213,325648,22,0,P|408:164|336:170,1,111.562502127886,2|0,0:0|0:0,0:0:0:0:
298,185,325996,2,0,P|342:176|372:149,1,74.3750014185906,2|0,0:0|0:0,0:0:0:0:
323,11,326345,2,0,P|317:56|334:93,1,74.3750014185906,8|0,2:0|2:0,2:0:0:0:
473,111,326694,2,0,P|435:85|394:84,1,74.3750014185906,2|0,2:0|2:0,2:0:0:0:
199,177,327043,22,0,L|191:44,1,111.562502127886,2|0,0:0|0:0,0:0:0:0:
116,130,327392,2,0,L|120:204,1,74.3750014185906,2|0,0:0|0:0,0:0:0:0:
37,298,327741,2,0,L|41:223,1,74.3750014185906,8|0,0:0|0:0,0:0:0:0:
130,287,328089,2,0,L|134:361,1,74.3750014185906,2|0,0:0|0:0,0:0:0:0:
316,250,328438,22,0,P|264:234|212:252,1,111.562502127886,2|0,0:0|0:0,0:0:0:0:
239,377,328787,2,0,P|263:333|258:296,1,74.3750014185906,2|0,0:0|0:0,0:0:0:0:
339,182,329136,2,0,P|315:226|320:263,1,74.3750014185906,8|0,0:0|0:0,0:0:0:0:
422,353,329485,2,0,P|419:316|398:285,1,74.3750014185906,2|0,0:0|0:0,0:0:0:0:
211,252,329834,21,6,0:0:0:0:
345,345,330008,1,0,0:0:0:0:
339,182,330182,1,2,0:0:0:0:
239,377,330357,1,8,0:0:0:0:
243,155,330531,1,2,0:0:0:0:
345,345,330706,1,0,0:0:0:0:
310,100,330880,1,8,0:0:0:0:
211,252,331054,1,0,0:0:0:0:
271,24,331229,21,2,0:0:0:0:
301,263,331403,1,0,0:0:0:0:
198,69,331578,1,2,0:0:0:0:
339,182,331752,1,8,0:0:0:0:
158,181,331927,1,2,0:0:0:0:
310,100,332101,1,0,0:0:0:0:
211,252,332275,1,8,0:0:0:0:
198,69,332450,1,0,0:0:0:0:
301,263,332624,21,2,0:0:0:0:
271,24,332799,1,0,0:0:0:0:
235,44,332886,1,0,0:0:0:0:
198,69,332973,1,2,0:0:0:0:
394,113,333148,1,8,0:0:0:0:
271,24,333322,1,2,0:0:0:0:
301,263,333496,1,0,0:0:0:0:
367,30,333671,1,8,0:0:0:0:
211,252,333845,1,0,0:0:0:0:
394,113,334020,21,6,0:0:0:0:
301,263,334194,1,0,0:0:0:0:
296,244,334281,1,2,0:0:0:0:
292,228,334368,22,0,L|292:189,1,26.2499991989136,2|0,0:0|0:0,0:0:0:0:
394,113,334543,2,0,L|394:140,1,26.2499991989136,8|0,0:0|0:0,0:0:0:0:
216,167,334717,2,0,L|216:128,1,26.2499991989136,2|0,0:0|0:0,0:0:0:0:
320,46,334892,2,0,L|320:74,1,26.2499991989136,2|0,0:0|0:0,0:0:0:0:
134,117,335066,2,0,L|134:78,1,26.2499991989136,8|0,0:0|0:0,0:0:0:0:
236,2,335241,2,0,L|236:36,1,26.2499991989136,2|0,0:0|0:0,0:0:0:0:
411,335,336113,22,0,P|363:324|339:329,1,61.2499981307984,12|8,0:0|0:0,0:0:0:0:
235,335,336461,1,6,0:0:0:0:
253,319,336548,1,8,0:0:0:0:
266,291,336635,1,8,0:0:0:0:
264,254,336722,1,8,0:0:0:0:
233,224,336810,22,0,B|179:265|179:265|98:262,1,131.25,4|2,0:0|0:0,0:0:0:0:
28,280,337159,2,0,P|40:321|30:363,1,87.5,2|8,0:0|0:0,0:0:0:0:
33,190,337508,1,2,0:0:0:0:
120,343,337682,1,2,0:0:0:0:
115,173,337857,2,0,B|112:143|96:127|96:127|102:86,1,87.5,8|2,0:0|0:0,0:0:0:0:
295,87,338205,22,0,B|294:53|294:53|252:100|176:62,1,131.25,2|2,0:0|0:0,0:0:0:0:
132,10,338554,2,0,P|74:7|42:27,1,87.5,2|8,0:0|0:0,0:0:0:0:
192,156,338903,1,2,0:0:0:0:
237,2,339078,1,2,0:0:0:0:
288,170,339252,2,0,P|317:170|371:128,1,87.5,8|2,0:0|0:0,0:0:0:0:
470,25,339601,22,0,B|434:66|445:118|445:118|475:147,1,131.25,2|2,0:0|0:0,0:0:0:0:
421,216,339950,2,0,B|448:247|448:247|449:290|432:320,1,87.5,2|8,0:0|0:0,0:0:0:0:
288,170,340299,1,2,0:0:0:0:
467,139,340473,1,2,0:0:0:0:
333,334,340648,2,0,L|338:233,1,87.5,8|2,0:0|0:0,0:0:0:0:
139,183,340996,22,0,P|200:215|297:146,1,175,2|2,0:0|0:0,0:0:0:0:
208,118,341520,1,8,0:0:0:0:
116,270,341694,2,0,P|171:295|255:290,2,131.25,2|8|2,0:0|0:0|0:0,0:0:0:0:
41,131,342392,22,0,P|51:192|3:246,1,131.25,2|2,0:0|0:0,0:0:0:0:
18,52,342741,2,0,P|72:55|111:93,1,87.5,2|8,0:0|0:0,0:0:0:0:
139,183,343088,1,2,0:0:0:0:
189,24,343263,1,2,0:0:0:0:
208,118,343437,2,0,L|315:113,1,87.5,8|2,0:0|0:0,0:0:0:0:
457,197,343786,22,0,B|397:228|397:228|327:209,1,131.25,2|2,0:0|0:0,0:0:0:0:
274,271,344135,2,0,B|224:257|224:257|176:274,1,87.5,2|8,0:0|0:0,0:0:0:0:
362,314,344484,1,2,0:0:0:0:
388,140,344658,1,2,0:0:0:0:
274,271,344833,2,0,P|264:334|276:372,1,87.5,8|2,0:0|0:0,0:0:0:0:
473,136,345182,22,0,P|452:85|356:67,1,131.25,2|2,0:0|0:0,0:0:0:0:
307,146,345531,2,0,P|354:156|401:123,1,87.5,2|8,0:0|0:0,0:0:0:0:
225,102,345879,1,2,0:0:0:0:
274,271,346053,1,2,0:0:0:0:
307,146,346228,2,0,P|314:83|297:44,1,87.5,8|2,0:0|0:0,0:0:0:0:
97,110,346577,22,0,B|163:82|173:137|235:97,1,131.25,2|2,0:0|0:0,0:0:0:0:
109,23,346926,2,0,P|46:42|13:74,1,87.5,2|8,0:0|0:0,0:0:0:0:
100,197,347275,2,0,L|95:106,1,87.5,2|8,0:0|0:0,0:0:0:0:
230,59,347624,2,0,L|222:113,3,43.75,2|0|8|0,0:0|0:0|0:0|0:0,0:0:0:0:
212,219,347972,22,0,B|197:188|163:182|163:182|130:209|85:192,1,131.25,6|2,0:0|0:0,0:0:0:0:
178,292,348321,2,0,P|238:296|273:275,1,87.5,2|8,0:0|0:0,0:0:0:0:
272,103,348670,1,2,0:0:0:0:
212,219,348844,1,2,0:0:0:0:
396,184,349020,2,0,B|346:168|346:168|292:184,1,87.5,12|0,0:0|0:0,0:0:0:0:
455,249,349367,22,0,P|483:188|460:127,1,131.25,6|2,0:0|0:0,0:0:0:0:
373,60,349716,2,0,P|414:61|464:21,1,87.5,2|8,0:0|0:0,0:0:0:0:
295,7,350066,1,2,0:0:0:0:
312,177,350241,1,2,0:0:0:0:
209,23,350414,2,0,L|120:25,1,87.5,12|2,0:0|0:0,0:0:0:0:
197,153,350763,22,0,L|209:18,1,131.25,6|2,0:0|0:0,0:0:0:0:
113,116,351112,2,0,L|105:203,1,87.5,2|8,0:0|0:0,0:0:0:0:
224,301,351460,1,2,0:0:0:0:
197,153,351635,1,2,0:0:0:0:
143,316,351810,2,0,P|168:364|213:385,1,87.5,12|2,0:0|0:0,0:0:0:0:
375,283,352159,22,0,P|297:255|221:306,1,175,6|2,0:0|0:0,0:0:0:0:
305,352,352681,1,8,0:0:0:0:
417,212,352856,2,0,P|348:179|283:177,2,116.666666666667,2|8|2,0:0|0:0|0:0,0:0:0:0:
504,345,353554,22,0,L|509:204,1,131.25,6|2,0:0|0:0,0:0:0:0:
420,124,353903,2,0,L|417:212,1,87.5,2|8,0:0|0:0,0:0:0:0:
474,41,354252,1,2,0:0:0:0:
313,89,354427,1,2,0:0:0:0:
508,214,354601,2,0,L|512:127,1,87.5,12|2,0:0|0:0,0:0:0:0:
318,9,354949,22,0,P|247:42|245:126,1,131.25,6|2,0:0|0:0,0:0:0:0:
316,172,355298,2,0,P|326:126|300:74,1,87.5,2|8,0:0|0:0,0:0:0:0:
219,221,355647,1,2,0:0:0:0:
342,280,355821,1,2,0:0:0:0:
147,181,355995,2,0,P|137:227|163:279,1,87.5,12|2,0:0|0:0,0:0:0:0:
316,172,356345,21,6,0:0:0:0:
168,95,356520,1,2,0:0:0:0:
219,221,356694,1,8,0:0:0:0:
227,16,356868,1,2,0:0:0:0:
147,181,357043,1,2,0:0:0:0:
314,42,357217,1,2,0:0:0:0:
300,259,357392,1,8,0:0:0:0:
168,95,357566,1,2,0:0:0:0:
316,172,357740,22,0,B|360:192|360:192|390:241,1,87.5,6|2,0:0|0:0,0:0:0:0:
147,181,358089,2,0,B|103:161|103:161|73:112,1,87.5,8|2,0:0|0:0,0:0:0:0:
227,16,358438,1,2,0:0:0:0:
219,221,358613,1,2,0:0:0:0:
314,42,358787,1,8,0:0:0:0:
300,259,358961,1,2,0:0:0:0:
401,43,359136,22,0,L|299:41,1,87.5,6|0,0:0|0:0,0:0:0:0:
380,225,359485,2,0,L|482:223,1,87.5,8|0,0:0|0:0,0:0:0:0:
308,176,359834,2,0,P|291:227|313:278,1,87.5,2|0,0:0|0:0,0:0:0:0:
466,96,360182,2,0,P|483:45|461:-6,1,87.5,8|0,0:0|0:0,0:0:0:0:
308,176,360530,21,6,0:0:0:0:
439,321,360705,1,0,0:0:0:0:
388,134,360878,1,8,0:0:0:0:
361,365,361052,1,0,0:0:0:0:
466,96,361227,1,2,0:0:0:0:
439,321,361401,1,0,0:0:0:0:
308,176,361576,1,8,0:0:0:0:
512,271,361751,1,0,0:0:0:0:
299,303,361926,22,0,P|275:349|280:394,1,87.5,6|0,0:0|0:0,0:0:0:0:
231,235,362301,22,0,P|179:226|138:245,1,87.5,12|0,0:0|0:0,0:0:0:0:
308,176,362701,22,0,P|316:124|297:83,1,87.5,6|0,0:0|0:0,0:0:0:0:
374,238,363145,22,0,P|425:246|466:227,1,87.5,12|0,0:0|0:0,0:0:0:0:
231,235,363639,22,0,B|197:223|195:184|195:184|160:200|125:179|125:179|119:216|81:226|81:226|100:259|82:295|82:295|120:301|133:336|133:336|162:312|199:325|199:325|202:288|235:273,1,472.499985580445,6|0,0:0|0:0,0:0:0:0:
224,281,367509,6,0,P|265:267|314:284,1,87.5,8|8,0:0|0:0,0:0:0:0:
407,346,368259,1,8,0:0:0:0:
389,258,368543,22,0,P|375:217|392:168,1,87.5,6|8,0:0|0:0,0:0:0:0:
383,93,369622,2,0,P|397:134|380:183,1,87.5,8|8,0:0|0:0,0:0:0:0:
227,135,370702,2,0,P|268:121|317:138,1,87.5,6|8,0:0|0:0,0:0:0:0:
313,219,371712,2,0,P|272:233|223:216,1,87.5,6|8,0:0|0:0,0:0:0:0:
198,302,372712,22,0,B|121:249|83:352|7:263,1,175,6|8,0:0|0:0,0:0:0:0:
148,364,374462,1,8,0:0:0:0:
244,370,374712,22,0,P|276:326|271:270,1,87.5,6|8,0:0|0:0,0:0:0:0:
313,219,375922,2,0,P|281:263|286:319,1,87.5,6|8,0:0|0:0,0:0:0:0:
364,288,376982,21,8,0:0:0:0:
338,361,377748,22,0,P|381:364|289:303,1,393.75,6|0,0:0|0:0,0:0:0:0:
