osu file format v14

[General]
AudioFilename: yura yura.mp3
AudioLeadIn: 0
PreviewTime: 85145
Countdown: 0
SampleSet: Soft
StackLeniency: 0.4
Mode: 0
LetterboxInBreaks: 0
WidescreenStoryboard: 0

[Editor]
DistanceSpacing: 1.3
BeatDivisor: 4
GridSize: 32
TimelineZoom: 1

[Metadata]
Title:Yurayura
TitleUnicode:ユラユラ
Artist:soraru
ArtistUnicode:そらる
Creator:Nao Tomori
Version:Cruelty
Source:
Tags:Yuutamari no Shiori 夕溜まりのしおり SCGA-20 ナノウ Nanou
BeatmapID:1150419
BeatmapSetID:542755

[Difficulty]
HPDrainRate:5
CircleSize:4.5
OverallDifficulty:7.3
ApproachRate:7.5
SliderMultiplier:1.6
SliderTickRate:1

[Events]
//Background and Video events
0,0,"sadbge.jpg",0,0
//Break Periods
//Storyboard Layer 0 (Background)
//Storyboard Layer 1 (Fail)
//Storyboard Layer 2 (Pass)
//Storyboard Layer 3 (Foreground)
//Storyboard Sound Samples

[TimingPoints]
878,487.80487804878,4,2,1,25,1,0
2341,-100,4,2,1,5,0,0
2829,-100,4,2,1,25,0,0
4292,-100,4,2,1,5,0,0
4780,-100,4,2,1,25,0,0
6243,-100,4,2,1,5,0,0
6731,-100,4,2,1,25,0,0
8195,-100,4,2,1,5,0,0
8682,-100,4,2,1,25,0,0
10146,-100,4,2,1,5,0,0
10634,-100,4,2,1,25,0,0
12097,-100,4,2,1,5,0,0
12585,-100,4,2,1,25,0,0
14048,-100,4,2,1,5,0,0
14536,-100,4,2,1,25,0,0
15999,-100,4,2,1,5,0,0
16487,-100,4,1,1,30,0,0
18317,-100,4,2,1,5,0,0
18438,-100,4,1,1,30,0,0
31121,-100,4,1,1,5,0,0
31609,-100,4,1,1,30,0,0
31975,-100,4,1,1,5,0,0
32097,-100,4,1,1,30,0,0
78926,-100,4,2,1,21,0,0
85024,-83.3333333333333,4,1,1,46,0,1
85146,-83.3333333333333,4,1,1,5,0,1
85268,-83.3333333333333,4,1,1,67,0,1
87097,-83.3333333333333,4,1,1,5,0,1
87219,-83.3333333333333,4,1,1,67,0,1
117707,-83.3333333333333,4,1,1,33,0,1
117951,-133.333333333333,4,1,1,33,0,0
124292,-133.333333333333,4,1,1,5,0,0
124536,-133.333333333333,4,1,1,33,0,0
124780,-133.333333333333,4,1,1,5,0,0
125024,-133.333333333333,4,1,1,33,0,0
125268,-133.333333333333,4,2,1,5,0,0
125756,-100,4,1,1,20,0,0
140875,-100,4,1,1,36,0,0
140877,-100,4,1,1,23,0,0
156975,-117.647058823529,4,2,1,33,0,0
165756,-100,4,1,1,36,0,0
170877,-83.3333333333333,4,1,1,67,0,1
170999,-83.3333333333333,4,2,1,5,0,1
171121,-83.3333333333333,4,1,1,67,0,1
172951,-83.3333333333333,4,2,1,28,0,1
173073,-83.3333333333333,4,1,1,67,0,1
203804,-100,4,1,1,50,0,0
250634,-100,4,1,1,5,0,0
252585,-133.333333333333,4,2,1,41,0,0
253438,-133.333333333333,4,2,1,5,0,0
253560,-133.333333333333,4,2,1,41,0,0
254413,-133.333333333333,4,2,1,5,0,0
254535,-133.333333333333,4,2,1,41,0,0
255388,-133.333333333333,4,2,1,5,0,0
255510,-133.333333333333,4,2,1,41,0,0
256363,-133.333333333333,4,2,1,5,0,0
256485,-133.333333333333,4,2,1,41,0,0
257338,-133.333333333333,4,2,1,5,0,0
257460,-133.333333333333,4,2,1,41,0,0
258317,-133.333333333333,4,2,1,5,0,0
258435,-133.333333333333,4,2,1,41,0,0
259292,-133.333333333333,4,2,1,5,0,0
259414,-133.333333333333,4,2,1,41,0,0
260268,-133.333333333333,4,2,1,5,0,0
260390,-133.333333333333,4,2,1,41,0,0
267707,-117.647058823529,4,2,1,28,0,0
279780,-117.647058823529,4,2,1,5,0,0
279902,-111.111111111111,4,2,1,50,0,0
280146,-111.111111111111,4,2,1,16,0,0
280390,-104.166666666667,4,2,1,62,0,0
280634,-104.166666666667,4,2,1,18,0,0
280877,-97.0873786407767,4,2,1,78,0,0
281121,-97.0873786407767,4,2,1,20,0,0
281365,-90.0900900900901,4,2,1,92,0,0
282097,-83.3333333333333,4,1,1,67,0,1
282219,-83.3333333333333,4,2,1,5,0,1
282341,-83.3333333333333,4,1,1,67,0,1
284170,-83.3333333333333,4,1,1,5,0,1
284292,-83.3333333333333,4,1,1,67,0,1
315024,-100,4,1,1,59,0,0
334536,-100,4,1,1,5,0,0
335512,-100,4,2,1,35,0,0
337463,-100,4,2,1,17,0,0
339414,-100,4,2,1,8,0,0
341365,-100,4,2,1,5,0,0

[Colours]
Combo1 : 112,112,112
Combo2 : 170,170,170

[HitObjects]
35,50,878,6,0,P|74:38|113:45,2,80,2|0|0,2:2|2:1|2:1,0:0:0:0:
79,117,1609,1,0,2:1:0:0:
46,190,1853,1,0,2:1:0:0:
156,109,2097,2,0,P|151:150|125:180,1,80,0|0,2:1|2:1,0:0:0:0:
357,231,2829,6,0,P|288:221|255:234,2,80,2|0|0,2:2|2:1|2:1,0:0:0:0:
426,188,3560,1,0,2:1:0:0:
359,144,3804,1,0,2:1:0:0:
504,171,4048,2,0,P|487:135|455:113,1,80,0|0,2:1|2:1,0:0:0:0:
79,115,4780,6,0,P|115:102|156:108,2,80,2|0|0,2:2|2:1|2:1,0:0:0:0:
124,182,5512,1,0,2:1:0:0:
44,188,5756,1,0,2:1:0:0:
156,108,5999,2,0,B|182:76|182:34,1,80,0|0,2:1|2:1,0:0:0:0:
455,113,6731,5,2,0:2:0:0:
462,35,6974,1,0,0:0:0:0:
310,73,7219,2,0,P|357:82|388:72,1,80
347,2,7707,1,0,0:0:0:0:
235,53,7951,2,0,P|274:56|322:83,1,80,0|0,0:0|0:0,0:0:0:0:
44,189,8682,6,0,P|115:178|144:193,1,80,2|0,0:2|0:0,0:0:0:0:
90,252,9170,1,0,0:0:0:0:
171,245,9414,1,0,0:0:0:0:
138,320,9658,1,0,0:0:0:0:
121,181,9902,2,0,P|137:145|167:118,1,80
393,82,10634,6,0,P|433:69|473:74,2,80,2|0|0,2:2|2:1|2:1,0:0:0:0:
440,146,11365,1,0,0:0:0:0:
504,198,11609,1,0,0:0:0:0:
438,306,11853,2,0,P|427:268|431:229,1,80,0|0,0:0|0:0,0:0:0:0:
120,184,12585,6,0,P|75:178|29:199,1,80,2|0,0:2|0:0,0:0:0:0:
87,254,13073,1,0,0:0:0:0:
160,283,13317,1,0,0:0:0:0:
240,279,13560,1,0,0:0:0:0:
192,132,13804,2,0,P|201:172|196:212,1,80
443,230,14536,5,2,0:2:0:0:
376,175,14780,1,0,0:0:0:0:
470,73,15024,2,0,P|469:111|451:149,1,80
389,93,15512,1,0,0:0:0:0:
265,44,15756,2,0,P|295:84|307:119,1,80
39,182,16487,6,0,L|34:81,1,80,8|0,0:3|1:0,0:0:0:0:
121,224,16975,1,8,1:3:0:0:
121,224,17219,1,0,1:0:0:0:
184,161,17463,2,0,L|187:74,1,80,8|0,1:3|1:0,0:0:0:0:
281,87,17951,2,0,P|278:172|283:209,1,120,8|0,1:3|2:0,0:0:0:0:
291,227,18438,5,8,1:3:0:0:
367,161,18682,1,0,1:0:0:0:
440,227,18926,2,0,P|430:266|439:305,1,80,8|0,1:3|1:0,0:0:0:0:
502,137,19414,2,0,P|511:98|503:59,1,80,8|0,1:3|1:0,0:0:0:0:
420,96,19902,1,8,0:3:0:0:
339,59,20146,1,0,3:0:0:0:
335,206,20390,6,0,P|350:277|363:297,1,80,0|0,3:0|1:0,0:0:0:0:
280,332,20877,2,0,P|211:309|187:310,1,80,8|0,1:3|1:0,0:0:0:0:
199,221,21365,2,0,P|253:172|264:151,1,80,8|0,0:3|1:0,0:0:0:0:
114,180,21853,2,0,P|59:228|48:249,1,80,8|0,0:3|1:0,0:0:0:0:
42,117,22341,6,0,P|68:78|95:56,1,80,8|0,0:3|1:0,0:0:0:0:
199,58,22829,1,8,0:3:0:0:
214,163,23073,2,0,P|172:162|137:145,1,80,8|8,0:3|1:0,0:0:0:0:
62,201,23560,2,0,P|77:252|113:293,1,80,0|8,3:0|0:3,0:0:0:0:
138,146,24048,1,0,3:0:0:0:
189,312,24292,6,0,B|232:326|291:308|292:307,1,80,4|0,0:2|1:0,0:0:0:0:
347,255,24780,2,0,P|435:238|514:258,1,160,8|8,0:3|0:3,0:0:0:0:
428,336,25512,1,0,1:0:0:0:
502,252,25756,2,0,P|489:207|467:163,1,80
382,102,26243,6,0,B|343:106|303:88|303:88|264:87|227:105,1,160,8|8,0:3|0:3,0:0:0:0:
139,156,26975,1,0,1:0:0:0:
271,226,27219,2,0,P|258:271|236:315,1,80
170,357,27707,1,8,0:3:0:0:
167,243,27951,1,0,3:0:0:0:
92,303,28195,6,0,P|82:264|78:225,1,80,0|0,3:0|1:0,0:0:0:0:
64,129,28682,2,0,P|102:140|139:156,1,80,8|0,0:3|1:0,0:0:0:0:
229,192,29170,2,0,P|200:219|168:243,1,80,8|0,0:3|1:0,0:0:0:0:
77,224,29658,1,0,0:3:0:0:
64,129,29902,1,0,1:0:0:0:
61,32,30146,6,0,P|126:14|161:22,1,80,0|0,0:3|1:0,0:0:0:0:
253,40,30634,1,0,0:3:0:0:
127,179,30877,2,0,P|112:117|115:98,1,80,0|0,1:0|2:0,0:0:0:0:
114,101,31609,6,0,B|179:81|178:131|245:98,1,120,8|0,0:0|1:0,0:0:0:0:
252,89,32097,2,0,P|301:96|348:118,1,80,0|0,1:0|1:0,0:0:0:0:
408,154,32585,1,8,0:0:0:0:
338,213,32829,2,0,P|353:250|361:290,1,80,0|0,1:0|2:0,0:0:0:0:
457,290,33317,2,0,P|465:251|481:214,1,80,0|0,1:0|2:0,0:0:0:0:
408,154,33804,1,8,0:3:0:0:
262,221,34048,6,0,P|322:209|354:221,1,80,0|0,1:0|3:0,0:0:0:0:
211,307,34536,2,0,P|191:364|165:386,1,80,8|0,0:0|1:0,0:0:0:0:
91,293,35024,1,2,3:2:0:0:
167,219,35268,1,0,1:0:0:0:
81,163,35512,2,0,P|51:136|36:100,1,80,2|0,3:2|1:0,0:0:0:0:
28,77,35877,6,0,L|6:68,2,20,0|0|4,3:0|3:0|0:2,0:0:0:0:
160,52,36243,1,0,1:0:0:0:
271,181,36487,2,0,P|241:154|204:143,1,80,0|0,1:0|2:0,0:0:0:0:
120,223,36975,1,8,0:0:0:0:
268,280,37219,2,0,P|238:309|198:321,1,80,0|0,1:0|2:0,0:0:0:0:
81,163,37707,1,8,0:0:0:0:
189,221,37951,5,0,1:0:0:0:
181,91,38195,1,0,3:0:0:0:
267,183,38438,2,0,P|326:190|359:175,1,80,8|0,0:0|1:0,0:0:0:0:
418,85,38926,1,2,2:3:0:0:
418,85,39048,1,2,1:3:0:0:
418,85,39170,1,2,1:3:0:0:
451,218,39414,2,0,P|473:277|491:296,1,80,8|0,2:1|1:0,0:0:0:0:
333,363,39902,6,0,P|372:357|412:363,1,80,4|0,0:2|1:0,0:0:0:0:
295,218,40390,2,0,P|273:277|255:296,1,80,8|0,2:1|1:0,0:0:0:0:
300,74,40877,1,8,0:0:0:0:
197,164,41121,2,0,P|174:196|164:235,1,80,0|2,1:1|2:2,0:0:0:0:
50,174,41609,1,8,0:0:0:0:
138,94,41853,6,0,P|181:75|222:76,1,80,0|0,1:0|1:0,0:0:0:0:
372,89,42341,2,0,P|337:75|288:78,1,80,8|0,0:0|1:0,0:0:0:0:
257,159,42829,1,0,2:0:0:0:
213,74,43073,1,0,1:0:0:0:
57,117,43317,2,0,P|119:113|153:92,1,80,8|0,0:0|1:0,0:0:0:0:
135,76,43682,6,0,L|113:51,2,20,0|0|4,3:0|3:0|0:2,0:0:0:0:
230,74,44048,1,0,1:0:0:0:
145,195,44292,1,8,0:0:0:0:
231,163,44536,2,0,L|272:177,1,40,0|0,1:0|0:0,0:0:0:0:
145,214,44780,1,2,1:3:0:0:
145,230,44902,1,2,1:3:0:0:
146,247,45024,2,0,L|185:261,2,40,2|2|0,1:3|1:3|2:0,0:0:0:0:
18,257,45512,1,8,0:0:0:0:
65,182,45756,5,0,1:0:0:0:
155,323,45999,1,0,3:0:0:0:
250,184,46243,2,0,P|297:176|354:193,1,80,8|0,0:0|1:0,0:0:0:0:
380,262,46731,1,2,1:3:0:0:
380,270,46853,1,2,1:3:0:0:
380,278,46975,1,2,1:3:0:0:
497,184,47219,2,0,P|450:176|393:193,1,80,8|0,0:3|1:0,0:0:0:0:
275,271,47707,6,0,B|196:285|196:285|100:266,1,160,4|8,0:1|0:0,0:0:0:0:
22,227,48438,2,0,P|17:252|27:331,1,80,0|0,1:0|2:0,0:0:0:0:
118,348,48926,2,0,P|111:309|117:268,1,80,0|0,1:0|2:0,0:0:0:0:
240,229,49414,1,8,0:0:0:0:
189,308,49658,5,0,1:0:0:0:
282,150,49902,1,8,0:0:0:0:
100,145,50146,1,8,0:0:0:0:
192,207,50390,1,0,0:0:0:0:
282,150,50634,1,0,0:0:0:0:
376,203,50877,1,0,0:0:0:0:
371,81,51121,2,0,B|318:64|278:67,1,80,8|0,0:0|1:0,0:0:0:0:
261,60,51487,6,0,L|244:46,2,20,0|0|4,3:0|3:0|0:2,0:0:0:0:
207,149,51853,1,0,1:0:0:0:
301,266,52097,1,8,0:0:0:0:
357,178,52342,2,0,P|396:173|436:180,1,80,0|0,1:3|3:0,0:0:0:0:
281,124,52829,2,0,P|208:146|185:165,1,80,0|0,3:0|2:0,0:0:0:0:
163,296,53317,1,8,0:0:0:0:
78,337,53560,6,0,P|26:344|-16:333,1,80,0|0,3:0|3:0,0:0:0:0:
67,217,54048,2,0,P|119:210|161:221,1,80,8|0,0:0|2:0,0:0:0:0:
252,324,54536,1,2,1:3:0:0:
252,324,54658,1,2,1:3:0:0:
252,324,54780,1,2,1:3:0:0:
319,245,55024,1,8,0:0:0:0:
387,323,55268,1,0,1:0:0:0:
354,177,55512,6,0,P|347:211|298:255,1,80,4|0,0:2|1:0,0:0:0:0:
189,206,55999,1,8,0:0:0:0:
110,249,56243,2,0,P|84:225|70:161,1,80,0|0,1:0|2:0,0:0:0:0:
42,85,56731,2,0,P|63:56|124:38,1,80,0|0,3:0|2:0,0:0:0:0:
197,36,57219,1,8,0:0:0:0:
296,60,57463,5,0,3:0:0:0:
216,128,57707,1,0,1:0:0:0:
292,196,57951,1,8,0:0:0:0:
216,128,58195,1,0,1:0:0:0:
376,128,58438,2,0,P|431:126|468:135,1,80
431,272,58926,2,0,P|388:277|341:273,1,80
330,269,59292,2,0,L|329:232,1,20,0|0,3:0|3:0,0:0:0:0:
307,278,59414,6,0,P|238:263|140:280,1,160,4|8,0:2|0:0,0:0:0:0:
75,203,60146,1,0,1:0:0:0:
14,291,60390,1,0,0:0:0:0:
16,300,60511,1,0,0:0:0:0:
19,310,60633,1,0,0:0:0:0:
22,319,60755,1,0,0:0:0:0:
25,329,60877,1,0,0:0:0:0:
150,275,61121,1,8,1:0:0:0:
204,349,61365,5,0,2:0:0:0:
235,262,61609,1,0,1:0:0:0:
336,334,61853,2,0,B|398:345|426:329|422:332,1,80,8|0,0:0|1:0,0:0:0:0:
491,262,62341,1,2,1:3:0:0:
495,253,62462,1,2,1:3:0:0:
499,244,62584,1,2,1:3:0:0:
425,130,62829,2,0,B|363:119|335:135|339:132,1,80,8|0,0:0|1:0,0:0:0:0:
190,44,63317,5,0,0:0:0:0:
235,129,63560,1,0,0:0:0:0:
339,51,63804,2,0,P|339:108|349:140,1,80
410,222,64292,1,0,2:0:0:0:
465,134,64536,1,0,3:0:0:0:
491,277,64780,2,0,P|497:319|485:373,1,80,0|8,2:1|0:0,0:0:0:0:
312,257,65268,5,0,2:0:0:0:
320,360,65512,1,0,3:0:0:0:
145,315,65756,2,0,P|185:313|225:317,1,80,8|0,0:0|1:0,0:0:0:0:
69,266,66243,1,0,3:0:0:0:
58,358,66487,1,0,3:0:0:0:
111,182,66731,2,0,P|151:143|177:126,1,80,8|0,0:0|1:0,0:0:0:0:
195,123,67097,6,0,L|215:128,2,20,0|0|4,3:0|3:0|0:2,0:0:0:0:
282,180,67463,1,0,1:0:0:0:
298,25,67707,2,0,P|246:17|207:31,1,80,8|0,0:0|1:0,0:0:0:0:
134,83,68195,1,0,0:0:0:0:
192,169,68438,2,0,P|200:209|190:261,1,80,0|0,3:3|1:0,0:0:0:0:
306,351,68926,1,8,0:0:0:0:
381,278,69170,6,0,P|431:273|485:280,1,80,2|0,0:2|1:0,0:0:0:0:
510,184,69658,1,8,0:0:0:0:
448,94,69902,1,0,1:0:0:0:
394,196,70146,1,2,1:3:0:0:
394,196,70268,1,2,1:3:0:0:
394,196,70390,1,2,1:3:0:0:
244,270,70634,2,0,P|283:277|323:272,1,80,8|0,0:0|1:0,0:0:0:0:
167,203,71121,6,0,P|141:270|184:356,1,160,8|2,0:3|2:3,0:3:0:0:
273,377,71853,2,0,P|338:371|367:382,1,80,0|0,1:0|2:0,0:0:0:0:
512,313,72341,2,0,P|473:304|434:311,1,80,0|0,2:0|1:0,0:0:0:0:
333,276,72829,1,8,0:0:0:0:
429,232,73073,6,0,P|438:269|429:322,1,80,0|0,1:0|3:0,0:0:0:0:
333,276,73560,2,0,P|328:236|337:197,1,80,8|0,0:0|2:0,0:0:0:0:
390,107,74048,1,0,3:0:0:0:
285,105,74292,1,0,3:0:0:0:
232,192,74536,2,0,P|196:200|138:189,1,80,8|0,0:0|1:0,0:0:0:0:
129,184,74902,2,0,L|109:209,1,20,0|0,3:0|3:0,0:0:0:0:
116,163,75024,6,0,P|99:110|27:28,1,160,4|8,0:2|0:0,0:0:0:0:
163,30,75756,1,0,1:0:0:0:
246,133,75999,1,0,0:0:0:0:
253,121,76120,1,0,0:0:0:0:
260,110,76243,1,0,0:0:0:0:
267,99,76365,1,0,0:0:0:0:
275,87,76487,2,0,P|325:89|373:78,1,80,0|8,1:0|0:0,0:0:0:0:
436,42,76975,6,0,P|445:86|429:131,1,80,0|0,2:0|3:0,0:0:0:0:
360,191,77463,1,8,0:0:0:0:
261,157,77707,1,0,1:0:0:0:
154,191,77952,1,0,0:0:0:0:
126,198,78073,1,0,0:0:0:0:
99,192,78195,1,0,0:0:0:0:
126,100,78438,2,0,P|133:60|125:22,1,80,8|2,1:3|2:2,0:0:0:0:
25,62,78926,6,0,P|17:107|27:146,2,80,2|0|0,2:2|2:0|2:0,0:0:0:0:
126,100,79658,1,0,2:0:0:0:
225,59,79902,2,0,B|311:34|302:80|383:58,1,160,2|0,2:2|2:0,0:0:0:0:
485,23,80634,1,0,2:0:0:0:
443,159,80877,6,0,P|462:221|482:243,1,80,2|0,2:2|2:0,0:0:0:0:
409,316,81365,2,0,P|345:301|316:307,1,80,0|0,2:0|2:0,0:0:0:0:
299,207,81853,2,0,P|343:159|352:131,1,80,2|0,2:2|2:0,0:0:0:0:
250,118,82341,1,0,2:0:0:0:
183,198,82585,1,0,2:0:0:0:
123,85,82829,6,0,P|69:70|32:77,2,80,2|0|0,2:2|2:0|2:0,0:0:0:0:
211,43,83560,2,0,P|289:47|321:128,1,160,2|2,2:0|2:0,0:0:0:0:
320,218,84292,1,2,2:2:0:0:
246,115,84536,1,2,2:2:0:0:
246,115,85024,6,0,P|241:154|247:192,1,47.9999985351563
229,256,85268,2,0,P|244:193|240:156,1,95.9999970703126,8|0,0:0|0:0,0:0:0:0:
147,68,85756,1,8,0:0:0:0:
56,166,85999,5,2,1:3:0:0:
49,189,86121,1,2,1:3:0:0:
47,212,86243,1,2,1:3:0:0:
49,235,86365,1,2,1:3:0:0:
55,258,86487,1,2,1:3:0:0:
67,278,86609,1,2,1:3:0:0:
82,296,86731,6,0,P|149:313|214:367,1,143.999995605469,4|0,0:1|1:0,0:0:0:0:
234,360,87219,2,0,P|290:356|338:369,1,95.9999970703126,8|0,0:0|1:0,0:0:0:0:
454,271,87707,2,0,P|368:268|327:285,1,95.9999970703126,2|0,0:2|0:0,3:0:0:0:
217,286,88195,1,8,0:0:0:0:
268,162,88438,1,0,1:0:0:0:
107,225,88682,6,0,P|50:232|7:222,1,95.9999970703126,2|0,0:2|1:0,0:0:0:0:
11,113,89170,2,0,P|68:106|111:116,1,95.9999970703126,8|0,0:0|1:0,0:0:0:0:
211,172,89658,1,2,0:2:0:0:
307,78,89902,1,0,1:0:0:0:
176,47,90146,1,8,0:0:0:0:
315,175,90390,1,0,3:0:0:0:
104,89,90634,6,0,B|82:82|82:82|28:161|122:161|72:263,1,191.999994140625,6|8,0:2|0:0,0:0:0:0:
34,341,91365,1,0,3:0:0:0:
162,263,91609,2,0,P|170:199|160:159,1,95.9999970703126,2|0,0:2|3:0,0:0:0:0:
26,124,92097,2,0,P|19:59|33:18,1,95.9999970703126,8|0,0:1|3:0,0:0:0:0:
136,77,92585,6,0,P|212:99|250:98,1,95.9999970703126,2|0,0:2|1:0,0:0:0:0:
454,75,93073,2,0,P|378:97|340:96,1,95.9999970703126,8|0,0:1|1:0,0:0:0:0:
294,2,93560,1,2,0:2:0:0:
228,99,93804,1,0,1:0:0:0:
300,191,94048,1,8,0:0:0:0:
240,292,94292,1,0,1:0:0:0:
392,189,94536,6,0,P|439:182|484:197,2,95.9999970703126,6|0|8,0:2|1:0|0:0,0:0:0:0:
340,270,95268,1,0,0:0:0:0:
150,199,95512,2,8,P|102:193|57:208,2,95.9999970703126,2|0|8,0:2|1:0|0:0,0:0:0:0:
238,236,96243,1,0,0:0:0:0:
398,114,96487,6,8,P|444:107|490:119,2,95.9999970703126,6|0|8,3:2|3:0|1:0,3:0:0:0:
320,171,97219,1,0,1:0:0:0:
135,113,97463,2,0,P|92:108|27:123,1,95.9999970703126,2|0,3:2|1:2,0:3:0:0:
240,44,97951,1,8,0:0:0:0:
234,192,98195,1,0,0:0:0:0:
374,121,98438,6,0,B|417:219|347:308,1,191.999994140625,6|8,0:2|0:0,0:0:0:0:
266,367,99170,1,0,3:0:0:0:
203,248,99414,2,0,P|142:243|98:256,1,95.9999970703126,2|0,3:2|3:0,0:0:0:0:
12,156,99902,2,0,P|73:151|117:164,1,95.9999970703126,8|0,0:0|3:0,0:0:0:0:
160,320,100390,5,2,0:2:0:0:
179,127,100634,2,0,P|148:70|118:41,2,95.9999970703126,0|8|0,1:0|0:0|1:0,0:0:0:0:
83,246,101365,1,2,0:2:0:0:
225,219,101609,1,0,1:0:0:0:
150,330,101853,1,8,0:0:0:0:
180,126,102097,1,0,1:0:0:0:
329,306,102341,6,0,P|285:334|134:321,1,191.999994140625,6|8,0:2|0:0,0:0:0:0:
225,219,103073,1,0,1:0:0:0:
329,306,103317,2,0,P|399:326|444:326,1,95.9999970703126,2|0,0:2|1:0,0:0:0:0:
345,189,103804,1,8,0:0:0:0:
493,273,104048,6,0,B|472:225|494:181|494:181|474:118|421:103,1,191.999994140625,0|0,1:0|1:0,0:0:0:0:
306,64,104780,2,0,P|237:59|183:70,1,95.9999970703126,8|0,0:0|1:0,0:0:0:0:
76,184,105268,1,2,0:2:0:0:
114,9,105512,1,0,1:0:0:0:
190,176,105756,1,8,0:0:0:0:
31,81,105999,1,0,1:0:0:0:
190,176,106243,6,0,P|273:191|303:184,1,95.9999970703126,6|0,0:2|1:0,0:0:0:0:
407,254,106731,2,0,P|324:269|294:262,1,95.9999970703126,8|0,0:0|1:0,0:0:0:0:
168,256,107219,1,2,0:2:0:0:
266,115,107463,2,8,P|275:60|268:14,1,95.9999970703126,0|8,1:0|0:0,0:0:0:0:
170,80,107951,1,0,1:0:0:0:
60,29,108195,6,0,P|53:76|59:123,1,95.9999970703126,2|0,0:2|3:0,0:0:0:0:
266,115,108682,2,0,P|266:178|252:232,1,95.9999970703126,8|0,0:0|1:0,0:0:0:0:
144,145,109170,1,2,0:2:0:0:
166,305,109414,1,0,1:0:0:0:
259,210,109658,1,8,0:0:0:0:
82,290,109902,1,0,1:0:0:0:
209,375,110146,6,0,P|139:384|97:255,1,191.999994140625,6|8,0:2|0:0,0:0:0:0:
151,156,110877,1,0,1:0:0:0:
294,172,111121,2,0,P|220:217|161:330,1,191.999994140625,2|8,0:2|0:0,0:0:0:0:
67,210,111853,1,0,1:0:0:0:
308,244,112097,6,0,P|360:201|303:101,1,191.999994140625,6|8,0:2|0:0,0:0:0:0:
180,62,112829,1,0,3:0:0:0:
197,195,113073,2,0,P|269:177|327:168,1,95.9999970703126,2|0,1:2|1:0,0:0:0:0:
404,227,113560,1,8,0:0:0:0:
400,103,113804,1,0,1:0:0:0:
494,306,114048,6,0,P|458:328|313:299,1,191.999994140625,6|8,0:2|0:0,0:0:0:0:
215,243,114780,1,0,1:0:0:0:
122,327,115024,2,0,P|87:265|94:212,1,95.9999970703126,2|0,0:2|1:0,0:0:0:0:
159,141,115512,1,8,0:0:0:0:
215,243,115756,1,0,1:0:0:0:
159,141,115999,6,0,L|193:32,1,95.9999970703126,2|0,0:2|1:0,0:0:0:0:
353,141,116487,2,0,L|319:32,1,95.9999970703126,8|0,0:0|1:0,0:0:0:0:
256,228,116975,1,2,0:2:0:0:
256,91,117219,1,0,1:0:0:0:
210,294,117463,2,0,P|267:307|315:287,1,95.9999970703126,8|0,3:1|3:2,0:0:0:0:
384,249,117951,6,0,P|395:304|389:333,1,60.0000022888184,0|0,2:0|2:0,2:0:0:0:
442,195,118438,2,0,P|479:237|488:265,1,60.0000022888184,0|0,2:0|2:0,2:0:0:0:
483,125,118926,1,0,2:0:0:0:
483,125,119170,1,0,2:0:0:0:
418,63,119414,2,2,B|386:57|352:64,1,60.0000022888184,0|0,2:1|2:1,2:1:0:0:
224,109,119902,6,0,P|254:112|284:108,1,60.0000022888184,0|0,2:0|2:0,2:0:0:0:
153,62,120390,2,0,B|126:57|94:63,1,60.0000022888184,0|0,2:0|2:0,2:0:0:0:
29,102,120877,1,0,2:0:0:0:
24,242,121121,2,0,P|25:212|17:184,1,60.0000022888184,0|0,2:0|2:0,2:0:0:0:
99,192,121609,1,0,2:0:0:0:
218,246,121853,6,0,P|177:252|144:244,1,60.0000022888184,0|0,2:0|2:0,2:0:0:0:
285,201,122341,2,2,P|295:253|290:278,1,60.0000022888184,0|0,2:0|2:0,2:1:0:0:
260,332,122829,1,0,2:0:0:0:
407,319,123073,2,0,P|412:289|407:260,1,60.0000022888184,0|0,2:0|2:0,2:0:0:0:
367,196,123560,1,0,2:0:0:0:
476,233,123804,5,0,2:0:0:0:
407,319,124048,2,0,P|408:356|406:387,1,60.0000022888184,0|0,2:0|2:0,2:0:0:0:
476,292,124536,2,0,P|474:262|476:233,1,60.0000022888184,0|0,2:0|2:0,2:0:0:0:
407,147,125024,2,0,P|408:184|406:215,1,60.0000022888184,0|0,2:0|2:0,2:0:0:0:
127,30,125756,6,0,P|128:84|100:124,1,80,12|0,0:1|1:0,0:0:0:0:
53,174,126243,1,8,0:0:0:0:
0,249,126487,2,0,P|-9:289|-2:330,1,80,0|0,1:0|2:0,0:0:0:0:
74,374,126975,2,0,P|83:334|75:295,1,80,0|0,1:0|2:0,0:0:0:0:
53,174,127463,1,8,0:0:0:0:
188,216,127707,5,0,1:0:0:0:
155,335,127951,2,0,P|207:344|240:329,1,80,0|8,3:0|0:1,0:0:0:0:
308,285,128438,1,0,1:0:0:0:
384,327,128682,2,0,P|437:335|468:323,1,80,0|0,3:0|3:0,0:0:0:0:
423,246,129170,2,0,P|424:206|437:168,1,80,8|0,0:0|1:0,0:0:0:0:
450,138,129536,6,0,L|459:116,2,20,0|0|4,3:0|3:0|0:2,0:0:0:0:
357,146,129902,1,0,1:0:0:0:
257,129,130146,1,8,0:0:0:0:
177,204,130390,2,0,P|217:207|252:226,1,80,0|0,1:0|3:0,0:0:0:0:
263,326,130877,2,0,P|224:322|189:304,1,80,0|0,3:0|2:0,0:0:0:0:
96,211,131365,1,8,0:0:0:0:
21,167,131609,6,0,P|8:105|14:76,1,80,0|0,3:0|3:0,0:0:0:0:
112,24,132097,1,8,0:0:0:0:
115,115,132341,1,0,2:0:0:0:
213,130,132585,1,2,1:3:0:0:
213,130,132707,1,2,1:3:0:0:
213,130,132829,1,2,1:3:0:0:
300,46,133073,2,0,P|261:38|222:44,1,80,8|0,0:0|1:0,0:0:0:0:
281,203,133560,6,0,P|290:165|314:133,2,80,4|0|8,0:2|1:0|0:0,0:0:0:0:
317,283,134292,2,0,P|323:336|312:376,1,80,0|0,1:0|2:0,0:0:0:0:
417,283,134780,2,0,P|410:336|421:376,1,80,0|0,3:0|2:0,0:0:0:0:
493,323,135268,1,8,0:0:0:0:
317,283,135512,6,0,P|269:273|225:291,1,80,0|0,3:0|1:0,0:0:0:0:
181,337,135999,1,8,0:0:0:0:
276,348,136243,1,0,1:0:0:0:
223,208,136487,2,0,P|178:240|164:281,1,80,0|0,3:0|3:0,0:0:0:0:
77,266,136975,2,0,P|56:232|21:212,1,80,8|0,0:0|1:0,0:0:0:0:
2,198,137341,6,0,L|-1:164,2,20,0|0|4,3:0|3:0|0:2,0:0:0:0:
69,124,137707,1,0,0:0:0:0:
140,177,137951,2,0,P|172:185|230:173,1,80,8|0,0:0|1:0,0:0:0:0:
274,61,138438,1,0,0:0:0:0:
278,52,138559,1,0,0:0:0:0:
282,42,138681,1,0,0:0:0:0:
286,32,138803,1,0,0:0:0:0:
290,22,138925,1,0,0:0:0:0:
192,108,139170,1,0,3:0:0:0:
115,67,139414,5,0,2:0:0:0:
189,19,139658,1,0,1:0:0:0:
193,191,139902,1,8,0:0:0:0:
265,142,140146,1,0,1:0:0:0:
399,123,140390,1,2,1:3:0:0:
399,123,140512,1,2,1:3:0:0:
399,123,140634,1,2,1:3:0:0:
336,180,140877,2,8,P|341:237|355:272,1,80,8|8,0:0|1:0,0:0:0:0:
303,352,141365,5,0,1:0:0:0:
410,320,141609,1,0,0:1:0:0:
211,259,141853,2,0,P|171:253|131:258,1,80,8|0,0:0|1:0,0:0:0:0:
59,334,142341,1,0,2:0:0:0:
25,218,142585,1,0,1:0:0:0:
131,258,142829,1,0,2:0:0:0:
210,179,143073,1,8,0:0:0:0:
325,227,143317,6,0,P|389:239|417:235,1,80,0|8,1:0|0:0,0:0:0:0:
496,120,143804,2,0,P|432:108|404:112,1,80,8|0,0:0|1:0,0:0:0:0:
320,84,144292,1,0,3:0:0:0:
252,168,144536,1,0,3:0:0:0:
168,104,144780,2,0,P|104:96|64:108,1,80,8|0,0:0|1:0,0:0:0:0:
64,112,145146,6,0,L|48:144,2,20,0|0|4,3:0|3:0|0:2,0:0:0:0:
124,206,145512,1,0,1:0:0:0:
49,347,145756,2,0,P|42:306|48:268,1,80,8|0,0:0|1:0,0:0:0:0:
144,306,146243,1,0,3:0:0:0:
237,351,146487,2,0,P|289:358|328:345,1,80,0|0,3:0|2:0,0:0:0:0:
400,256,146975,1,8,0:0:0:0:
273,225,147219,6,0,P|250:180|250:142,1,80,0|0,3:0|3:0,0:0:0:0:
269,49,147707,1,8,0:0:0:0:
354,116,147951,1,0,2:0:0:0:
425,37,148195,1,2,1:3:0:0:
425,37,148317,1,2,1:3:0:0:
425,37,148438,1,2,1:3:0:0:
456,164,148682,2,0,P|469:219|466:259,1,80,8|0,0:0|1:0,0:0:0:0:
258,230,149170,6,0,P|245:178|248:135,1,80,4|0,0:2|1:0,0:0:0:0:
345,176,149658,1,8,0:0:0:0:
289,56,149902,2,0,P|246:47|196:54,1,80,0|0,1:0|2:0,0:0:0:0:
42,56,150390,2,0,P|85:47|135:54,1,80,0|0,3:0|2:0,0:0:0:0:
166,152,150877,1,8,0:0:0:0:
65,156,151121,6,0,P|54:213|62:251,1,80,0|0,3:0|1:0,0:0:0:0:
146,295,151609,1,8,0:0:0:0:
241,246,151853,1,0,1:0:0:0:
336,304,152097,1,0,3:0:0:0:
245,357,152341,1,0,3:0:0:0:
324,219,152585,2,0,P|324:177|298:132,1,80,8|0,0:0|1:0,0:0:0:0:
292,122,152951,6,0,L|276:104,2,20,0|0|4,3:0|3:0|0:2,0:0:0:0:
170,66,153317,1,0,0:0:0:0:
261,5,153560,1,8,0:0:0:0:
278,107,153804,1,0,1:0:0:0:
185,170,154048,1,2,1:3:0:0:
370,188,154292,2,0,P|395:147|369:34,1,160,2|8,1:3|0:0,0:0:0:0:
254,24,155024,5,0,2:0:0:0:
180,134,155268,1,0,1:0:0:0:
315,113,155512,1,8,0:0:0:0:
248,234,155756,1,0,1:0:0:0:
377,240,155999,1,2,1:3:0:0:
377,240,156121,1,2,1:3:0:0:
377,240,156243,1,2,1:3:0:0:
257,149,156487,2,0,P|218:137|147:137,1,80,8|0,0:0|1:0,0:0:0:0:
71,199,156975,6,0,P|63:234|75:276,1,68.0000012969971,0|0,2:0|2:0,0:0:0:0:
216,270,157463,2,0,P|191:246|160:235,1,68.0000012969971,0|0,2:0|2:0,0:0:0:0:
140,334,157951,2,0,P|191:367|274:351,1,136.000002593994,0|0,2:0|2:0,0:0:0:0:
332,300,158682,1,0,2:0:0:0:
419,335,158926,2,0,P|462:346|517:338,1,68.0000012969971,0|0,2:0|2:0,0:0:0:0:
408,241,159414,1,0,2:0:0:0:
489,207,159658,1,0,2:0:0:0:
341,174,159902,1,0,2:0:0:0:
341,174,160390,6,0,P|290:178|252:167,1,68.0000012969971,0|0,2:0|2:0,0:0:0:0:
189,172,160877,2,0,P|204:129|239:98,1,68.0000012969971,0|0,2:0|2:0,0:0:0:0:
307,85,161365,1,0,2:0:0:0:
209,29,161609,2,0,P|176:40|151:63,1,68.0000012969971,0|0,2:0|2:0,0:0:0:0:
112,144,162097,2,0,P|107:185|119:226,2,68.0000012969971,0|0|0,2:0|2:0|2:0,0:0:0:0:
53,70,162829,5,0,2:0:0:0:
20,175,163073,2,0,P|27:233|40:261,1,68.0000012969971,0|0,2:0|2:0,0:0:0:0:
117,299,163560,1,0,2:0:0:0:
220,259,163804,2,0,P|267:254|305:266,1,68.0000012969971,0|0,2:0|2:0,0:0:0:0:
320,338,164292,2,0,P|273:343|235:331,1,68.0000012969971,0|0,2:0|2:0,0:0:0:0:
288,168,164780,5,0,3:0:0:0:
428,265,165024,1,12,0:3:0:0:
286,258,165268,1,0,3:0:0:0:
426,141,165512,1,0,2:0:0:0:
259,88,165756,2,0,P|217:120|197:166,1,80,0|0,3:0|3:0,0:0:0:0:
183,291,166243,1,0,2:0:0:0:
85,156,166487,1,0,3:0:0:0:
288,169,166731,6,0,P|325:150|353:116,1,80,6|0,3:2|2:0,0:0:0:0:
113,76,167219,2,0,P|73:77|36:92,1,80,0|0,3:0|3:0,0:0:0:0:
270,245,167707,2,0,P|309:243|346:228,1,80,4|0,2:0|3:0,0:0:0:0:
285,91,168195,1,0,3:0:0:0:
461,193,168438,1,0,2:0:0:0:
390,0,168682,5,4,3:0:0:0:
380,144,168926,1,0,3:0:0:0:
507,76,169170,1,4,2:0:0:0:
285,91,169414,2,0,P|237:94|173:78,1,80,0|4,3:0|3:0,0:0:0:0:
463,134,169902,2,0,P|485:165|501:202,1,80,8|4,2:1|3:3,0:3:0:0:
421,315,170390,1,0,3:0:0:0:
463,134,170634,1,4,2:0:0:0:
341,220,170877,6,0,P|299:227|264:223,1,47.9999985351563,0|0,3:0|0:0,0:0:0:0:
200,240,171121,2,0,P|259:227|315:231,1,95.9999970703126,8|0,0:0|3:0,0:0:0:0:
272,348,171609,1,8,0:0:0:0:
200,240,171853,5,2,1:3:0:0:
187,223,171974,1,2,1:3:0:0:
173,209,172097,1,2,1:3:0:0:
155,198,172218,1,2,1:3:0:0:
136,190,172340,1,2,1:3:0:0:
116,186,172462,1,2,1:3:0:0:
99,181,172585,6,0,P|43:137|30:65,1,143.999995605469,4|0,0:1|1:0,0:0:0:0:
40,43,173073,2,0,P|105:54|140:45,1,95.9999970703126,8|0,0:0|1:0,0:0:0:0:
325,18,173560,2,0,P|260:7|225:16,1,95.9999970703126,2|0,0:2|1:0,0:0:0:0:
176,145,174048,1,8,0:0:0:0:
273,85,174292,1,0,1:0:0:0:
220,220,174536,6,0,P|173:227|127:216,1,95.9999970703126,2|0,0:2|1:0,0:0:0:0:
273,85,175024,1,8,0:0:0:0:
336,183,175268,1,8,1:0:0:0:
389,70,175512,5,2,0:2:0:0:
337,285,175756,1,0,1:0:0:0:
176,145,175999,1,8,0:0:0:0:
336,183,176243,1,0,3:0:0:0:
191,272,176487,6,0,B|160:291|134:292|134:292|143:201|55:149,1,191.999994140625,6|8,0:2|0:0,0:0:0:0:
0,136,177219,1,0,3:0:0:0:
42,261,177463,2,8,P|35:322|0:366,1,95.9999970703126,2|0,0:2|3:0,0:0:0:0:
90,174,177951,2,0,P|69:130|71:83,1,95.9999970703126,8|0,0:0|1:0,0:0:0:0:
226,41,178438,6,0,P|203:85|160:110,1,95.9999970703126,2|0,0:2|1:0,0:0:0:0:
20,19,178926,1,8,0:0:0:0:
138,25,179170,1,0,1:0:0:0:
55,120,179414,2,0,P|41:177|60:224,1,95.9999970703126,2|0,0:2|1:0,0:0:0:0:
126,351,179902,1,8,0:0:0:0:
153,248,180146,1,0,1:0:0:0:
290,331,180390,6,0,P|355:339|407:322,2,95.9999970703126,6|0|8,0:2|1:0|0:0,0:0:0:0:
247,239,181121,1,0,0:0:0:0:
173,75,181365,2,0,P|108:67|56:84,2,95.9999970703126,2|0|8,0:2|1:0|0:0,0:0:0:0:
264,114,182097,1,0,0:0:0:0:
405,203,182341,6,8,P|470:208|521:189,2,95.9999970703126,2|0|8,0:2|1:0|0:1,0:0:0:0:
309,174,183073,1,0,1:0:0:0:
124,150,183317,2,0,P|65:147|15:169,1,95.9999970703126,2|0,0:2|1:0,0:0:0:0:
22,292,183804,1,8,0:0:0:0:
85,232,184048,1,0,1:0:0:0:
124,358,184292,6,0,P|179:368|316:356,1,191.999994140625,6|8,0:2|0:0,0:0:0:0:
421,226,185024,2,0,P|366:216|229:228,1,191.999994140625,0|0,1:0|3:0,0:0:0:0:
141,282,185756,1,8,0:0:0:0:
121,174,185999,1,0,3:0:0:0:
22,245,186243,5,2,0:2:0:0:
232,228,186487,2,0,B|204:164|214:87|214:87|263:129,1,191.999994140625,0|0,1:0|1:0,0:0:0:0:
309,174,187219,1,2,0:2:0:0:
115,88,187463,1,0,1:0:0:0:
232,228,187707,1,8,0:0:0:0:
271,93,187951,1,0,1:0:0:0:
460,113,188195,6,0,B|369:131|370:74|260:96,1,191.999994140625,6|8,0:2|0:0,0:0:0:0:
302,227,188926,1,0,1:0:0:0:
180,196,189170,1,2,0:2:0:0:
350,320,189414,2,8,P|295:328|239:316,1,95.9999970703126,0|0,1:0|1:0,0:0:0:0:
93,358,189902,2,0,P|116:266|197:186,1,191.999994140625,6|8,2:0|0:0,0:0:0:0:
97,97,190634,2,0,P|54:62|-1:45,1,95.9999970703126,8|0,0:0|1:0,0:3:0:0:
3,161,191121,5,2,0:2:0:0:
95,218,191365,1,0,1:0:0:0:
97,97,191609,1,8,0:0:0:0:
223,138,191853,1,0,1:0:0:0:
95,218,192097,6,0,P|114:292|233:303,1,191.999994140625,6|8,0:2|0:0,0:0:0:0:
313,269,192829,1,0,1:0:0:0:
179,236,193073,1,2,0:2:0:0:
323,360,193317,1,0,1:0:0:0:
424,234,193560,2,0,P|446:164|474:132,1,95.9999970703126,8|0,0:0|1:0,0:0:0:0:
309,55,194048,6,0,P|358:109|372:149,1,95.9999970703126,2|0,0:2|3:0,0:0:0:0:
177,150,194536,2,0,P|225:151|271:137,1,95.9999970703126,8|0,0:0|1:0,0:0:0:0:
104,82,195024,1,2,0:2:0:0:
129,237,195268,1,0,1:0:0:0:
10,121,195512,1,8,0:0:0:0:
177,150,195756,1,0,1:0:0:0:
15,260,195999,6,0,P|45:311|178:348,1,191.999994140625,6|8,0:2|0:0,0:0:0:0:
138,215,196731,1,0,1:0:0:0:
325,252,196975,2,0,B|232:214|232:264|127:209,1,191.999994140625,2|8,1:2|1:0,1:0:0:0:
257,315,197707,1,0,1:0:0:0:
242,94,197951,6,0,P|308:155|317:282,1,191.999994140625,6|8,0:2|0:0,0:0:0:0:
346,46,198682,1,0,3:0:0:0:
150,146,198926,2,0,P|132:92|151:41,1,95.9999970703126,2|0,1:2|1:0,0:0:0:0:
243,8,199414,1,8,0:0:0:0:
150,146,199658,1,0,1:0:0:0:
346,46,199902,6,0,P|398:51|484:177,1,191.999994140625,6|8,0:2|0:0,0:0:0:0:
492,322,200634,2,0,P|440:317|354:191,1,191.999994140625,0|0,1:0|1:0,0:0:0:0:
371,103,201365,1,8,0:0:0:0:
247,149,201609,1,0,1:0:0:0:
111,149,201853,6,0,P|64:150|19:165,1,95.9999970703126,2|0,0:2|1:0,0:0:0:0:
247,148,202341,2,0,P|294:149|339:164,1,95.9999970703126,8|0,0:0|1:0,0:0:0:0:
108,262,202829,2,0,P|51:260|6:241,1,95.9999970703126,2|0,3:2|1:0,0:0:0:0:
285,231,203317,1,0,3:0:0:0:
235,346,203560,1,0,3:0:0:0:
183,218,203804,6,0,B|165:165|165:165|125:125|62:123,1,160,4|2,0:1|0:2,0:0:0:0:
170,48,204536,1,0,3:0:0:0:
284,232,204780,2,0,B|269:174|269:174|277:128|277:128|262:64,1,160,8|2,0:0|0:2,0:0:0:0:
388,60,205512,6,0,P|415:135|414:214,1,160,0|0,3:0|3:0,0:0:0:0:
468,51,206243,2,0,P|488:110|487:160,1,80,2|0,0:2|1:0,0:0:0:0:
463,280,206731,1,8,0:0:0:0:
362,233,206975,2,0,B|318:213|255:216|254:216,2,80,0|2|0,3:0|0:2|1:0,0:0:0:0:
252,287,207707,6,0,B|173:309|63:281,1,160,0|2,3:0|0:2,0:0:0:0:
47,223,208438,1,0,3:0:0:0:
126,142,208682,2,0,P|204:134|272:175,1,160,8|4,0:0|0:2,0:0:0:0:
306,102,209414,2,0,P|352:165|351:244,1,160,0|0,3:0|3:0,0:0:0:0:
428,152,210146,2,0,P|434:203|426:252,1,80,4|0,0:2|1:0,0:0:0:0:
353,325,210634,1,0,3:0:0:0:
303,174,210877,1,8,0:0:0:0:
229,312,211121,1,8,0:0:0:0:
353,325,211365,1,0,3:0:0:0:
303,174,211609,6,0,P|264:219|228:329,1,160,4|2,0:1|0:2,0:0:0:0:
168,364,212341,1,0,3:0:0:0:
168,236,212585,2,0,P|205:165|263:108,1,160,8|2,0:0|0:2,0:0:0:0:
365,40,213317,2,0,P|408:107|424:185,1,160,0|0,3:0|3:0,0:0:0:0:
436,308,214048,2,0,P|356:311|280:286,1,160,8|8,0:0|0:0,0:0:0:0:
255,176,214780,1,0,3:0:0:0:
352,227,215024,2,0,P|349:184|339:137,1,80,2|0,0:2|0:0,0:0:0:0:
230,91,215512,6,0,P|179:128|186:233,1,160,0|2,3:0|0:2,0:0:0:0:
225,307,216243,1,0,3:0:0:0:
125,286,216487,2,8,P|94:238|90:123,1,160,0|2,0:0|0:2,0:0:0:0:
113,40,217219,1,0,3:0:0:0:
227,73,217463,6,0,P|278:88|326:77,1,80,2|0,0:2|1:0,0:0:0:0:
473,73,217951,2,0,P|423:88|374:77,1,80,2|0,0:2|1:0,0:0:0:0:
280,11,218438,1,8,0:0:0:0:
422,14,218682,1,0,3:0:0:0:
227,73,218926,1,8,0:0:0:0:
473,73,219170,1,0,3:0:0:0:
348,214,219414,5,4,0:1:0:0:
349,107,219658,1,0,1:0:0:0:
310,300,219902,2,0,P|349:306|392:297,1,80,8|0,1:0|3:0,0:0:0:0:
277,160,220390,2,0,P|204:150|96:168,1,160,8|0,0:0|1:0,0:0:0:0:
15,269,221121,6,0,P|88:279|196:261,1,160,0|0,3:0|3:0,0:0:0:0:
267,243,221853,2,0,P|312:236|358:246,1,80,0|0,3:0|1:0,0:0:0:0:
433,275,222341,1,8,0:0:0:0:
500,205,222585,2,0,P|512:138|501:37,1,160,0|0,3:0|1:0,0:0:0:0:
425,4,223317,6,0,P|417:67|431:99,1,80,0|0,3:0|1:0,0:0:0:0:
359,165,223804,2,0,P|366:204|356:243,1,80,2|0,0:2|1:0,0:0:0:0:
122,200,224292,2,0,P|203:185|280:199,1,160,8|0,0:0|1:0,0:0:0:0:
327,74,225024,6,0,P|369:144|374:225,1,160,0|0,3:0|3:0,0:0:0:0:
454,272,225756,2,0,P|433:306|405:334,1,80,0|0,3:0|1:0,0:0:0:0:
453,187,226243,1,8,0:0:0:0:
375,220,226487,1,0,3:0:0:0:
449,102,226731,1,8,0:0:0:0:
322,154,226975,1,0,3:0:0:0:
453,187,227219,6,0,P|509:195|538:191,1,80,4|0,0:1|1:0,0:0:0:0:
366,82,227707,2,0,P|310:74|284:77,1,80,0|0,1:0|3:0,0:0:0:0:
194,181,228195,2,8,P|107:204|30:176,1,160,0|0,3:0|1:0,0:0:0:0:
115,82,228926,1,0,1:0:0:0:
194,181,229170,5,0,1:0:0:0:
172,282,229414,2,0,P|178:321|199:355,1,80,0|0,3:0|3:0,3:0:0:0:
262,289,229901,1,0,1:0:0:0:
246,168,230146,1,8,0:0:0:0:
338,215,230390,2,0,P|349:292|334:382,1,160,8|0,0:0|1:0,0:0:0:0:
437,343,231121,6,0,P|444:288|439:243,1,80,0|0,3:0|1:0,0:0:0:0:
332,135,231609,2,0,P|331:174|337:214,1,80,0|8,1:0|0:0,0:0:0:0:
408,51,232097,2,0,P|326:25|234:74,1,160,8|0,0:0|2:0,0:0:0:0:
188,212,232829,6,0,P|270:238|362:189,1,160,8|0,0:0|3:0,0:0:0:0:
340,119,233560,2,0,P|373:126|415:163,1,80,0|0,2:0|2:0,0:0:0:0:
376,286,234048,1,8,0:0:0:0:
478,190,234292,1,0,3:0:0:0:
336,213,234536,1,0,3:0:0:0:
480,277,234780,1,0,3:0:0:0:
416,137,235024,6,0,P|362:104|322:107,1,80,4|0,0:1|1:0,0:0:0:0:
187,138,235512,2,0,P|241:105|281:108,1,80,0|0,1:0|3:0,0:0:0:0:
343,182,235999,2,0,B|254:185|254:185|242:225|262:264,1,160,0|0,3:0|2:0,0:0:0:0:
187,138,236731,6,0,P|170:215|184:293,1,160,0|0,3:0|3:0,0:0:0:0:
303,323,237463,2,0,P|354:338|410:333,1,80,0|0,3:0|1:0,0:0:0:0:
452,243,237951,1,8,0:0:0:0:
465,355,238195,1,0,3:0:0:0:
355,257,238438,2,0,P|293:244|258:245,1,80,0|0,1:0|1:0,0:0:0:0:
133,313,238926,6,0,P|94:324|55:327,2,80,0|0|0,3:0|1:0|1:0,0:0:0:0:
179,207,239658,1,0,3:0:0:0:
24,236,239902,2,0,B|85:200|111:242|187:202,1,160,8|0,0:0|1:0,0:0:0:0:
83,140,240634,2,0,P|42:141|-4:163,1,80,0|0,3:0|1:0,0:0:0:0:
62,32,241121,6,0,P|150:71|239:53,1,160,0|0,3:0|1:0,0:0:0:0:
339,35,241853,1,8,0:0:0:0:
284,179,242097,1,0,3:0:0:0:
390,128,242341,1,8,0:0:0:0:
396,272,242585,1,0,3:0:0:0:
284,179,242829,6,0,P|237:171|182:181,1,80,4|0,0:1|1:0,0:0:0:0:
106,253,243317,1,0,3:0:0:0:
129,116,243560,1,0,3:0:0:0:
235,251,243804,2,0,P|232:301|212:342,1,80,2|0,0:2|3:0,0:0:0:0:
54,371,244292,1,8,0:0:0:0:
118,288,244536,1,0,3:0:0:0:
10,264,244780,5,4,0:2:0:0:
86,132,245024,2,0,P|47:125|9:135,1,80,0|8,0:0|3:0,0:0:0:0:
178,195,245511,1,0,3:0:0:0:
258,84,245756,2,0,P|207:74|159:92,1,80,0|0,1:0|3:0,0:0:0:0:
5,39,246243,2,0,P|56:29|104:47,1,80,8|0,0:0|3:0,0:0:0:0:
191,216,246731,6,0,B|228:281|266:248|311:323,1,160,4|8,0:1|0:0,0:0:0:0:
210,369,247463,1,0,1:0:0:0:
352,217,247707,2,0,P|405:300|403:374,1,160,0|8,3:0|0:1,0:0:0:0:
308,319,248438,1,0,1:0:0:0:
223,160,248682,6,0,P|185:131|144:121,1,80,0|0,3:0|0:0,0:0:0:0:
302,139,249170,1,0,0:0:0:0:
151,213,249414,1,0,1:0:0:0:
226,40,249658,1,0,1:0:0:0:
262,244,249902,1,8,0:0:0:0:
351,22,250146,1,8,0:0:0:0:
154,122,250390,2,0,P|115:118|70:104,1,80,8|0,0:0|2:2,0:0:0:0:
105,141,252585,6,0,B|109:163|129:190|129:190|127:273|55:290|26:228|66:191|95:218,1,210.000008010865
93,214,253560,2,0,B|148:227|187:190|187:190|243:197|263:162|263:162|241:150|241:150,1,210.000008010865,0|0,2:0|2:0,2:2:0:0:
226,137,254536,2,0,B|206:111|182:95|182:95|209:88|231:77|231:77|278:89|312:105|343:134|343:134,1,210.000008010865,0|0,0:0|0:0,0:0:0:0:
338,131,255512,2,0,B|341:186|293:191|290:241|290:241|313:283|303:329,1,210.000008010865
323,332,256487,6,0,B|366:347|389:379|389:379|452:373|448:269|448:269,1,210.000008010865
447,254,257463,2,0,B|455:184|429:138|429:138|429:92|477:53,1,210.000008010865,0|0,0:1|0:1,0:0:0:0:
482,43,258438,2,0,P|440:26|263:50,1,210.000008010865,0|0,0:0|0:0,0:0:0:0:
260,52,259414,2,0,P|158:75|57:49,1,210.000008010865,0|0,0:0|0:0,0:0:0:0:
36,41,260390,6,0,P|15:93|26:173,1,120.000004577637,0|0,0:0|0:0,0:0:0:0:
62,219,261121,1,0,0:0:0:0:
127,179,261365,2,0,P|179:158|259:169,1,120.000004577637,0|0,0:0|0:0,0:0:0:0:
308,199,262097,2,0,P|367:203|422:182,1,120.000004577637,0|0,0:0|0:0,0:0:0:0:
446,110,262829,1,0,0:0:0:0:
499,166,263073,2,0,P|508:203|507:245,2,60.0000022888184,0|0|0,0:0|0:0|0:0,0:0:0:0:
401,169,263804,2,0,P|392:206|393:248,1,60.0000022888184,0|0,0:2|0:2,0:0:0:0:
446,110,264292,6,0,P|407:98|374:100,1,60.0000022888184,0|0,0:0|0:0,0:0:0:0:
401,21,264780,2,0,P|361:30|333:48,1,60.0000022888184,0|0,0:0|0:0,0:0:0:0:
318,111,265268,1,0,0:0:0:0:
318,111,265756,1,0,0:0:0:0:
253,72,265999,2,0,P|202:65|124:76,2,120.000004577637,0|0|0,0:0|0:0|0:0,0:0:0:0:
283,143,267219,1,0,0:0:0:0:
318,211,267463,1,0,2:0:0:0:
210,174,267707,2,0,P|192:203|179:234,1,68.0000012969971,4|0,0:2|0:0,0:0:0:0:
120,359,268195,6,0,L|103:294,1,68.0000012969971,0|0,2:0|2:0,0:0:0:0:
247,293,268682,2,0,L|225:379,1,68.0000012969971,0|0,2:0|2:0,0:0:0:0:
103,294,269170,2,0,L|120:228,1,68.0000012969971,0|0,2:0|2:0,0:0:0:0:
229,227,269658,2,0,L|253:317,1,68.0000012969971,0|0,2:0|2:0,0:0:0:0:
345,271,270146,6,0,P|398:282|427:269,1,68.0000012969971,0|0,2:0|2:0,0:0:0:0:
314,197,270634,2,0,P|309:164|289:137,1,68.0000012969971,0|0,2:0|2:0,0:0:0:0:
232,14,271121,2,0,P|242:45|238:79,1,68.0000012969971,0|0,2:0|2:0,0:0:0:0:
354,129,271609,2,0,P|322:141|289:137,1,68.0000012969971
433,152,272097,6,0,L|498:131,1,68.0000012969971,0|0,2:0|2:0,0:0:0:0:
311,210,272585,2,0,L|379:219,1,68.0000012969971,0|0,2:0|2:0,0:0:0:0:
433,152,273073,1,0,2:0:0:0:
465,244,273317,1,0,2:0:0:0:
433,336,273560,1,0,2:0:0:0:
325,285,273804,6,0,P|292:285|241:295,1,68.0000012969971,0|0,2:0|2:0,0:0:0:0:
229,352,274292,2,0,P|245:323|262:274,1,68.0000012969971,0|0,2:0|2:0,0:0:0:0:
264,183,274780,1,0,2:0:0:0:
161,207,275024,2,0,P|193:261|284:290,1,136.000002593994,0|0,2:0|2:0,0:0:0:0:
264,183,275756,1,0,2:0:0:0:
347,251,275999,6,0,P|383:284|412:316,1,68.0000012969971,0|0,2:0|2:0,0:0:0:0:
421,176,276487,1,0,2:0:0:0:
496,251,276731,1,0,2:0:0:0:
347,251,276975,1,0,2:0:0:0:
507,176,277219,1,0,2:0:0:0:
385,109,277463,2,0,P|349:142|320:174,1,68.0000012969971,0|0,2:0|2:0,0:0:0:0:
447,51,277951,5,0,2:0:0:0:
402,186,278195,1,0,2:0:0:0:
338,51,278438,1,0,2:0:0:0:
270,142,278682,2,0,P|209:158|183:156,2,68.0000012969971,0|0|0,2:0|2:0|2:0,0:0:0:0:
121,107,279414,2,0,P|82:151|65:202,1,102.000001945496,0|0,2:0|0:0,0:0:0:0:
71,214,279902,6,0,L|98:287,1,71.9999978027344,4|0,2:0|2:0,2:2:0:0:
215,351,280390,2,0,L|185:269,1,76.800001875,4|0,0:0|0:0,0:0:0:0:
224,147,280877,2,0,L|262:239,1,82.3999993084717,4|0,0:0|0:0,0:0:0:0:
380,295,281365,2,0,L|341:199,1,88.8000021679688,4|0,0:0|2:0,0:0:0:0:
379,119,281853,5,0,3:0:0:0:
224,147,282097,6,0,P|204:161|172:198,1,47.9999985351563,0|0,0:0|0:0,0:0:0:0:
167,270,282341,2,0,P|186:206|183:141,1,95.9999970703126,8|0,0:0|0:0,0:0:0:0:
129,70,282829,1,8,0:0:0:0:
55,174,283073,5,2,0:3:0:0:
64,198,283194,1,2,0:3:0:0:
78,220,283316,1,2,0:3:0:0:
97,240,283438,1,2,0:3:0:0:
119,255,283560,1,2,0:3:0:0:
142,266,283682,1,2,0:3:0:0:
167,270,283804,6,0,P|257:256|319:272,1,143.999995605469,4|0,0:1|1:0,0:0:0:0:
333,250,284292,2,0,P|356:192|394:159,1,95.9999970703126,8|0,0:0|1:0,0:0:0:0:
474,125,284780,1,2,0:2:0:0:
362,74,285024,2,0,P|306:63|264:70,1,95.9999970703126,0|8,1:0|0:0,0:0:0:0:
164,122,285512,1,0,1:0:0:0:
7,45,285756,6,0,P|63:111|166:121,1,191.999994140625,2|8,0:2|0:0,0:0:0:0:
117,20,286487,1,0,1:0:0:0:
15,205,286731,1,2,0:2:0:0:
7,45,286975,1,0,1:0:0:0:
163,122,287219,1,8,0:0:0:0:
35,122,287463,1,0,0:0:0:0:
154,29,287707,6,0,P|224:52|238:171,1,191.999994140625,6|8,0:2|0:0,0:0:0:0:
200,251,288438,1,0,0:0:0:0:
341,185,288682,2,0,P|399:174|444:185,1,95.9999970703126,2|0,0:2|0:0,0:0:0:0:
251,315,289170,2,0,P|193:326|148:315,1,95.9999970703126,8|0,0:0|1:0,0:0:0:0:
70,119,289658,6,0,P|139:159|202:259,1,191.999994140625,2|8,0:2|0:0,0:0:0:0:
127,357,290390,1,0,1:0:0:0:
199,250,290634,1,2,0:2:0:0:
295,361,290877,1,0,1:0:0:0:
348,206,291121,1,8,0:0:0:0:
199,250,291364,1,0,1:0:0:0:
379,331,291609,6,0,P|446:333|512:312,2,95.9999970703126,6|0|8,0:2|1:0|0:0,0:0:0:0:
291,276,292341,1,0,0:0:0:0:
132,333,292585,2,0,P|65:335|-1:314,2,95.9999970703126,2|0|8,0:2|1:0|0:0,0:0:0:0:
220,278,293317,1,0,0:0:0:0:
306,133,293560,6,0,P|354:126|402:130,2,95.9999970703126,2|0|8,0:2|1:0|0:0,0:0:0:0:
218,157,294292,1,0,1:0:0:0:
36,133,294536,2,0,P|83:128|131:135,1,95.9999970703126,2|0,0:2|1:0,0:0:0:0:
281,220,295024,1,8,0:0:0:0:
246,69,295268,1,0,1:0:0:0:
158,271,295512,6,0,P|172:338|185:364,1,95.9999970703126,6|0,0:2|0:0,0:0:0:0:
281,220,295999,1,8,0:0:0:0:
158,271,296243,2,0,P|111:273|59:262,1,95.9999970703126
31,152,296731,2,0,P|123:174|217:156,1,191.999994140625,0|0,0:0|0:0,0:0:0:0:
131,47,297463,5,2,0:2:0:0:
334,83,297707,2,0,P|332:160|365:278,1,191.999994140625,0|0,1:0|1:0,0:0:0:0:
447,344,298438,1,2,0:2:0:0:
472,234,298682,1,0,1:0:0:0:
309,349,298926,1,8,0:0:0:0:
350,179,299170,1,0,1:0:0:0:
170,276,299414,6,0,P|88:294|-11:243,1,191.999994140625,6|8,0:2|0:0,0:0:0:0:
14,83,300146,1,0,1:0:0:0:
96,184,300390,1,2,0:2:0:0:
166,60,300634,2,0,P|213:51|260:58,1,95.9999970703126,2|8,0:2|1:0,0:0:0:0:
294,232,301121,2,0,B|281:126|356:140|353:54,1,191.999994140625,0|0,1:0|1:0,0:0:0:0:
219,140,301853,2,8,P|171:148|125:139,1,95.9999970703126,8|0,0:0|1:0,0:0:0:0:
18,90,302341,6,0,P|10:137|15:185,1,95.9999970703126,2|0,0:2|1:0,0:0:0:0:
125,139,302829,1,8,0:0:0:0:
176,220,303073,1,0,1:0:0:0:
284,145,303317,6,0,P|341:135|400:153,1,95.9999970703126,6|0,0:2|1:0,0:0:0:0:
224,289,303804,2,0,P|164:300|108:282,1,95.9999970703126,8|0,0:0|1:0,0:0:0:0:
334,216,304292,1,2,0:2:0:0:
176,220,304536,1,0,1:0:0:0:
215,369,304780,2,0,P|278:346|305:305,1,95.9999970703126,8|0,0:0|1:0,0:0:0:0:
476,313,305268,6,0,P|425:235|334:215,1,191.999994140625,2|8,0:2|0:0,0:0:0:0:
261,280,305999,1,0,1:0:0:0:
189,120,306243,2,0,P|156:157|150:205,1,95.9999970703126,2|0,0:2|1:0,0:0:0:0:
292,90,306731,1,8,0:0:0:0:
245,194,306975,1,0,1:0:0:0:
185,15,307219,6,0,P|122:16|86:31,2,95.9999970703126,6|0|8,0:2|0:0|0:0,0:0:0:0:
255,81,307951,1,0,1:0:0:0:
393,18,308195,2,0,P|456:19|492:34,2,95.9999970703126,2|0|8,0:2|0:0|0:0,0:0:0:0:
329,79,308926,1,0,1:0:0:0:
158,188,309170,6,0,P|110:189|64:175,2,95.9999970703126,2|0|8,0:2|0:0|0:0,0:0:0:0:
234,128,309902,1,0,0:0:0:0:
439,165,310146,2,0,P|393:179|345:175,1,95.9999970703126,0|0,1:0|1:0,0:0:0:0:
283,249,310634,1,8,0:0:0:0:
380,92,310877,1,0,1:0:0:0:
487,269,311121,6,0,P|416:266|346:173,1,191.999994140625,6|8,0:2|0:0,0:0:0:0:
456,162,311853,1,0,1:0:0:0:
358,81,312097,1,2,0:2:0:0:
346,175,312341,2,0,P|361:120|355:67,1,95.9999970703126,0|8,1:0|0:0,0:0:0:0:
259,9,312829,1,0,1:0:0:0:
154,85,313073,6,0,P|152:132|166:178,1,95.9999970703126,2|0,0:2|1:0,0:0:0:0:
272,355,313560,2,0,P|286:309|285:262,1,95.9999970703126,8|0,0:0|1:0,0:0:0:0:
106,279,314048,2,0,P|151:293|199:291,1,95.9999970703126,2|0,0:2|1:0,0:0:0:0:
368,142,314536,1,8,0:0:0:0:
164,200,314780,1,8,0:0:0:0:
226,106,315024,6,0,P|270:162|272:176,1,80,4|0,0:1|0:0,0:0:0:0:
71,150,315512,2,0,P|127:106|141:104,1,80,0|0,0:0|1:0,0:3:0:0:
109,296,315999,2,8,P|65:240|63:226,1,80,0|8,0:3|1:0,0:0:0:0:
259,253,316487,2,0,P|203:297|189:299,1,80,8|0,0:0|1:0,0:0:0:0:
406,210,316975,6,0,P|417:268|413:304,1,80
331,131,317463,1,8,0:0:0:0:
259,253,317707,1,0,1:0:0:0:
146,176,317951,1,0,1:0:0:0:
196,298,318195,1,0,1:0:0:0:
7,328,318438,1,8,0:0:0:0:
169,366,318682,1,8,0:0:0:0:
75,247,318926,6,0,P|50:204|47:158,1,80,0|0,0:3|0:3,0:3:0:0:
196,298,319414,1,8,0:0:0:0:
146,176,319658,1,0,1:0:0:0:
341,234,319902,1,0,0:0:0:0:
193,228,320146,1,0,1:0:0:0:
340,133,320390,1,8,0:0:0:0:
343,335,320634,1,8,0:0:0:0:
464,158,320877,6,0,P|488:84|452:16,1,160,12|8,2:1|0:0,0:0:0:0:
398,92,321609,1,0,0:0:0:0:
341,234,321853,2,0,B|308:246|308:246|279:237|279:237|229:278|178:258,1,160,0|8,1:0|0:0,0:0:0:0:
174,120,322585,1,0,1:0:0:0:
174,120,322707,1,0,1:0:0:0:
174,120,322829,6,0,P|216:168|221:211,1,80,0|0,0:2|1:0,0:0:0:0:
150,317,323317,2,0,P|187:301|213:271,1,80,8|0,1:1|1:0,3:0:0:0:
64,315,323804,2,8,P|33:290|17:253,1,80,0|0,1:0|1:0,3:0:0:0:
80,118,324292,2,0,P|44:134|20:166,1,80,8|8,0:1|1:0,3:0:0:0:
219,182,324780,6,0,P|230:244|220:268,1,80,0|0,1:0|1:0,0:0:0:0:
121,226,325268,1,8,0:0:0:0:
298,305,325512,1,0,0:0:0:0:
219,182,325756,2,0,P|192:158|141:143,1,80
298,123,326243,1,8,0:0:0:0:
152,323,326487,1,8,0:0:0:0:
343,202,326731,6,0,P|355:254|351:288,1,80,0|0,1:0|1:0,0:0:0:0:
228,376,327219,2,0,P|267:369|302:350,1,80,8|0,0:0|1:0,0:0:0:0:
127,249,327707,2,0,P|133:288|152:323,1,80,0|0,1:0|0:0,0:0:0:0:
253,149,328195,2,0,P|213:155|178:174,1,80,8|8,0:0|1:0,0:0:0:0:
367,261,328682,6,8,P|360:221|341:186,1,80,0|0,1:0|1:0,0:0:0:0:
178,173,329170,1,8,0:0:0:0:
171,52,329414,1,0,1:0:0:0:
100,212,329658,1,0,0:0:0:0:
88,9,329901,1,0,0:0:0:0:
5,214,330146,1,8,1:0:0:0:
28,75,330390,1,8,1:0:0:0:
178,173,330634,5,12,0:1:0:0:
123,344,330877,1,0,0:0:0:0:
266,157,331121,1,8,0:0:0:0:
211,349,331365,1,0,0:0:0:0:
359,153,331609,1,8,0:0:0:0:
294,374,331853,1,0,0:0:0:0:
444,258,332097,1,8,0:0:0:0:
200,260,332341,1,0,0:0:0:0:
292,111,332585,6,8,P|331:103|369:110,1,80,8|0,0:0|0:0,0:0:0:0:
200,260,333073,1,8,0:0:0:0:
331,181,333317,1,0,0:0:0:0:
61,188,333560,5,8,0:0:0:0:
294,374,333804,1,8,0:0:0:0:
41,368,334048,1,8,0:0:0:0:
200,260,334292,2,8,P|202:219|187:180,1,80,8|0,0:0|2:2,0:0:0:0:
256,192,335512,12,0,341365,0:0:0:0:
