osu file format v14

[General]
AudioFilename: audio.mp3
AudioLeadIn: 0
PreviewTime: 387
Countdown: 1
SampleSet: Soft
StackLeniency: 0.7
Mode: 0
LetterboxInBreaks: 0
WidescreenStoryboard: 1

[Editor]
Bookmarks: 234851,250208,255208
DistanceSpacing: 1.1
BeatDivisor: 6
GridSize: 32
TimelineZoom: 0.5000001

[Metadata]
Title:Mata Ashita
TitleUnicode:またあした
Artist:soraru
ArtistUnicode:そらる
Creator:Naotoshi
Version:Reunion
Source:
Tags:soraai male vocal utaite cover fuwari p fuwarip kisses
BeatmapID:1421150
BeatmapSetID:672289

[Difficulty]
HPDrainRate:6
CircleSize:4.9
OverallDifficulty:8
ApproachRate:8
SliderMultiplier:1.4
SliderTickRate:1

[Events]
//Background and Video events
0,0,"mata ashita ne.jpg",0,0
//Break Periods
2,181102,185688
//Storyboard Layer 0 (Background)
//Storyboard Layer 1 (Fail)
//Storyboard Layer 2 (Pass)
//Storyboard Layer 3 (Foreground)
//Storyboard Sound Samples

[TimingPoints]
903,714.285714285714,4,2,0,19,1,0
903,-100,4,2,0,28,0,0
12331,-83.3333333333333,4,2,0,42,0,0
60902,-83.3333333333333,4,2,0,32,0,0
62331,-83.3333333333333,4,2,0,43,0,0
63762,-83.3333333333333,4,2,0,53,0,0
109474,-76.9230769230769,4,2,0,66,0,0
152331,-76.9230769230769,4,2,0,75,0,0
158045,-66.6666666666667,4,2,0,78,0,1
180902,-66.6666666666667,4,2,0,58,0,0
186617,-100,4,2,0,58,0,0
192331,-83.3333333333333,4,2,0,65,0,0
212333,-83.3333333333333,4,2,0,73,0,0
213760,-66.6666666666667,4,2,0,81,0,1
223402,-133.333333333333,4,2,0,58,0,0
225902,-71.4285714285714,4,2,0,52,0,0
226617,-71.4285714285714,4,2,0,80,0,1
238045,-71.4285714285714,4,2,0,58,0,0
243047,-71.4285714285714,4,2,0,35,0,0
245902,-100,4,2,0,58,0,0
249474,-76.9230769230769,4,2,0,81,0,1
255188,-76.9230769230769,4,2,0,67,0,0
260902,-66.6666666666667,4,2,0,76,0,1
277688,-66.6666666666667,4,2,0,58,0,0
283760,-66.6666666666667,4,2,0,76,0,1
305188,-133.333333333333,4,2,0,58,0,1
306617,-133.333333333333,4,2,0,39,0,0
313045,809.716599190283,4,2,0,32,1,0
313045,-133.333333333333,4,2,0,32,0,0
313708,779.220779220779,4,2,0,32,1,0
313854,900.009000090001,4,2,0,32,1,0
314742,-133.333333333333,4,2,0,20,0,0
314754,1037.1650821089,4,2,0,20,1,0
315671,952.380952380952,4,2,0,20,1,0
315790,1237.11340206186,4,2,0,20,1,0
317027,1282.87363694676,4,2,0,20,1,0
319474,952.380952380952,4,2,0,20,1,0
319593,960,4,2,0,20,1,0
322420,-133.333333333333,4,2,0,17,0,0

[Colours]
Combo1 : 187,153,186
Combo2 : 244,140,26
Combo3 : 234,159,162
Combo4 : 244,189,21

[HitObjects]
407,119,545,5,0,0:0:0:0:
332,127,903,1,2,0:0:0:0:
285,189,1438,1,0,0:0:0:0:
285,189,1617,1,0,0:0:0:0:
340,245,1974,1,0,0:0:0:0:
290,312,2331,6,0,P|255:301|211:299,1,70,2|0,0:0|0:0,0:0:0:0:
155,338,2867,1,0,0:0:0:0:
155,338,3045,1,2,0:0:0:0:
95,383,3402,1,0,0:0:0:0:
75,317,3760,6,0,P|99:265|98:242,1,70,2|0,0:0|0:0,0:0:0:0:
81,181,4295,1,2,0:0:0:0:
81,181,4385,1,2,0:0:0:0:
81,181,4474,1,2,0:0:0:0:
155,164,4831,1,0,0:0:0:0:
261,210,5188,6,0,B|308:210|347:160|347:160|301:158,1,140,2|0,0:0|0:0,0:0:0:0:
315,280,6260,5,0,0:0:0:0:
379,234,6617,2,0,P|426:229|464:234,1,70,2|0,0:0|0:0,0:0:0:0:
499,291,7331,1,2,0:0:0:0:
457,359,7688,1,0,0:0:0:0:
354,302,8045,6,0,P|319:300|284:305,1,70,2|0,0:0|0:0,0:0:0:0:
237,363,8760,1,2,0:0:0:0:
165,332,9474,6,0,P|157:293|165:260,1,70,2|0,0:0|0:0,0:0:0:0:
215,208,10188,1,0,0:0:0:0:
292,212,10545,1,0,0:0:0:0:
323,282,10902,2,0,P|378:292|368:169,1,210,2|0,0:0|0:0,0:0:0:0:
292,212,12331,6,0,P|243:227|168:196,1,125.999996154785,2|0,0:0|0:0,0:0:0:0:
129,125,13045,1,2,0:0:0:0:
175,44,13402,1,0,0:0:0:0:
272,57,13760,2,0,P|297:89|306:130,1,83.9999974365235,2|0,0:0|0:0,0:0:0:0:
268,220,14474,1,2,0:0:0:0:
457,281,15010,5,0,0:0:0:0:
490,199,15188,2,0,P|476:144|458:122,1,83.9999974365235,2|0,0:0|0:0,0:0:0:0:
377,76,15902,1,2,0:0:0:0:
271,118,16617,5,0,0:0:0:0:
242,190,16974,1,0,0:0:0:0:
284,255,17331,1,0,0:0:0:0:
195,334,17688,5,0,0:0:0:0:
144,264,18045,2,0,P|161:206|187:182,1,83.9999974365235,2|0,0:0|0:0,0:0:0:0:
255,225,18760,2,0,P|304:234|347:225,1,83.9999974365235,2|0,0:0|0:0,0:0:0:0:
411,170,19474,1,0,0:0:0:0:
392,72,19831,2,0,P|332:63|313:159,1,167.999994873047,2|0,0:0|0:0,0:0:0:0:
388,209,20902,5,2,0:0:0:0:
439,277,21260,1,0,0:0:0:0:
392,350,21617,2,0,P|328:344|305:348,1,83.9999974365235,2|0,0:0|0:0,0:0:0:0:
185,343,22331,5,0,0:0:0:0:
153,277,22688,1,0,0:0:0:0:
196,217,23045,1,0,0:0:0:0:
138,132,23402,5,0,0:0:0:0:
182,64,23760,2,0,P|241:38|304:59,1,125.999996154785,2|0,0:0|0:0,0:0:0:0:
356,115,24474,1,2,0:0:0:0:
354,198,24831,1,0,0:0:0:0:
296,259,25188,1,2,0:0:0:0:
212,251,25545,1,2,0:0:0:0:
164,181,25902,2,0,P|105:184|44:229,1,125.999996154785,2|0,0:0|0:0,0:0:0:0:
32,302,26617,2,0,P|34:349|55:389,2,83.9999974365235,2|0|0,0:0|0:0|0:0,0:0:0:0:
198,227,28045,5,0,0:0:0:0:
239,299,28402,1,0,0:0:0:0:
346,344,28760,6,0,L|416:331,1,41.9999987182618,2|0,0:0|0:0,0:0:0:0:
442,275,29117,1,2,0:0:0:0:
447,243,29295,1,2,0:0:0:0:
441,211,29474,1,2,0:0:0:0:
400,145,29831,2,0,P|329:150|285:239,1,167.999994873047,0|0,0:0|0:0,0:0:0:0:
332,290,30902,1,2,0:0:0:0:
332,319,32331,5,0,0:0:0:0:
251,342,32688,1,0,0:0:0:0:
178,300,33045,2,0,P|166:244|174:210,1,83.9999974365235
223,150,33760,6,0,P|278:158|315:151,2,83.9999974365235,2|0|0,0:0|0:0|0:0,0:0:0:0:
165,91,34831,5,0,0:0:0:0:
220,28,35188,2,0,P|270:24|319:35,1,83.9999974365235,2|0,0:0|0:0,0:0:0:0:
365,86,35902,2,0,P|433:96|468:91,1,83.9999974365235,2|0,0:0|0:0,0:0:0:0:
490,21,36617,2,0,P|436:-5|367:69,1,167.999994873047,2|0,0:0|0:0,0:0:0:0:
399,147,37688,5,0,0:0:0:0:
300,198,38045,1,2,0:0:0:0:
236,155,38402,1,0,0:0:0:0:
140,193,38760,1,2,0:0:0:0:
76,150,39117,1,0,0:0:0:0:
208,83,39474,5,2,0:0:0:0:
254,150,39831,1,2,0:0:0:0:
122,83,40188,1,2,0:0:0:0:
76,150,40545,1,0,0:0:0:0:
170,213,40902,6,0,P|232:241|259:241,1,83.9999974365235,2|0,0:0|0:0,0:0:0:0:
334,224,41617,2,0,P|379:175|389:84,1,125.999996154785,2|0,0:0|0:0,0:0:0:0:
358,34,42331,2,0,P|306:41|262:32,2,83.9999974365235,2|0|0,0:0|0:0|0:0,0:0:0:0:
451,18,43402,5,0,0:0:0:0:
493,87,43760,2,0,P|503:130|491:180,1,83.9999974365235,2|0,0:0|0:0,0:0:0:0:
456,250,44474,2,0,P|418:272|366:276,1,83.9999974365235,2|0,0:0|0:0,0:0:0:0:
292,258,45188,2,0,P|258:229|238:181,2,83.9999974365235,2|0|0,0:0|0:0|0:0,0:0:0:0:
384,177,46260,5,0,0:0:0:0:
309,118,46617,2,0,P|253:107|224:109,1,83.9999974365235,2|0,0:0|0:0,0:0:0:0:
144,157,47331,1,0,0:0:0:0:
74,263,47688,6,0,P|83:317|104:350,1,83.9999974365235,2|0,0:0|0:0,0:0:0:0:
191,332,48402,1,2,0:0:0:0:
281,358,48760,1,2,0:0:0:0:
433,336,49117,5,0,0:0:0:0:
394,256,49474,2,0,P|347:235|296:232,1,83.9999974365235,2|0,0:0|0:0,0:0:0:0:
129,251,50188,2,0,P|170:259|211:251,1,83.9999974365235,2|0,0:0|0:0,0:0:0:0:
258,165,50902,2,0,P|264:115|251:75,1,83.9999974365235,2|0,0:0|0:0,0:0:0:0:
142,32,51617,5,0,0:0:0:0:
109,110,51974,1,0,0:0:0:0:
159,191,52331,2,0,P|167:261|155:301,2,83.9999974365235,2|0|0,0:0|0:0|0:0,0:0:0:0:
299,237,53402,5,2,0:0:0:0:
356,172,53760,2,0,P|417:164|447:175,1,83.9999974365235
498,235,54474,2,0,P|516:296|492:352,1,125.999996154785,2|0,0:0|0:0,0:0:0:0:
404,339,55188,2,0,P|339:326|243:387,1,167.999994873047,2|0,0:0|0:0,0:0:0:0:
145,278,56260,5,0,0:0:0:0:
242,213,56617,1,2,0:0:0:0:
316,255,56974,1,0,0:0:0:0:
413,190,57331,1,2,0:0:0:0:
449,120,57688,1,0,0:0:0:0:
372,90,57986,6,0,L|349:104,3,13.9999995727539,2|0|0|0,0:0|0:0|0:0|0:0,0:0:0:0:
256,192,58224,12,2,60902,0:0:0:0:
319,271,62331,5,0,0:0:0:0:
233,291,62688,1,0,0:0:0:0:
155,234,63045,1,0,0:0:0:0:
141,128,63402,1,0,0:0:0:0:
230,80,63581,1,0,0:0:0:0:
233,87,63670,1,0,0:0:0:0:
237,94,63760,6,0,P|289:96|324:83,1,83.9999974365235,2|0,0:0|0:0,0:0:0:0:
399,20,64474,2,0,P|421:65|418:108,1,83.9999974365235,2|0,0:0|0:0,0:0:0:0:
358,161,65188,1,2,0:0:0:0:
456,291,65545,5,2,0:0:0:0:
425,226,65724,1,2,0:0:0:0:
382,284,65902,1,2,0:0:0:0:
255,231,66260,5,2,0:0:0:0:
217,248,66438,1,2,0:0:0:0:
192,278,66617,2,0,P|143:291|84:272,1,83.9999974365235,2|0,0:0|0:0,0:0:0:0:
43,222,67331,2,0,P|64:180|144:222,1,125.999996154785,2|0,0:0|0:0,0:0:0:0:
191,244,68045,6,0,P|234:230|272:199,1,83.9999974365235,2|0,0:0|0:0,0:0:0:0:
311,145,68581,1,0,0:0:0:0:
341,212,68760,1,2,0:0:0:0:
296,303,69117,5,2,0:0:0:0:
328,313,69295,1,2,0:0:0:0:
363,310,69474,1,2,0:0:0:0:
443,220,69831,1,0,0:0:0:0:
490,342,70188,2,0,P|505:280|459:224,1,125.999996154785,2|0,0:0|0:0,0:0:0:0:
428,294,70902,6,0,P|379:294|336:280,1,83.9999974365235,2|0,0:0|0:0,0:0:0:0:
301,222,71438,1,0,0:0:0:0:
241,263,71617,2,0,L|185:261,1,41.9999987182618,2|0,0:0|0:0,0:0:0:0:
104,171,71974,5,2,0:0:0:0:
137,151,72152,1,2,0:0:0:0:
174,138,72331,2,0,L|228:136,1,41.9999987182618,2|0,0:0|0:0,0:0:0:0:
291,188,72688,1,0,0:0:0:0:
247,71,73045,2,0,P|309:77|325:146,1,125.999996154785,2|0,0:0|0:0,0:0:0:0:
288,196,73760,6,0,P|282:250|293:294,1,83.9999974365235,2|0,0:0|0:0,0:0:0:0:
337,341,74474,1,2,0:0:0:0:
414,241,74831,5,2,0:0:0:0:
446,263,75010,1,2,0:0:0:0:
485,265,75188,2,0,P|488:223|477:183,1,83.9999974365235,2|0,0:0|0:0,0:0:0:0:
414,121,75902,2,0,P|365:113|329:120,1,83.9999974365235,2|0,0:0|0:0,0:0:0:0:
269,185,76617,5,0,0:0:0:0:
312,254,76974,1,2,0:0:0:0:
251,301,77331,2,0,L|217:300,2,20.9999993591309,2|0|0,0:0|0:0|0:0,0:0:0:0:
115,363,77688,5,2,0:0:0:0:
84,346,77867,1,2,0:0:0:0:
59,315,78045,2,0,P|54:254|70:221,1,83.9999974365235,2|0,0:0|0:0,0:0:0:0:
123,174,78760,2,0,L|182:171,1,41.9999987182618
206,115,79117,1,2,0:0:0:0:
292,227,79474,5,2,0:0:0:0:
377,156,79831,2,0,L|385:199,1,41.9999987182618,0|0,0:0|0:0,0:0:0:0:
453,235,80188,1,2,0:0:0:0:
403,296,80545,5,0,0:0:0:0:
323,263,80902,2,0,P|274:262|227:279,1,83.9999974365235,2|0,0:0|0:0,0:0:0:0:
180,332,81617,2,0,P|130:345|123:346,1,41.9999987182618
55,335,81974,1,2,0:0:0:0:
31,262,82331,1,2,0:0:0:0:
114,120,82688,5,0,0:0:0:0:
120,205,83045,1,2,0:0:0:0:
35,161,83402,1,0,0:0:0:0:
201,147,83760,5,2,0:0:0:0:
263,212,84117,1,0,0:0:0:0:
293,89,84474,5,2,0:0:0:0:
329,162,84831,1,0,0:0:0:0:
415,56,85188,5,2,0:0:0:0:
415,148,85545,1,0,0:0:0:0:
389,236,85902,1,2,0:0:0:0:
343,316,86260,1,2,0:0:0:0:
183,316,86617,5,2,0:0:0:0:
223,247,86974,1,0,0:0:0:0:
303,246,87331,1,0,0:0:0:0:
343,316,87688,1,2,0:0:0:0:
409,267,88402,5,0,0:0:0:0:
369,197,88759,1,2,0:0:0:0:
289,198,89116,1,0,0:0:0:0:
169,268,89474,5,2,0:0:0:0:
209,199,89831,1,0,0:0:0:0:
289,198,90188,1,0,0:0:0:0:
329,268,90545,1,2,0:0:0:0:
329,130,91260,5,0,0:0:0:0:
368,199,91617,1,2,0:0:0:0:
329,268,91974,1,0,0:0:0:0:
209,337,92331,5,2,0:0:0:0:
249,268,92688,1,0,0:0:0:0:
329,267,93045,1,0,0:0:0:0:
369,337,93402,1,2,0:0:0:0:
369,199,94117,5,0,0:0:0:0:
408,268,94474,1,2,0:0:0:0:
369,337,94831,1,0,0:0:0:0:
209,337,95188,5,2,0:0:0:0:
249,267,95545,1,0,0:0:0:0:
329,267,95902,1,0,0:0:0:0:
369,337,96259,1,2,0:0:0:0:
456,251,96617,6,0,P|464:190|454:144,1,83.9999974365235,2|0,0:0|0:0,0:0:0:0:
397,96,97331,2,0,P|329:82|290:86,1,83.9999974365235
233,140,98045,1,2,0:0:0:0:
159,46,98402,5,0,0:0:0:0:
133,57,98580,1,0,0:0:0:0:
105,58,98759,1,0,0:0:0:0:
79,48,98937,1,0,0:0:0:0:
49,74,99117,5,2,0:0:0:0:
88,152,99474,5,0,0:0:0:0:
94,171,99652,1,0,0:0:0:0:
96,192,99831,1,0,0:0:0:0:
92,213,100009,1,0,0:0:0:0:
84,232,100188,1,0,0:0:0:0:
72,249,100366,1,0,0:0:0:0:
87,280,100545,5,2,0:0:0:0:
159,336,100902,5,2,0:0:0:0:
207,259,101260,5,0,0:0:0:0:
233,248,101438,1,0,0:0:0:0:
261,247,101617,1,0,0:0:0:0:
287,257,101795,1,0,0:0:0:0:
317,231,101975,5,2,0:0:0:0:
400,266,102331,5,0,0:0:0:0:
406,246,102509,1,0,0:0:0:0:
408,225,102688,1,0,0:0:0:0:
404,204,102866,1,0,0:0:0:0:
396,185,103045,1,0,0:0:0:0:
384,168,103223,1,0,0:0:0:0:
399,138,103402,5,2,0:0:0:0:
338,80,103760,5,2,0:0:0:0:
295,156,104117,5,0,0:0:0:0:
269,167,104295,1,0,0:0:0:0:
241,168,104474,1,0,0:0:0:0:
215,158,104652,1,0,0:0:0:0:
223,123,104832,5,2,0:0:0:0:
140,125,105188,5,0,0:0:0:0:
127,141,105366,1,0,0:0:0:0:
118,160,105545,1,0,0:0:0:0:
114,181,105723,1,0,0:0:0:0:
113,202,105902,1,0,0:0:0:0:
118,222,106080,1,0,0:0:0:0:
149,218,106259,5,2,0:0:0:0:
225,269,106617,5,0,0:0:0:0:
243,259,106795,1,0,0:0:0:0:
263,253,106974,1,0,0:0:0:0:
284,253,107152,1,0,0:0:0:0:
305,257,107331,1,0,0:0:0:0:
324,265,107509,1,0,0:0:0:0:
310,292,107688,5,2,0:0:0:0:
249,350,108045,6,0,L|190:351,1,41.9999987182618,2|0,0:0|0:0,0:0:0:0:
169,287,108402,1,0,1:0:0:0:
90,278,108760,5,4,0:3:0:0:
12,368,109117,1,8,0:3:0:0:
146,343,109474,6,0,P|193:284|160:221,1,136.499993751526,4|0,0:0|0:0,0:0:0:0:
99,173,110188,2,0,P|91:127|113:83,1,90.9999958343508,2|0,1:2|0:0,0:0:0:0:
185,29,110902,2,0,P|231:21|275:43,1,90.9999958343508,2|4,0:0|0:3,0:0:0:0:
334,108,111617,2,0,P|356:152|326:241,1,136.499993751526,2|0,1:2|0:0,0:0:0:0:
255,227,112331,6,0,P|306:211|364:225,1,90.9999958343508,2|0,0:0|0:0,0:0:0:0:
410,286,113045,2,0,P|479:272|511:247,1,90.9999958343508,0|0,1:0|0:0,0:0:0:0:
505,189,113581,5,0,0:0:0:0:
444,142,113760,2,0,L|440:86,1,45.4999979171754,2|0,0:0|0:0,0:0:0:0:
494,48,114117,1,4,0:3:0:0:
431,0,114474,1,0,1:0:0:0:
350,104,114831,6,0,P|294:93|291:92,1,45.4999979171754
225,48,115188,2,0,P|179:69|162:137,1,90.9999958343508,2|0,0:0|0:0,0:0:0:0:
169,205,115902,2,0,P|210:234|277:215,1,90.9999958343508,2|0,1:2|0:0,0:0:0:0:
332,174,116617,2,0,P|336:123|286:74,1,90.9999958343508,2|4,0:0|0:3,0:0:0:0:
254,144,117331,6,0,L|149:138,1,90.9999958343508,0|0,1:0|0:0,0:0:0:0:
75,177,118045,6,0,P|94:245|79:286,1,90.9999958343508,2|0,0:0|0:0,0:0:0:0:
33,338,118760,1,0,1:0:0:0:
114,379,119117,2,0,L|174:361,1,45.4999979171754,0|0,0:0|0:0,0:0:0:0:
233,279,119474,5,4,0:3:0:0:
275,222,119652,1,4,0:3:0:0:
315,278,119831,2,0,L|370:268,1,45.4999979171754,4|0,0:0|0:0,0:0:0:0:
427,224,120188,1,0,1:0:0:0:
368,177,120367,1,2,0:0:0:0:
423,129,120545,6,0,L|434:82,1,45.4999979171754,2|0,0:0|0:0,0:0:0:0:
346,35,120902,2,0,P|302:57|208:35,1,136.499993751526,4|0,0:0|0:0,0:0:0:0:
127,78,121617,2,0,P|103:137|119:183,1,90.9999958343508,0|0,1:0|0:0,0:0:0:0:
61,241,122331,2,0,P|109:282|158:281,1,90.9999958343508,2|4,0:0|0:3,0:0:0:0:
193,363,123045,2,0,P|247:329|264:256,1,136.499993751526,0|0,1:0|0:0,0:0:0:0:
207,201,123760,2,0,P|266:177|312:193,1,90.9999958343508,2|0,0:0|0:0,0:0:0:0:
374,148,124474,2,0,P|415:196|414:245,1,90.9999958343508,0|0,1:0|0:0,0:0:0:0:
398,298,125010,5,0,0:0:0:0:
327,263,125188,2,0,L|320:219,1,45.4999979171754,2|0,0:0|0:0,0:0:0:0:
221,262,125545,2,0,L|233:205,1,45.4999979171754,4|0,0:3|0:0,0:0:0:0:
182,141,125902,5,2,1:2:0:0:
114,110,126081,1,0,0:0:0:0:
178,70,126260,1,0,0:0:0:0:
113,36,126438,1,0,0:0:0:0:
43,71,126617,1,4,0:3:0:0:
4,134,126974,2,0,P|-6:194|65:313,1,181.999991668702,2|0,0:0|0:0,0:0:0:0:
120,300,128045,2,0,P|177:289|228:295,1,90.9999958343508,2|4,0:0|0:3,0:0:0:0:
331,341,128760,6,0,P|394:346|432:325,1,90.9999958343508,0|0,1:0|0:0,0:0:0:0:
451,269,129295,1,2,0:0:0:0:
491,203,129474,6,0,L|501:101,1,90.9999958343508,4|0,0:0|0:0,0:0:0:0:
427,52,130188,1,0,1:0:0:0:
349,114,130545,2,0,L|292:111,1,45.4999979171754,0|0,0:0|0:0,0:0:0:0:
236,59,130902,5,4,0:3:0:0:
183,111,131081,1,4,0:3:0:0:
129,58,131260,2,0,L|79:58,1,45.4999979171754,4|0,0:0|0:0,0:0:0:0:
0,127,131617,2,0,L|58:126,1,45.4999979171754,0|0,1:0|0:0,0:0:0:0:
17,274,131974,5,2,0:0:0:0:
92,214,132152,1,2,0:0:0:0:
158,293,132331,2,0,P|222:233|286:239,1,136.499993751526,2|0,0:0|0:0,0:0:0:0:
329,310,133045,2,0,B|398:339|398:289|464:316,1,136.499993751526,0|0,1:0|0:0,0:0:0:0:
504,234,133760,2,0,P|501:171|485:144,1,90.9999958343508,2|4,0:0|0:3,0:0:0:0:
406,115,134474,5,0,1:0:0:0:
329,157,134831,5,0,0:0:0:0:
249,127,135188,2,0,P|237:71|272:38,1,90.9999958343508,2|0,0:0|0:0,0:0:0:0:
335,76,135902,2,0,P|347:132|312:165,1,90.9999958343508,0|0,1:0|0:0,0:0:0:0:
266,200,136438,5,0,0:0:0:0:
188,209,136617,2,0,L|122:207,1,45.4999979171754,4|4,0:3|0:3,0:0:0:0:
82,256,136974,1,4,0:0:0:0:
140,307,137331,2,0,L|145:368,1,45.4999979171754,0|0,1:0|0:0,0:0:0:0:
225,365,137688,1,0,1:0:0:0:
241,291,137867,1,0,1:0:0:0:
280,231,138045,6,0,P|346:208|385:221,1,90.9999958343508,4|0,0:0|0:0,0:0:0:0:
409,300,138760,2,0,P|359:335|275:325,1,136.499993751526,0|0,1:0|0:0,0:0:0:0:
202,280,139474,2,0,L|90:285,1,90.9999958343508,2|4,0:0|0:3,0:0:0:0:
35,336,140188,5,0,1:0:0:0:
1,251,140545,5,4,0:3:0:0:
38,164,140902,2,0,P|89:139|135:140,1,90.9999958343508,4|0,0:0|0:0,0:0:0:0:
221,164,141617,2,0,P|261:203|276:246,1,90.9999958343508,4|4,0:0|0:3,0:0:0:0:
254,333,142331,5,4,0:3:0:0:
318,297,142510,1,4,0:3:0:0:
374,352,142688,2,0,L|439:343,1,45.4999979171754,4|0,0:0|0:0,0:0:0:0:
494,249,143045,1,0,1:0:0:0:
434,204,143224,1,0,1:0:0:0:
359,240,143402,6,0,L|298:215,1,45.4999979171754,4|0,0:3|0:0,0:0:0:0:
242,246,143760,2,0,P|189:210|179:171,1,90.9999958343508,4|0,0:0|0:0,0:0:0:0:
205,82,144474,2,0,P|271:106|242:178,1,136.499993751526,0|0,1:0|0:0,0:0:0:0:
176,156,145188,2,0,P|116:151|77:167,1,90.9999958343508,4|4,0:3|0:3,0:0:0:0:
38,239,145902,5,0,1:0:0:0:
93,314,146260,6,0,P|152:302|170:301,1,45.4999979171754,2|0,0:0|0:0,0:0:0:0:
221,355,146617,2,0,P|276:359|321:334,1,90.9999958343508,4|0,0:0|0:0,0:0:0:0:
344,255,147331,2,0,P|319:205|275:178,1,90.9999958343508,0|0,1:0|0:0,0:0:0:0:
198,218,148045,2,0,L|137:226,1,45.4999979171754,4|0,0:3|0:0,0:0:0:0:
104,285,148402,1,0,1:0:0:0:
38,240,148581,5,0,1:0:0:0:
16,163,148760,1,4,0:0:0:0:
64,100,148938,1,0,1:0:0:0:
134,139,149117,1,4,0:3:0:0:
210,122,149295,1,4,0:3:0:0:
301,181,149474,6,0,P|361:171|398:177,2,90.9999958343508,4|0|0,0:0|0:0|0:0,1:0:0:0:
232,220,150545,1,2,0:0:0:0:
290,273,150902,2,0,L|344:265,1,45.4999979171754,4|0,0:3|0:0,0:0:0:0:
398,313,151260,1,4,0:3:0:0:
482,229,151617,5,4,0:0:0:0:
421,179,151795,1,0,0:0:0:0:
345,185,151974,1,4,0:3:0:0:
320,109,152152,1,0,0:0:0:0:
261,161,152331,5,4,0:0:0:0:
283,236,152688,1,4,0:3:0:0:
337,353,153045,1,0,1:0:0:0:
359,278,153402,1,4,0:3:0:0:
320,109,153760,1,4,0:0:0:0:
203,220,154117,1,4,0:3:0:0:
218,376,154474,5,0,1:1:0:0:
285,344,154652,1,0,1:3:0:0:
230,295,154831,1,4,0:3:0:0:
160,328,155010,1,4,0:3:0:0:
359,369,155188,5,4,0:0:0:0:
419,275,155545,1,4,0:3:0:0:
353,151,155902,1,4,0:0:0:0:
221,116,156260,2,0,L|156:119,1,45.4999979171754,4|0,0:0|0:0,0:0:0:0:
73,175,156617,6,0,P|67:223|92:272,1,90.9999958343508,4|0,0:0|0:0,0:0:0:0:
159,309,157152,1,4,0:3:0:0:
234,259,157331,2,0,L|284:254,1,45.4999979171754,4|0,0:3|0:0,0:0:0:0:
347,327,157688,2,0,L|414:333,1,45.4999979171754,4|0,0:3|0:0,0:0:0:0:
501,248,158045,6,0,P|500:175|404:123,1,157.500006008148,4|0,0:0|0:0,0:0:0:0:
359,184,158760,2,0,P|298:199|228:167,1,105.000004005432,0|0,1:0|0:0,0:0:0:0:
205,119,159295,1,2,0:0:0:0:
294,70,159474,6,0,P|302:127|292:180,2,105.000004005432,4|0|0,0:3|0:0|1:0,0:0:0:0:
148,11,160545,5,2,0:0:0:0:
163,92,160724,1,2,0:0:0:0:
108,151,160902,2,0,P|150:215|220:171,1,157.500006008148,2|0,0:0|0:0,0:0:0:0:
189,114,161617,2,0,P|169:198|181:251,1,105.000004005432,0|0,1:0|0:0,0:0:0:0:
220,305,162152,1,0,0:0:0:0:
332,248,162331,5,4,0:3:0:0:
393,301,162510,1,0,1:0:0:0:
464,266,162688,1,4,0:3:0:0:
447,186,162867,1,0,1:0:0:0:
362,173,163045,2,0,L|292:173,1,52.5000020027161,0|4,1:0|0:3,0:0:0:0:
197,81,163402,5,4,0:3:0:0:
259,30,163581,1,0,1:0:0:0:
333,60,163760,2,0,P|350:119|335:206,1,105.000004005432,4|0,0:0|0:0,0:0:0:0:
291,225,164474,2,0,P|231:203|124:257,1,157.500006008148,0|0,1:0|0:0,0:0:0:0:
103,303,165188,5,4,0:3:0:0:
161,349,165367,1,0,0:0:0:0:
216,288,165545,2,0,L|276:278,1,52.5000020027161,4|0,0:3|0:0,0:0:0:0:
154,231,165902,1,0,1:0:0:0:
385,371,166260,5,2,0:0:0:0:
373,284,166438,1,2,0:0:0:0:
434,216,166617,2,0,P|429:146|400:95,1,105.000004005432,4|0,0:3|0:0,0:0:0:0:
324,61,167331,2,0,P|244:56|183:121,1,157.500006008148,4|0,0:3|0:0,0:0:0:0:
172,201,168045,5,4,0:0:0:0:
245,216,168224,1,0,1:0:0:0:
202,276,168402,2,0,L|192:329,1,52.5000020027161,4|0,0:3|1:0,0:0:0:0:
90,360,168760,2,0,L|70:290,1,52.5000020027161,0|4,0:0|0:3,0:0:0:0:
23,151,169117,5,0,1:0:0:0:
82,86,169295,1,0,1:0:0:0:
171,64,169474,2,0,B|253:49|251:100|332:86,1,157.500006008148,4|0,0:0|0:0,0:0:0:0:
434,48,170188,2,0,P|390:-3|294:18,1,157.500006008148,0|0,1:0|0:0,0:0:0:0:
259,81,170902,6,0,L|245:143,1,52.5000020027161,4|0,0:3|0:0,0:0:0:0:
363,176,171260,2,0,L|332:119,1,52.5000020027161,4|0,0:3|0:0,0:0:0:0:
176,185,171617,1,0,1:0:0:0:
153,348,171974,5,2,0:0:0:0:
249,356,172152,1,2,0:0:0:0:
314,291,172331,2,0,P|378:263|455:303,1,157.500006008148,4|0,0:0|0:0,0:0:0:0:
383,355,173045,2,0,L|397:219,1,105.000004005432,0|0,1:0|0:0,0:0:0:0:
453,181,173581,1,0,0:0:0:0:
408,111,173760,5,4,0:3:0:0:
332,115,173938,1,0,1:0:0:0:
303,188,174117,2,0,L|362:186,1,52.5000020027161,4|0,0:3|1:0,0:0:0:0:
270,58,174474,2,0,L|195:54,1,52.5000020027161,4|4,0:0|0:3,0:0:0:0:
146,96,174831,6,0,P|142:125|147:162,1,52.5000020027161,0|0,1:0|1:0,0:0:0:0:
233,221,175188,2,0,P|229:285|184:325,1,105.000004005432,4|4,0:0|0:3,0:0:0:0:
96,347,175902,2,0,P|42:311|30:252,1,105.000004005432,0|4,1:0|0:3,0:0:0:0:
55,165,176617,2,0,P|112:136|169:155,1,105.000004005432,4|4,0:3|0:3,0:0:0:0:
237,208,177331,6,0,L|317:204,1,52.5000020027161,0|0,1:0|1:0,0:0:0:0:
359,141,177688,2,0,L|419:147,1,52.5000020027161,4|0,0:3|0:0,0:0:0:0:
504,211,178045,5,4,0:0:0:0:
472,46,178402,1,4,0:3:0:0:
400,18,178581,1,0,1:3:0:0:
341,70,178760,2,0,L|328:129,1,52.5000020027161,4|0,0:0|0:0,0:0:0:0:
255,144,179117,1,4,0:3:0:0:
325,250,179295,5,0,0:0:0:0:
267,303,179474,2,0,P|214:287|183:243,1,105.000004005432,4|0,0:3|0:0,0:0:0:0:
145,186,180188,2,0,L|86:186,1,52.5000020027161,2|0,0:0|0:0,0:0:0:0:
20,215,180545,2,0,P|35:162|102:188,1,105.000004005432,2|4,0:0|0:0,0:0:0:0:
179,211,186438,5,0,0:0:0:0:
202,199,186527,1,0,0:0:0:0:
227,193,186617,2,0,P|279:218|297:240,1,70,2|0,0:0|0:0,0:0:0:0:
308,297,187152,2,0,P|292:349|268:370,1,70,2|0,0:0|0:0,0:0:0:0:
198,318,187688,5,2,0:0:0:0:
168,331,187867,1,0,0:0:0:0:
92,276,188045,5,4,0:0:0:0:
55,285,188224,2,0,L|41:234,1,35,2|0,0:0|0:0,0:0:0:0:
43,172,188581,2,0,L|55:129,1,35,2|0,0:0|0:0,0:0:0:0:
114,96,188938,1,0,0:0:0:0:
201,130,189117,5,2,0:0:0:0:
226,132,189236,1,2,0:0:0:0:
254,136,189355,1,2,0:0:0:0:
290,141,189474,6,0,P|314:107|327:60,1,70,2|0,0:0|0:0,0:0:0:0:
382,35,190010,1,0,0:0:0:0:
455,111,190188,6,0,L|453:169,1,35
423,214,190545,2,0,L|433:274,1,35,0|0,0:0|0:0,0:0:0:0:
484,302,190902,2,0,P|487:341|473:374,1,70,4|0,0:0|0:0,0:0:0:0:
376,327,191438,6,0,L|345:324,1,17.5,2|0,0:3|0:0,0:0:0:0:
288,360,191617,1,0,1:0:0:0:
245,297,191795,1,0,1:0:0:0:
210,367,191974,1,0,1:0:0:0:
177,253,192152,1,0,1:0:0:0:
118,203,192331,6,0,P|179:176|220:183,1,83.9999974365235,4|0,0:0|0:0,0:0:0:0:
311,182,193045,5,0,1:0:0:0:
391,158,193402,2,0,P|402:141|423:113,1,41.9999987182618
368,49,193760,1,2,0:0:0:0:
276,51,194117,1,4,0:3:0:0:
217,111,194474,1,0,1:0:0:0:
181,187,194831,2,0,L|198:249,1,41.9999987182618,2|0,0:0|0:0,0:0:0:0:
137,302,195188,6,0,P|82:323|52:344,1,83.9999974365235,4|0,0:3|0:0,0:0:0:0:
14,258,195902,5,0,1:0:0:0:
27,174,196260,1,0,0:0:0:0:
89,118,196617,1,2,0:0:0:0:
172,105,196974,1,4,0:3:0:0:
244,149,197331,2,0,P|311:160|336:161,1,83.9999974365235,0|0,1:0|0:0,0:0:0:0:
398,159,197867,1,2,0:0:0:0:
432,98,198045,6,0,P|413:55|354:41,1,83.9999974365235,4|0,0:3|0:0,0:0:0:0:
306,76,198760,5,0,1:0:0:0:
364,158,199117,1,0,0:0:0:0:
328,249,199474,1,2,0:0:0:0:
242,297,199831,1,4,0:3:0:0:
144,283,200188,1,0,1:0:0:0:
66,222,200545,2,0,L|43:164,1,41.9999987182618,2|0,0:0|0:0,0:0:0:0:
86,119,200902,5,4,0:3:0:0:
126,133,201081,1,0,0:0:0:0:
164,149,201260,2,0,P|215:141|227:92,1,83.9999974365235,0|0,0:0|1:0,0:0:0:0:
178,56,201974,6,0,L|178:-8,1,41.9999987182618
257,40,202331,1,2,0:0:0:0:
292,52,202510,1,2,0:0:0:0:
337,35,202688,5,4,0:3:0:0:
433,70,203045,1,4,0:0:0:0:
448,169,203402,5,0,1:0:0:0:
382,128,203581,1,0,1:0:0:0:
330,189,203760,2,0,P|280:199|230:194,1,83.9999974365235,4|0,0:0|0:0,0:0:0:0:
214,186,204295,1,2,0:0:0:0:
150,214,204474,2,0,P|138:272|152:311,1,83.9999974365235,0|0,1:0|0:0,0:0:0:0:
169,319,205010,1,0,0:0:0:0:
239,291,205188,6,0,L|312:279,1,41.9999987182618,2|0,0:0|0:0,0:0:0:0:
349,234,205545,2,0,L|414:238,1,41.9999987182618,4|0,0:3|0:0,0:0:0:0:
460,290,205902,1,0,1:0:0:0:
460,185,206260,2,0,P|440:151|380:143,1,83.9999974365235,2|4,0:0|0:3,0:0:0:0:
323,158,206795,1,2,0:0:0:0:
269,97,206974,6,0,L|274:37,1,41.9999987182618,2|0,0:0|0:0,0:0:0:0:
214,0,207331,1,0,1:0:0:0:
351,24,207688,1,0,0:0:0:0:
343,149,208045,5,2,0:0:0:0:
273,164,208224,1,2,0:0:0:0:
208,147,208402,1,4,0:3:0:0:
117,240,208760,5,0,1:0:0:0:
188,224,208938,1,8,0:3:0:0:
259,233,209117,1,4,0:3:0:0:
314,324,209295,1,4,0:3:0:0:
395,263,209474,6,0,P|406:215|388:165,1,83.9999974365235,4|0,0:0|0:0,0:0:0:0:
298,124,210188,2,0,P|287:172|305:222,1,83.9999974365235,0|0,1:0|0:0,0:0:0:0:
396,168,210902,1,4,0:3:0:0:
422,88,211260,1,4,0:3:0:0:
345,25,211617,6,0,L|295:15,1,41.9999987182618,0|0,1:0|0:0,0:0:0:0:
239,63,211974,1,4,0:3:0:0:
161,24,212152,1,0,1:0:0:0:
70,91,212331,5,4,0:0:0:0:
11,172,212510,1,4,0:3:0:0:
107,204,212688,1,0,1:3:0:0:
166,125,212867,1,4,0:3:0:0:
250,197,213045,5,0,1:0:0:0:
365,210,213224,1,0,1:0:0:0:
434,79,213402,5,4,0:3:0:0:
342,110,213581,1,0,1:0:0:0:
334,121,213670,1,0,1:0:0:0:
329,138,213760,5,4,0:0:0:0:
266,236,213938,1,4,0:3:0:0:
146,237,214117,1,0,1:0:0:0:
209,139,214295,1,4,0:3:0:0:
162,34,214474,1,4,0:0:0:0:
99,132,214652,1,0,0:0:0:0:
45,223,214831,5,4,0:3:0:0:
23,130,215010,1,2,0:0:0:0:
32,107,215099,1,2,0:0:0:0:
49,90,215188,2,0,P|96:83|159:103,1,105.000004005432,4|4,0:0|0:3,0:0:0:0:
181,222,215902,6,0,P|207:279|257:305,1,105.000004005432,0|0,1:0|0:0,0:0:0:0:
400,292,216617,2,0,P|436:240|433:184,1,105.000004005432,4|4,0:3|0:3,0:0:0:0:
351,67,217331,2,0,P|288:61|241:91,1,105.000004005432,0|0,1:0|0:0,0:0:0:0:
240,160,217867,5,2,0:0:0:0:
315,192,218045,2,0,L|409:122,1,105.000004005432,4|4,0:0|0:3,0:0:0:0:
307,11,218760,5,0,1:0:0:0:
215,68,219117,2,0,L|208:120,1,52.5000020027161,0|0,0:0|0:0,0:0:0:0:
263,180,219474,1,4,0:3:0:0:
205,245,219652,5,4,0:3:0:0:
269,301,219831,2,0,L|333:291,1,52.5000020027161,0|0,1:0|0:0,0:0:0:0:
393,343,220188,2,0,L|444:304,1,52.5000020027161,0|4,0:0|0:3,0:0:0:0:
489,234,220545,5,0,1:0:0:0:
391,161,220724,1,0,1:0:0:0:
285,212,220902,1,4,0:0:0:0:
203,191,221260,5,4,0:3:0:0:
119,259,221617,2,0,P|64:244|52:179,1,105.000004005432,0|4,1:0|0:3,0:0:0:0:
59,94,222331,1,0,1:0:0:0:
180,64,222688,1,4,0:3:0:0:
253,101,223045,1,4,0:3:0:0:
252,181,223402,6,0,P|223:133|321:149,1,210.000008010865,4|0,0:0|0:0,0:0:0:0:
323,206,225188,1,2,0:0:0:0:
381,250,225545,2,0,L|428:241,1,39.3750015020371,4|0,0:0|0:0,0:0:0:0:
471,189,225902,6,0,L|469:119,1,48.9999985046387,0|0,1:0|0:0,0:0:0:0:
413,76,226260,1,4,0:3:0:0:
343,133,226438,1,4,0:3:0:0:
259,68,226617,6,0,P|190:60|154:84,1,97.9999970092774,4|4,0:0|0:3,0:0:0:0:
96,149,227331,2,0,P|88:218|112:254,1,97.9999970092774,0|4,1:0|0:3,0:0:0:0:
177,312,228045,2,0,P|246:320|282:296,1,97.9999970092774,4|4,0:0|0:3,0:0:0:0:
322,219,228760,6,0,L|379:204,1,48.9999985046387,0|0,1:0|1:0,0:0:0:0:
456,243,229117,5,4,0:3:0:0:
472,127,229295,1,4,0:3:0:0:
379,27,229474,5,4,0:0:0:0:
292,88,229652,1,0,1:0:0:0:
170,66,229831,1,4,0:3:0:0:
265,0,230009,1,0,1:0:0:0:
222,133,230188,2,0,P|219:193|223:215,1,48.9999985046387,4|0,0:3|1:0,0:0:0:0:
288,290,230545,1,4,0:3:0:0:
312,217,230724,5,0,1:0:0:0:
297,216,230813,1,0,1:0:0:0:
281,219,230902,1,4,0:3:0:0:
180,263,231081,1,0,1:3:0:0:
195,264,231170,1,0,1:0:0:0:
213,263,231260,6,0,B|219:351,1,48.9999985046387,4|0,0:0|0:0,0:0:0:0:
291,360,231617,1,4,0:3:0:0:
363,299,231795,5,0,1:0:0:0:
375,288,231884,1,0,1:0:0:0:
390,282,231973,1,0,1:0:0:0:
406,280,232062,1,0,1:0:0:0:
423,281,232152,1,0,1:0:0:0:
438,287,232241,1,0,1:0:0:0:
452,295,232331,6,0,P|469:242|464:195,1,97.9999970092774,4|4,0:0|0:3,0:0:0:0:
465,92,233045,2,0,P|419:59|373:49,1,97.9999970092774,4|4,1:2|0:3,0:0:0:0:
275,17,233760,2,0,P|230:49|206:90,1,97.9999970092774,4|4,0:0|0:3,0:0:0:0:
145,173,234474,2,0,P|162:225|194:260,1,97.9999970092774,4|4,1:2|0:3,0:0:0:0:
254,345,235188,1,4,0:3:0:0:
366,284,235545,1,4,0:3:0:0:
437,316,235724,5,4,0:3:0:0:
497,268,235902,2,0,L|504:208,1,48.9999985046387,8|0,0:3|0:0,0:0:0:0:
454,152,236260,1,4,0:3:0:0:
380,193,236438,1,0,1:0:0:0:
348,194,236528,1,0,1:0:0:0:
316,195,236617,1,4,1:2:0:0:
196,113,236974,5,4,0:3:0:0:
116,223,237331,1,4,0:3:0:0:
143,310,237510,1,0,1:0:0:0:
229,331,237688,1,4,0:3:0:0:
298,376,237867,1,8,0:3:0:0:
256,192,238045,12,0,240902,0:0:0:0:
329,184,242688,5,2,0:3:0:0:
260,156,243045,1,0,0:0:0:0:
236,161,243223,1,0,0:0:0:0:
215,174,243402,1,0,0:0:0:0:
201,193,243580,1,0,0:0:0:0:
193,217,243759,1,2,0:0:0:0:
234,286,244474,1,2,0:0:0:0:
291,227,244652,5,0,0:0:0:0:
312,255,244830,1,0,0:0:0:0:
328,285,245009,5,2,0:0:0:0:
334,290,245069,1,2,0:0:0:0:
340,294,245129,1,2,0:0:0:0:
346,298,245188,1,2,0:0:0:0:
423,261,245545,1,0,0:0:0:0:
390,168,245902,1,2,0:0:0:0:
309,218,246260,5,2,0:0:0:0:
267,229,246438,1,2,0:0:0:0:
225,226,246617,2,0,P|193:169|193:143,1,70,2|0,0:0|0:0,0:0:0:0:
123,116,247331,2,0,P|146:54|166:38,1,70,2|0,0:0|0:0,0:0:0:0:
234,50,247867,1,0,0:0:0:0:
315,20,248045,1,2,0:0:0:0:
368,103,248402,6,0,L|371:117,6,8.75,0|0|0|0|0|0|0,0:0|0:0|0:0|0:0|0:0|0:0|0:0,0:0:0:0:
430,60,248760,2,0,L|482:57,1,35,4|0,0:3|0:0,0:0:0:0:
499,130,249117,5,2,0:0:0:0:
512,167,249206,1,0,0:0:0:0:
512,199,249295,1,2,0:0:0:0:
496,231,249385,1,2,0:0:0:0:
471,249,249474,6,0,P|429:228|366:218,1,90.9999958343508,4|0,0:0|0:0,0:0:0:0:
328,284,250188,5,4,0:3:0:0:
258,323,250367,1,0,1:0:0:0:
181,291,250545,1,4,0:3:0:0:
169,204,250724,1,0,1:0:0:0:
189,179,250813,1,0,1:0:0:0:
218,152,250902,6,0,B|282:141|264:142,1,45.4999979171754,4|0,0:0|0:0,0:0:0:0:
343,162,251260,5,4,0:3:0:0:
367,156,251349,1,4,0:3:0:0:
391,146,251438,1,4,0:3:0:0:
414,131,251527,1,4,0:3:0:0:
420,81,251617,5,2,0:0:0:0:
385,52,251736,1,2,0:0:0:0:
341,46,251855,1,2,0:0:0:0:
300,64,251974,1,2,0:0:0:0:
275,102,252093,1,2,0:0:0:0:
274,147,252212,1,2,0:0:0:0:
297,185,252331,5,4,0:0:0:0:
325,275,252510,1,4,0:3:0:0:
310,284,252599,1,4,0:3:0:0:
294,289,252688,1,4,0:3:0:0:
276,292,252778,1,4,0:3:0:0:
259,291,252867,1,4,0:3:0:0:
242,289,252956,1,4,0:3:0:0:
226,283,253045,5,0,1:0:0:0:
98,237,253224,1,0,1:0:0:0:
123,232,253313,1,0,1:0:0:0:
149,227,253402,1,0,1:0:0:0:
206,165,253581,1,0,1:0:0:0:
175,155,253670,1,0,1:0:0:0:
141,157,253760,5,2,0:0:0:0:
136,99,253879,1,2,0:0:0:0:
162,47,253998,1,2,0:0:0:0:
230,81,254117,5,6,0:0:0:0:
273,25,254236,1,6,0:0:0:0:
331,63,254355,5,2,0:0:0:0:
325,119,254474,1,2,0:0:0:0:
371,152,254593,1,2,0:0:0:0:
428,158,254712,1,2,0:0:0:0:
484,109,254831,6,0,L|475:59,2,30.3333319447836,6|2|2,0:0|0:0|0:0,0:0:0:0:
509,235,255188,6,0,P|490:288|443:326,1,90.9999958343508,4|2,0:0|0:0,0:0:0:0:
358,276,255902,1,4,0:3:0:0:
241,339,256260,1,2,0:0:0:0:
133,194,256617,2,0,P|127:239|138:283,1,90.9999958343508,4|2,0:3|0:0,0:0:0:0:
255,173,257331,2,0,P|260:128|245:86,1,90.9999958343508,4|2,0:3|0:0,0:0:0:0:
143,27,257867,1,2,0:0:0:0:
183,137,258045,5,4,0:3:0:0:
316,59,258402,1,4,0:3:0:0:
449,138,258760,1,0,1:0:0:0:
444,291,259117,1,4,0:3:0:0:
307,363,259474,6,0,P|255:347|223:344,1,45.4999979171754,4|0,0:0|0:0,0:0:0:0:
204,249,259831,2,0,P|182:254|160:263,1,45.4999979171754,4|0,0:3|0:0,0:0:0:0:
78,202,260188,1,4,0:3:0:0:
36,273,260367,1,0,1:0:0:0:
40,302,260456,1,0,1:0:0:0:
52,329,260545,2,0,L|105:329,1,45.4999979171754,4|0,0:0|0:0,0:0:0:0:
188,263,260902,6,0,P|269:228|302:232,1,105.000004005432,4|2,0:0|0:0,0:0:0:0:
424,254,261617,2,0,P|465:285|489:331,1,105.000004005432,4|2,1:2|0:0,0:0:0:0:
346,332,262331,5,4,0:3:0:0:
348,175,262688,2,0,P|352:148|366:105,1,52.5000020027161,4|0,0:3|0:0,0:0:0:0:
474,79,263045,1,0,1:0:0:0:
313,21,263402,5,2,0:0:0:0:
269,103,263581,1,2,0:0:0:0:
194,53,263760,2,0,P|150:126|155:180,1,105.000004005432,4|2,0:0|0:0,0:0:0:0:
63,242,264474,2,0,P|104:316|203:346,1,157.500006008148,4|0,1:2|0:0,0:0:0:0:
279,280,265188,5,4,0:3:0:0:
367,330,265367,1,0,1:0:0:0:
455,280,265545,1,4,0:0:0:0:
367,230,265724,1,0,1:0:0:0:
320,137,265902,2,0,P|332:107|354:72,1,52.5000020027161,0|4,1:0|0:3,0:0:0:0:
459,139,266260,5,8,0:3:0:0:
391,226,266438,1,8,0:3:0:0:
277,181,266617,2,0,P|200:178|152:200,1,105.000004005432,4|2,0:3|0:0,0:0:0:0:
157,299,267331,2,0,P|237:313|331:278,1,140.000005340576,0|0,1:0|0:0,0:0:0:0:
384,208,268045,5,4,0:3:0:0:
266,145,268402,1,4,0:3:0:0:
158,220,268760,1,0,1:0:0:0:
39,157,269117,5,2,0:0:0:0:
102,83,269295,1,2,0:0:0:0:
214,113,269474,2,0,P|297:119|331:106,1,105.000004005432,4|2,0:0|0:0,0:0:0:0:
413,39,270188,2,0,P|470:95|452:198,1,157.500006008148,4|0,0:0|0:0,0:0:0:0:
399,238,270902,5,4,0:3:0:0:
310,205,271081,1,0,1:0:0:0:
241,273,271260,1,4,0:3:0:0:
288,358,271438,1,4,0:3:0:0:
381,330,271617,2,0,P|445:315|468:319,1,52.5000020027161,4|4,1:2|0:3,0:0:0:0:
281,269,271974,5,0,1:0:0:0:
185,302,272152,1,0,1:0:0:0:
71,303,272331,2,0,P|43:228|55:158,1,105.000004005432,4|2,0:0|0:0,0:0:0:0:
71,68,273045,2,0,P|131:16|201:3,1,105.000004005432,0|2,1:0|0:0,0:0:0:0:
294,137,273760,5,4,0:3:0:0:
150,104,274117,1,4,0:3:0:0:
43,204,274474,1,0,1:0:0:0:
35,349,274831,5,2,0:0:0:0:
116,291,275010,1,2,0:0:0:0:
201,346,275188,2,0,P|295:354|334:350,1,105.000004005432,4|2,0:0|0:0,0:0:0:0:
420,246,275902,2,0,P|433:167|434:126,1,105.000004005432,4|4,0:0|0:3,0:0:0:0:
380,63,276438,1,2,0:0:0:0:
290,29,276617,6,0,L|220:43,1,52.5000020027161,4|0,0:3|0:0,0:0:0:0:
182,105,276974,1,4,0:3:0:0:
250,173,277152,1,4,0:3:0:0:
208,264,277331,2,0,L|205:320,1,52.5000020027161,4|4,1:2|0:3,0:0:0:0:
101,229,277688,6,0,P|153:204|167:204,1,52.5000020027161,0|0,1:0|0:0,0:0:0:0:
273,230,278045,1,4,0:0:0:0:
400,282,278402,1,4,0:3:0:0:
512,188,278760,1,4,1:2:0:0:
385,137,279117,1,4,0:3:0:0:
231,144,279474,5,4,0:3:0:0:
174,96,279652,1,0,1:0:0:0:
242,72,279831,2,0,L|294:74,1,52.5000020027161,4|0,0:3|0:0,0:0:0:0:
381,217,280188,5,4,1:2:0:0:
438,169,280366,1,4,0:3:0:0:
364,141,280545,1,4,0:3:0:0:
308,195,280724,1,4,0:3:0:0:
404,293,280902,5,4,0:3:0:0:
218,271,281260,2,0,L|156:260,1,52.5000020027161,4|0,0:3|0:0,0:0:0:0:
102,330,281617,2,0,L|69:270,1,52.5000020027161,4|0,1:2|0:0,0:0:0:0:
9,230,281974,2,0,L|29:165,1,52.5000020027161,4|0,0:3|0:0,0:0:0:0:
104,58,282331,5,4,0:3:0:0:
282,61,282688,1,4,0:3:0:0:
388,200,283045,2,0,L|396:254,1,52.5000020027161,4|0,0:3|0:0,0:0:0:0:
305,354,283402,2,0,L|312:288,1,52.5000020027161,4|0,0:3|0:0,0:0:0:0:
219,203,283760,6,0,P|155:189|84:217,1,105.000004005432,4|2,0:0|0:0,0:0:0:0:
108,344,284474,2,0,P|172:358|243:330,1,105.000004005432,4|2,1:2|0:0,0:0:0:0:
319,271,285188,5,4,0:3:0:0:
397,218,285367,1,4,0:3:0:0:
493,241,285545,2,0,L|504:303,1,52.5000020027161,0|0,1:0|0:0,0:0:0:0:
441,356,285902,1,4,1:2:0:0:
351,261,286260,5,2,0:0:0:0:
306,206,286438,1,2,0:0:0:0:
264,263,286617,2,0,P|187:251|130:221,1,105.000004005432,4|2,0:0|0:0,0:0:0:0:
80,116,287331,2,0,P|127:45|165:22,1,105.000004005432,4|2,0:2|0:0,0:0:0:0:
218,44,287867,1,2,0:0:0:0:
293,7,288045,5,4,0:0:0:0:
342,93,288224,1,0,1:0:0:0:
334,186,288402,1,4,0:3:0:0:
267,246,288581,1,0,1:0:0:0:
167,230,288760,2,0,P|103:228|97:229,1,52.5000020027161,4|4,0:0|0:3,0:0:0:0:
213,340,289117,5,4,0:3:0:0:
331,260,289295,1,0,1:0:0:0:
439,328,289474,1,4,0:3:0:0:
399,143,289831,1,2,0:0:0:0:
238,208,290188,2,0,P|169:216|111:185,1,105.000004005432,4|2,1:2|0:0,0:0:0:0:
93,115,290724,1,2,0:0:0:0:
205,46,290902,6,0,L|192:125,1,52.5000020027161,4|0,0:3|0:0,0:0:0:0:
162,163,291260,1,2,0:0:0:0:
96,201,291438,1,0,0:0:0:0:
121,298,291617,1,4,0:0:0:0:
320,245,291974,5,2,0:0:0:0:
392,213,292152,1,2,0:0:0:0:
466,239,292331,2,0,P|460:306|428:357,1,105.000004005432,4|2,0:3|0:0,0:0:0:0:
354,340,293045,2,0,P|273:315|231:322,1,105.000004005432,4|2,1:2|0:0,0:0:0:0:
183,361,293581,1,0,0:0:0:0:
107,311,293760,5,4,0:3:0:0:
176,272,293938,1,0,1:0:0:0:
181,168,294117,1,4,0:3:0:0:
116,212,294295,1,0,1:0:0:0:
242,222,294474,1,4,0:3:0:0:
307,270,294652,1,0,1:0:0:0:
420,151,294831,5,4,0:0:0:0:
313,83,295010,1,0,1:0:0:0:
215,162,295188,2,0,P|159:175|95:151,1,105.000004005432,4|2,0:0|0:0,0:0:0:0:
250,85,295902,2,0,P|289:126|300:194,1,105.000004005432,0|2,1:0|0:0,0:0:0:0:
27,176,296617,2,0,P|42:127|79:90,1,105.000004005432,4|2,1:2|0:0,0:0:0:0:
173,183,297331,5,4,0:0:0:0:
271,258,297688,5,2,0:0:0:0:
359,219,297867,1,2,0:0:0:0:
396,117,298045,2,0,P|356:57|299:56,1,105.000004005432,4|2,0:0|0:0,0:0:0:0:
277,140,298760,2,0,P|204:148|144:123,1,105.000004005432,4|2,1:2|0:0,0:0:0:0:
125,58,299295,1,2,0:0:0:0:
217,33,299474,5,4,0:0:0:0:
211,114,299652,1,0,1:0:0:0:
152,172,299831,1,4,0:3:0:0:
158,253,300010,1,0,1:0:0:0:
232,334,300188,2,0,L|222:388,1,52.5000020027161,4|8,0:3|0:3,0:0:0:0:
341,276,300545,6,0,L|397:246,1,52.5000020027161,4|8,0:3|0:3,0:0:0:0:
441,132,300902,1,4,0:0:0:0:
320,66,301260,1,4,0:3:0:0:
204,139,301617,1,4,1:2:0:0:
227,273,301974,1,4,0:3:0:0:
363,279,302331,2,0,P|418:251|484:241,1,105.000004005432,4|4,1:2|0:3,0:0:0:0:
414,370,303045,6,0,L|341:366,1,52.5000020027161,4|0,0:3|1:0,0:0:0:0:
239,325,303402,2,0,L|291:319,1,52.5000020027161,4|0,0:3|1:0,0:0:0:0:
391,230,303760,6,0,L|386:170,1,52.5000020027161,4|0,0:0|0:0,0:0:0:0:
233,77,304117,2,0,L|223:156,1,52.5000020027161,2|0,0:0|0:0,0:0:0:0:
372,176,304474,2,0,L|352:98,1,52.5000020027161,4|0,0:0|0:0,0:0:0:0:
216,144,304831,2,0,L|227:205,1,52.5000020027161,2|0,0:0|0:0,0:0:0:0:
303,254,305188,6,0,B|266:296|173:302|152:252|152:252|159:232|163:211,1,210.000008010865,6|2,0:0|0:0,0:0:0:0:
245,191,307331,6,0,L|240:151,1,26.2500010013581,2|0,0:0|0:0,0:0:0:0:
311,151,307688,2,0,L|309:108,1,26.2500010013581,2|0,0:0|0:0,0:0:0:0:
379,92,308045,1,2,0:0:0:0:
433,171,308760,6,0,L|429:208,1,26.2500010013581,2|0,0:0|0:0,0:0:0:0:
367,273,309117,2,0,L|363:233,1,26.2500010013581,2|0,0:0|0:0,0:0:0:0:
309,186,309474,1,2,0:0:0:0:
229,184,310188,5,2,0:0:0:0:
165,222,310724,1,2,0:0:0:0:
165,222,310902,1,2,0:0:0:0:
192,289,311617,5,2,0:0:0:0:
262,255,311795,1,2,0:0:0:0:
339,269,311974,1,2,0:0:0:0:
389,328,312152,1,2,0:0:0:0:
508,269,312331,5,2,0:0:0:0:
435,269,313045,5,0,0:0:0:0:
327,252,313708,6,0,L|322:220,1,23.3333333333333
322,217,313854,1,2,0:0:0:0:
254,271,314754,5,2,0:0:0:0:
195,293,315671,6,0,L|184:291,1,8.75
179,289,315790,1,2,0:0:0:0:
177,357,317027,5,2,0:0:0:0:
116,359,319474,6,0,L|113:340,1,17.5,2|0,0:0|0:0,0:0:0:0:
53,330,322473,5,2,0:0:0:0:
