osu file format v14

[General]
AudioFilename: audio.mp3
AudioLeadIn: 0
PreviewTime: 64656
Countdown: 0
SampleSet: Normal
StackLeniency: 0.7
Mode: 0
LetterboxInBreaks: 0
WidescreenStoryboard: 0

[Editor]
DistanceSpacing: 1.3
BeatDivisor: 4
GridSize: 8
TimelineZoom: 1

[Metadata]
Title:Madamamagoto
TitleUnicode:マダママゴト
Artist:soraru
ArtistUnicode:そらる
Creator:tsumiki_daisuki
Version:Hard
Source:そらる-夕溜まりのしおり
Tags:soraru Madamamagoto GigaP Yudamari no shiori
BeatmapID:1555271
BeatmapSetID:736943

[Difficulty]
HPDrainRate:5
CircleSize:5
OverallDifficulty:5.5
ApproachRate:6.1
SliderMultiplier:1.6
SliderTickRate:1

[Events]
//Background and Video events
Video,0,"そらる-マダママゴト【Music Video】.avi"
0,0,"そらる-マダママゴト.jpg",0,0
//Break Periods
2,48238,54344
2,94395,100502
2,160862,163276
//Storyboard Layer 0 (Background)
//Storyboard Layer 1 (Fail)
//Storyboard Layer 2 (Pass)
//Storyboard Layer 3 (Foreground)
//Storyboard Sound Samples

[TimingPoints]
1006,923.076923076923,4,1,1,50,1,0
4698,-100,4,1,1,30,0,0
8805,461.573967228248,4,1,1,80,1,0
18036,-100,4,1,1,100,0,0
48038,-125,4,1,1,100,0,0
55423,-125,4,1,1,80,0,0
60529,-111.111111111111,4,1,1,100,0,0
64193,-83.3333333333333,4,1,1,100,0,1
70194,-66.6666666666667,4,1,1,100,0,1
72040,-83.3333333333333,4,1,1,100,0,1
79425,-133.333333333333,4,1,1,100,0,1
81272,-100,4,1,1,100,0,1
86811,-100,4,1,1,60,0,1
94311,-90.9090909090909,4,2,1,100,0,0
108966,-125,4,1,1,70,0,0
116351,-100,4,1,1,100,0,0
126967,-76.9230769230769,4,1,1,100,0,1
131583,-76.9230769230769,4,1,1,50,0,1
134353,-100,4,1,1,100,0,1
160662,-76.9230769230769,4,1,1,100,0,0
173596,923.076923076923,4,1,1,100,1,0
180999,461.89376443418,4,1,1,100,1,0

[HitObjects]
32,24,1929,5,8,0:0:0:0:
432,144,3775,1,4,0:0:0:0:
56,328,5621,1,8,0:0:0:0:
368,56,7467,1,6,1:0:0:0:
104,16,9266,6,0,L|64:104,1,80
168,56,9728,2,0,L|208:136,1,80
104,144,10189,2,0,L|64:232,1,80
176,192,10651,2,0,L|216:272,1,80
288,328,11112,6,0,L|376:360,1,80
320,256,11574,2,0,L|400:216,1,80
424,320,12036,2,0,L|520:368,1,80
464,264,12497,2,0,L|544:232,1,80
496,136,12959,6,0,L|448:64,1,80
432,168,13420,2,0,L|344:200,1,80
384,96,13882,2,0,L|320:48,1,80
304,152,14343,2,0,L|216:184,1,80
208,80,14805,6,0,L|104:64,1,80
176,160,15267,2,0,L|128:224,1,80
88,128,15728,2,0,L|0:88,1,80
56,192,16190,2,0,L|0:264,1,80
112,272,16651,5,4,0:0:0:0:
248,112,17113,1,4,0:0:0:0:
376,272,17574,1,4,0:0:0:0:
192,184,18036,1,8,0:0:0:0:
384,96,18498,5,0,0:0:0:0:
480,280,18959,1,0,0:0:0:0:
272,280,19421,2,0,P|176:264|192:184,1,160
170,217,20113,1,0,0:0:0:0:
32,64,20575,2,0,L|120:32,1,80,10|0,0:0|0:0,0:0:0:0:
208,40,21036,2,0,B|304:24|304:112|200:152|192:208|272:240|336:192,1,240
264,210,21959,1,8,0:0:0:0:
360,176,22190,5,0,0:0:0:0:
200,312,22652,2,0,B|152:328|120:328|112:264|112:264|64:240,1,160,0|8,0:0|0:0,0:0:0:0:
80,248,23344,1,2,0:0:0:0:
120,48,23806,2,0,B|176:48|176:48|224:112|280:56|224:-8,1,160,8|0,0:0|0:0,0:0:0:0:
352,48,24498,1,0,0:0:0:0:
432,112,24729,1,0,0:0:0:0:
376,200,24960,2,0,B|320:256|320:256|280:216|224:272,1,160,0|8,0:0|0:0,0:0:0:0:
246,252,25652,1,0,0:0:0:0:
160,192,25883,1,0,0:0:0:0:
264,16,26344,6,0,B|336:80|336:80|400:48|464:80|440:152|392:184,1,240,8|0,0:0|0:0,0:0:0:0:
430,133,27267,1,2,0:0:0:0:
352,200,27498,2,0,B|280:272|200:288|144:240|200:192,1,240,0|8,0:0|0:0,0:0:0:0:
264,120,28421,5,0,0:0:0:0:
200,32,28652,1,0,0:0:0:0:
96,32,28883,2,0,L|32:104,1,80
48,200,29345,1,0,0:0:0:0:
152,224,29575,5,0,0:0:0:0:
360,232,30037,2,0,P|448:184|440:128,1,160,2|0,0:0|0:0,0:0:0:0:
352,80,30729,1,0,0:0:0:0:
152,32,31191,2,0,P|64:72|40:144,1,160
40,126,31883,1,0,0:0:0:0:
104,208,32114,2,0,L|160:224,2,40,0|8|0,0:0|0:0|0:0,0:0:0:0:
240,48,32806,5,0,0:0:0:0:
376,200,33268,5,0,0:0:0:0:
192,296,33729,1,0,0:0:0:0:
104,248,33960,2,0,B|64:224|24:144|48:112|136:96|168:144|136:200,1,240,2|8,0:0|0:0,0:0:0:0:
344,128,35114,1,0,0:0:0:0:
480,24,35576,6,0,P|496:8|536:16,2,40,0|8|0,0:0|0:0|0:0,0:0:0:0:
480,136,36037,1,2,0:0:0:0:
464,232,36268,1,0,0:0:0:0:
464,232,36499,2,0,B|520:256|472:320|424:304|416:264|416:264|336:264,1,160
200,304,37422,6,0,P|176:296|160:264,4,40
272,232,38114,1,0,0:0:0:0:
336,152,38345,1,0,0:0:0:0:
280,64,38576,1,0,0:0:0:0:
184,24,38807,6,0,B|120:24|128:72|120:112|24:112,1,160,2|0,0:0|0:0,0:0:0:0:
136,184,39499,1,0,0:0:0:0:
240,200,39730,2,0,B|240:256|272:264|296:256|296:200|376:192,1,160
392,104,40422,1,0,0:0:0:0:
480,160,40653,1,8,0:0:0:0:
304,48,41115,6,0,P|280:128|192:128,1,160,2|0,0:0|0:0,0:0:0:0:
128,88,41807,1,2,0:0:0:0:
96,184,42038,2,0,B|56:272|96:288|152:312|176:248,1,160,2|0,0:0|0:0,0:0:0:0:
360,272,42961,2,8,L|432:256,4,40
368,168,43653,6,0,B|400:120|400:120|376:88,1,80,2|8,0:0|0:0,0:0:0:0:
200,16,44346,1,0,0:0:0:0:
80,184,44807,6,0,L|104:224,4,40,8|8|8|8|8,0:0|0:0|0:0|0:0|0:0,0:0:0:0:
168,128,45500,1,0,0:0:0:0:
248,192,45730,2,0,B|321:223|349:271|316:309|268:291,1,160,2|0,0:0|0:0,0:0:0:0:
184,312,46423,2,0,L|88:280,1,80
96,184,46884,2,0,L|64:96,1,80
152,48,47346,5,8,0:0:0:0:
264,48,47577,1,8,0:0:0:0:
360,184,48038,1,8,0:0:0:0:
416,48,55423,6,0,B|464:88|472:128|448:168,1,128
432,240,56116,6,0,P|400:272|360:264,1,64
280,336,56693,1,0,0:0:0:0:
152,336,57039,2,0,P|120:328|96:280,1,64
88,136,57731,1,0,0:0:0:0:
152,80,57962,1,0,0:0:0:0:
152,80,58193,2,0,B|176:40|176:40|216:40,1,64
264,80,58654,1,0,0:0:0:0:
344,56,58885,6,0,P|368:80|387:123,1,64
504,216,59578,2,0,B|512:264|504:288|464:296|424:288,1,128
264,304,60501,1,0,0:0:0:0:
80,296,60962,6,0,L|40:208,1,71.9999978027344
144,240,61424,2,0,L|208:176,1,71.9999978027344
104,184,61886,2,0,L|64:96,1,71.9999978027344
168,128,62347,2,0,L|224:56,1,71.9999978027344
304,56,62809,5,2,0:0:0:0:
408,208,63270,1,2,0:0:0:0:
248,304,63732,1,2,0:0:0:0:
32,184,64193,1,4,0:0:0:0:
264,96,64655,6,0,L|328:72,2,47.9999985351563
152,40,65117,2,0,P|128:32|80:56,2,47.9999985351563,0|8|0,0:0|0:0|0:0,0:0:0:0:
88,144,65578,2,0,L|64:248,1,95.9999970703126
66,237,65924,1,0,0:0:0:0:
104,288,66040,6,0,L|208:336,1,95.9999970703126,2|0,0:0|0:0,0:0:0:0:
304,280,66501,2,0,L|352:248,2,47.9999985351563
304,152,66963,2,0,L|264:48,1,95.9999970703126
144,40,67424,2,0,L|48:104,1,95.9999970703126
136,192,67886,2,0,P|184:240|216:240,1,95.9999970703126,4|2,0:0|0:0,0:0:0:0:
400,88,68348,2,8,P|392:56|360:40,6,47.9999985351563
512,144,69271,5,0,0:0:0:0:
472,264,69501,1,2,0:0:0:0:
416,240,69617,1,4,0:0:0:0:
352,344,69848,1,4,0:0:0:0:
120,304,70194,6,0,B|64:328|-24:280|-64:176|-32:88|144:184|144:184|104:-16|216:-48|312:40|320:144|256:216,1,840.000032043458,8|2,0:0|0:0,0:0:0:0:
280,328,72040,6,0,P|304:344|336:352,6,47.9999985351563
360,232,72963,1,0,0:0:0:0:
408,112,73194,2,0,P|440:72|400:32,1,95.9999970703126
296,32,73656,1,0,0:0:0:0:
176,56,73886,2,0,P|160:72|152:104,6,47.9999985351563
104,160,74810,1,0,0:0:0:0:
96,288,75040,2,0,L|192:312,1,95.9999970703126
189,311,75387,1,2,0:0:0:0:
368,264,75733,6,0,P|408:232|392:208,2,47.9999985351563
400,144,76194,2,0,L|336:64,1,95.9999970703126
216,40,76656,2,0,L|136:112,1,95.9999970703126
256,192,77348,12,8,78964,0:0:0:0:
360,168,79425,5,8,0:0:0:0:
320,16,79887,2,0,B|188:36|340:147|162:94|318:216|122:164|310:274|150:220|236:302|114:300,1,360.000013732911,0|4,0:0|0:0,0:0:0:0:
40,272,81502,2,0,P|8:208|24:192,1,80
32,112,81964,2,0,P|72:72|104:80,1,80
192,64,82426,1,0,0:0:0:0:
192,64,82541,1,0,0:0:0:0:
192,64,82656,1,2,0:0:0:0:
296,72,82887,5,0,0:0:0:0:
368,144,83118,1,0,0:0:0:0:
448,336,83579,1,0,0:0:0:0:
240,320,84041,1,0,0:0:0:0:
136,288,84272,1,0,0:0:0:0:
48,232,84503,2,0,P|16:144|72:80,1,160,2|8,0:0|0:0,0:0:0:0:
256,64,85426,5,8,0:0:0:0:
360,88,85657,1,8,0:0:0:0:
440,152,85887,1,2,0:0:0:0:
384,240,86118,2,0,P|336:288|224:272,1,160,8|0,0:0|0:0,0:0:0:0:
152,256,86811,6,4,L|104:240,2,40,6|6|6,2:0|2:0|2:0,2:0:0:0:
72,176,87272,2,4,P|80:144|96:128,2,40,4|4|4,2:0|2:0|2:0,2:0:0:0:
144,96,87734,2,4,P|184:64|232:96,1,80,4|4,2:0|2:0,2:0:0:0:
304,32,88195,2,4,P|360:48|360:72,1,80,4|4,2:0|2:0,2:0:0:0:
392,160,88657,5,2,2:0:0:0:
392,160,88772,1,2,2:0:0:0:
392,160,88888,1,2,2:0:0:0:
392,160,89003,1,2,2:0:0:0:
392,160,89118,1,2,2:0:0:0:
392,160,89234,1,2,2:0:0:0:
392,160,89349,1,2,2:0:0:0:
392,160,89465,1,2,2:0:0:0:
392,160,89580,1,2,2:0:0:0:
408,272,89811,2,8,P|344:304|304:304,1,80
232,296,90272,6,8,L|168:280,4,40
248,192,90965,1,8,0:0:0:0:
152,160,91195,2,8,P|112:192|56:168,1,80
56,88,91657,2,8,L|96:64,4,40
24,184,92349,2,8,P|24:232|64:256,1,80
128,320,92811,2,8,P|176:336|216:320,1,80
304,288,93273,1,8,0:0:0:0:
392,232,93503,2,8,B|464:176|472:32|384:8,1,240,8|12,0:0|0:0,2:0:0:0:
400,32,101581,5,4,0:0:0:0:
496,176,101927,1,4,0:0:0:0:
400,312,102273,2,0,L|272:328,1,88.000002685547,4|4,0:0|0:0,0:0:0:0:
200,320,102735,1,2,1:0:0:0:
104,256,102966,1,4,0:0:0:0:
104,144,103196,5,2,1:0:0:0:
216,112,103427,2,0,B|312:88|312:88|328:112,1,88.000002685547,2|0,0:0|0:0,0:0:0:0:
416,80,103889,2,0,L|504:184,2,132.00000402832,2|0|2,1:0|0:0|1:0,0:0:0:0:
312,24,104812,1,2,0:0:0:0:
200,40,105043,1,2,0:0:0:0:
120,120,105273,1,2,0:0:0:0:
96,288,105620,1,2,0:0:0:0:
96,288,105735,6,0,L|144:296,6,44.0000013427735,2|2|2|2|2|2|2,0:0|0:0|0:0|0:0|0:0|0:0|0:0,0:0:0:0:
96,176,106658,1,8,0:0:0:0:
128,64,106889,1,8,0:0:0:0:
240,64,107120,1,0,0:0:0:0:
400,128,107466,1,2,0:0:0:0:
376,296,107812,2,0,L|288:336,1,88.000002685547
80,256,108504,1,2,0:0:0:0:
152,104,108966,1,2,0:0:0:0:
400,56,109658,6,0,L|480:88,1,64
448,208,110235,1,0,0:0:0:0:
376,312,110582,2,0,L|296:336,1,64,10|0,0:0|0:0,0:0:0:0:
64,312,111505,2,0,L|32:248,1,64,0|2,0:0|0:0,0:0:0:0:
72,184,111966,1,0,0:0:0:0:
104,104,112197,1,2,0:0:0:0:
184,88,112428,1,0,0:0:0:0:
256,136,112659,1,0,0:0:0:0:
496,64,113351,6,0,L|480:144,1,64
400,120,113813,2,0,L|432:192,1,64,0|2,0:0|0:0,0:0:0:0:
504,208,114274,2,0,L|464:288,1,64,0|2,0:0|0:0,0:0:0:0:
224,296,115197,5,0,0:0:0:0:
144,264,115428,1,0,0:0:0:0:
80,208,115659,1,0,0:0:0:0:
80,128,115890,1,2,0:0:0:0:
120,56,116120,2,0,L|192:72,1,64
392,72,117044,6,0,L|416:160,1,80,2|0,0:0|0:0,0:0:0:0:
352,296,117621,1,0,0:0:0:0:
200,320,117967,2,0,L|96:272,1,80,2|0,0:0|0:0,0:0:0:0:
32,56,118890,6,4,L|136:40,1,80,8|4,0:0|0:0,0:0:0:0:
216,48,119351,1,0,0:0:0:0:
184,144,119582,1,2,0:0:0:0:
80,168,119813,1,0,0:0:0:0:
88,272,120044,5,0,0:0:0:0:
296,312,120505,1,0,0:0:0:0:
472,208,120967,1,2,0:0:0:0:
296,104,121429,1,2,0:0:0:0:
256,192,121890,12,2,126506,0:0:0:0:
256,192,126967,5,4,2:0:0:0:
144,24,127198,1,0,0:0:0:0:
144,24,127429,2,0,B|248:8|344:128|472:24,1,311.999985717774
464,160,128352,2,8,L|504:256,1,103.999995239258
368,288,128814,2,8,L|320:184,1,103.999995239258
240,88,129275,2,0,B|200:136|232:176|200:208|240:256|192:288|192:288,1,207.999990478516,0|4,0:0|2:0,0:0:0:0:
64,328,129968,5,0,0:0:0:0:
32,200,130198,1,0,0:0:0:0:
144,32,130545,1,0,0:0:0:0:
144,32,130891,2,0,L|256:72,1,103.999995239258,2|0,0:0|0:0,0:0:0:0:
256,192,131583,12,4,134353,2:0:0:0:
176,184,134583,5,0,0:0:0:0:
200,80,134814,2,0,B|352:24|240:168|384:72|232:240|480:40|280:304|480:176|480:176|416:360|352:360|352:360|264:360,1,640,8|10,0:0|0:0,0:0:0:0:
104,296,137122,1,8,0:0:0:0:
40,216,137353,1,8,0:0:0:0:
56,112,137584,1,8,0:0:0:0:
192,32,137930,1,0,0:0:0:0:
344,32,138276,2,0,L|440:80,1,80,2|0,0:0|0:0,0:0:0:0:
256,192,138968,12,2,141738,2:0:0:0:
352,40,142199,5,0,0:0:0:0:
480,328,142892,2,8,L|384:304,1,80
288,304,143353,1,0,0:0:0:0:
184,288,143584,2,0,L|96:240,1,80,2|0,0:0|0:0,0:0:0:0:
24,200,144046,1,8,0:0:0:0:
264,8,144738,5,0,0:0:0:0:
360,56,144969,1,2,0:0:0:0:
440,128,145200,1,0,0:0:0:0:
456,232,145430,2,0,L|368:272,1,80,2|0,0:0|0:0,0:0:0:0:
288,312,145892,1,0,0:0:0:0:
88,264,146354,5,0,0:0:0:0:
56,168,146584,2,0,L|96:96,1,80,2|0,0:0|0:0,0:0:0:0:
168,24,147046,1,0,0:0:0:0:
272,40,147277,2,0,L|352:56,1,80,2|0,0:0|0:0,0:0:0:0:
440,104,147738,1,8,0:0:0:0:
384,248,148084,1,2,0:0:0:0:
216,320,148431,6,0,L|104:280,1,80
80,208,148892,1,2,0:0:0:0:
72,104,149123,2,8,L|160:64,1,80
248,48,149585,1,2,0:0:0:0:
152,232,150277,5,0,0:0:0:0:
216,312,150508,1,0,0:0:0:0:
320,288,150738,2,0,P|358:256|417:150,1,160,0|2,0:0|0:0,0:0:0:0:
414,162,151431,1,0,0:0:0:0:
120,56,152123,6,0,L|104:136,1,80
208,104,152585,2,0,L|240:200,1,80
160,256,153046,2,0,B|184:304|184:304|240:328,1,80,2|0,0:0|0:0,0:0:0:0:
416,312,153739,5,0,0:0:0:0:
408,208,153970,1,8,0:0:0:0:
408,208,154085,1,8,0:0:0:0:
264,144,154431,1,4,2:0:0:0:
80,48,154893,2,0,L|8:96,1,80,0|2,0:0|0:0,0:0:0:0:
48,240,155816,5,8,0:0:0:0:
120,312,156047,1,8,0:0:0:0:
224,288,156277,2,0,L|328:232,1,80,2|0,0:0|0:0,0:0:0:0:
256,192,156970,12,0,160662,0:0:0:0:
256,192,164355,12,0,167586,0:0:0:0:
384,96,167817,5,0,0:0:0:0:
264,32,168048,2,0,L|176:24,2,51.999997619629
160,120,168509,1,0,0:0:0:0:
216,240,168740,2,0,L|240:304,3,51.999997619629
104,136,169432,1,0,0:0:0:0:
368,72,169894,6,0,L|336:24,2,51.999997619629
464,168,170355,2,0,L|528:192,2,51.999997619629
328,152,170817,2,0,L|264:152,2,51.999997619629
416,256,171279,2,0,L|440:312,2,51.999997619629
288,304,171740,5,6,2:0:0:0:
64,160,172202,1,6,2:0:0:0:
152,56,172432,1,2,2:0:0:0:
424,56,172894,1,6,2:0:0:0:
336,240,173240,1,6,2:0:0:0:
224,72,173586,5,8,0:0:0:0:
80,128,174288,1,2,0:0:0:0:
232,336,175442,5,8,0:0:0:0:
384,296,176134,1,4,2:0:0:0:
456,48,177288,5,8,0:0:0:0:
368,176,177980,1,2,0:0:0:0:
160,24,179134,5,8,0:0:0:0:
176,176,179826,1,4,2:0:0:0:
256,312,180519,1,2,0:0:0:0:
336,232,180999,6,0,L|400:72,1,160
192,24,181922,2,0,L|112:192,1,160
32,352,182846,2,0,L|192:280,1,160
376,232,183770,1,0,0:0:0:0:
448,152,184232,2,0,L|368:88,1,80
288,64,184694,5,0,0:0:0:0:
80,72,185156,2,0,L|112:168,1,80
88,248,185617,1,0,0:0:0:0:
280,328,186079,1,0,0:0:0:0:
288,120,186541,2,0,P|400:128|424:248,1,240
328,264,187465,2,0,P|264:304|168:256,1,160
128,80,188389,5,4,0:0:0:0:
296,200,188851,1,4,0:0:0:0:
136,64,189313,1,4,0:0:0:0:
