osu file format v14

[General]
AudioFilename: soraru - gin no kisei (TV Size).mp3
AudioLeadIn: 0
PreviewTime: 61626
Countdown: 0
SampleSet: Soft
StackLeniency: 0.7
Mode: 0
LetterboxInBreaks: 0
WidescreenStoryboard: 1

[Editor]
DistanceSpacing: 1.6
BeatDivisor: 4
GridSize: 32
TimelineZoom: 1.400001

[Metadata]
Title:Gin no Kisei (TV Size)
TitleUnicode:銀の祈誓 (TV Size)
Artist:soraru
ArtistUnicode:そらる
Creator:Daisuke
Version:Walao's Hard
Source:ゴブリンスレイヤー
Tags:zhu donjuan grindle walaowey matsubara kanon habiholic starset hb24 orcbolg beardcutter Goblin Slayer ED Ending Ohnishi Shogo from agehasprings Harumaki Gohan silver oath 大西省吾 はるまきごはん anime japanese
BeatmapID:1844736
BeatmapSetID:882398

[Difficulty]
HPDrainRate:5
CircleSize:3.5
OverallDifficulty:6
ApproachRate:8
SliderMultiplier:1.4
SliderTickRate:1

[Events]
//Background and Video events
0,0,"soraru - gin no kisei (TV Size).jpg",0,0
//Break Periods
//Storyboard Layer 0 (Background)
//Storyboard Layer 1 (Fail)
//Storyboard Layer 2 (Pass)
//Storyboard Layer 3 (Foreground)
//Storyboard Layer 4 (Overlay)
//Storyboard Sound Samples

[TimingPoints]
1674,309.278350515464,4,2,1,40,1,0
1674,-133.333333333333,4,2,1,40,0,0
11570,-133.333333333333,4,2,1,45,0,0
21467,-100,4,2,1,60,0,1
31364,-133.333333333333,4,2,1,50,0,0
41261,-100,4,2,1,55,0,0
51158,-100,4,2,1,45,0,0
52395,317.460317460317,4,2,1,35,1,0
53664,352.941176470588,4,2,1,35,1,0
55428,530.973451327434,4,2,1,35,1,0
55693,352.941176470588,4,2,1,35,1,0
55869,404.721753794266,4,2,1,35,1,0
56678,309.278350515464,4,2,1,55,1,0
61626,-100,4,2,1,60,0,1
71523,-100,4,2,1,55,0,0
71987,-100,4,2,1,60,0,1
81420,-133.333333333333,4,2,1,55,0,0
86368,-100,4,2,1,60,0,1
88842,-100,4,2,1,50,0,0

[Colours]
Combo1 : 0,149,74
Combo2 : 223,223,223
Combo3 : 159,159,159
Combo4 : 149,0,0
Combo5 : 255,255,128
Combo6 : 0,106,106

[HitObjects]
148,174,1674,6,0,P|191:145|259:151,1,105.000004005432,2|0,0:0|0:0,0:0:0:0:
290,293,2292,2,0,P|243:270|214:208,1,105.000004005432,2|0,0:0|0:0,0:0:0:0:
325,110,2911,70,0,P|328:161|289:217,2,105.000004005432,2|2|0,0:0|0:0|0:0,0:0:0:0:
171,73,3838,1,2,0:0:0:0:
217,225,4148,6,0,P|243:270|290:293,1,105.000004005432,2|0,0:0|0:0,0:0:0:0:
446,273,4766,2,0,L|475:207,1,52.5000020027161,2|0,0:0|0:0,0:0:0:0:
493,149,5076,70,0,P|426:144|350:75,1,157.500006008148,2|0,0:0|0:0,0:0:0:0:
204,51,5849,2,0,L|102:78,1,105.000004005432,2|0,0:0|0:0,0:0:0:0:
52,139,6313,2,0,P|73:151|112:157,1,52.5000020027161,2|0,0:0|0:0,0:0:0:0:
179,161,6622,6,0,P|230:169|283:207,2,105.000004005432,2|2|0,0:0|0:0|0:0,0:0:0:0:
97,296,7550,1,2,0:0:0:0:
239,362,7859,70,0,L|350:352,1,105.000004005432,2|0,0:0|0:0,0:0:0:0:
454,239,8478,2,0,L|358:194,1,105.000004005432,2|0,0:0|0:0,0:0:0:0:
281,57,9096,6,0,L|385:47,2,105.000004005432,2|2|0,0:0|0:0|0:0,0:0:0:0:
123,67,10024,2,0,L|60:62,1,52.5000020027161,2|0,0:0|0:0,0:0:0:0:
42,136,10333,70,0,L|158:144,1,105.000004005432,2|0,0:0|0:0,0:0:0:0:
225,146,10797,2,0,P|183:167|160:228,1,105.000004005432,2|0,0:0|0:0,0:0:0:0:
153,296,11261,1,2,0:0:0:0:
289,225,11570,69,2,0:0:0:0:
289,225,11725,2,0,L|236:222,1,52.5000020027161,0|0,0:0|0:0,0:0:0:0:
236,302,12034,2,0,P|318:313|393:359,1,157.500006008148,2|0,0:0|0:0,0:0:0:0:
456,320,12653,1,0,0:0:0:0:
435,244,12808,6,0,P|399:202|385:140,1,105.000004005432,0|0,0:0|0:0,0:0:0:0:
422,85,13271,2,0,L|466:84,2,26.2500010013581,0|0|8,0:0|0:0|0:0,0:0:0:0:
343,90,13581,2,0,L|290:92,1,52.5000020027161,4|0,0:3|0:0,0:0:0:0:
211,97,13890,1,0,0:0:0:0:
254,163,14045,69,2,0:0:0:0:
254,163,14199,2,0,P|246:202|228:224,1,52.5000020027161,0|0,0:0|0:0,0:0:0:0:
175,167,14509,2,0,L|49:170,1,105.000004005432,2|0,0:0|0:0,0:0:0:0:
26,234,14972,6,0,P|88:270|109:372,1,157.500006008148,0|0,0:0|0:0,0:0:0:0:
190,366,15591,2,0,P|241:351|311:369,1,105.000004005432,0|0,0:0|0:0,0:0:0:0:
369,345,16055,1,0,0:0:0:0:
369,345,16210,2,0,L|381:291,1,52.5000020027161,0|0,0:0|0:0,0:0:0:0:
433,235,16519,69,2,0:0:0:0:
433,235,16674,2,0,L|449:166,1,52.5000020027161,0|0,0:0|0:0,0:0:0:0:
461,106,16983,2,0,P|413:111|372:152,1,105.000004005432,2|0,0:0|0:0,0:0:0:0:
295,163,17447,2,0,L|232:151,1,52.5000020027161,0|0,0:0|0:0,0:0:0:0:
196,89,17756,6,0,L|135:110,1,52.5000020027161,0|0,0:0|0:0,0:0:0:0:
110,176,18065,2,0,L|58:165,1,52.5000020027161,0|0,0:0|0:0,0:0:0:0:
19,157,18297,1,0,0:0:0:0:
19,157,18375,2,0,P|-2:110|-7:76,2,78.7500030040742,8|8|8,0:0|0:0|0:0,0:0:0:0:
23,235,18993,69,2,0:0:0:0:
23,235,19148,2,0,L|52:302,1,52.5000020027161,0|0,0:0|0:0,0:0:0:0:
85,350,19457,2,0,L|120:303,1,52.5000020027161,2|0,0:0|0:0,0:0:0:0:
154,238,19766,2,0,L|95:230,2,52.5000020027161,0|0|0,0:0|0:0|0:0,0:0:0:0:
191,307,20230,6,0,B|232:291|242:240|230:211|230:211|321:293|428:237,1,315.000012016297,0|0,0:0|0:0,0:0:0:0:
491,93,21467,38,0,L|351:92,1,140,14|0,0:0|0:0,0:0:0:0:
277,51,21931,2,0,L|131:51,1,140,14|2,0:0|0:0,0:0:0:0:
141,135,22395,6,0,L|280:135,1,140,14|0,0:0|0:0,0:0:0:0:
355,177,22859,2,0,L|501:177,1,140,14|2,0:0|0:0,0:0:0:0:
501,260,23323,1,14,0:0:0:0:
429,304,23478,1,10,0:3:0:0:
429,304,23555,1,10,0:3:0:0:
429,304,23632,2,0,L|386:304,3,35,6|6|6|6,0:3|0:3|0:3|0:3,0:0:0:0:
351,302,23942,70,0,P|285:311|226:362,1,140,14|0,0:0|0:0,0:0:0:0:
148,336,24405,2,0,P|139:270|88:211,1,140,14|2,0:0|0:0,0:0:0:0:
128,138,24869,6,0,P|194:129|253:78,1,140,14|2,0:0|0:0,0:0:0:0:
331,104,25333,2,0,P|340:170|391:229,1,140,14|2,0:0|0:0,0:0:0:0:
463,258,25797,1,14,0:0:0:0:
435,337,25952,1,0,0:0:0:0:
357,304,26106,2,0,P|323:298|278:311,1,70,14|0,0:0|0:0,0:0:0:0:
204,313,26416,70,0,B|160:306|160:306|75:248,1,140,14|2,0:0|0:0,0:0:0:0:
74,168,26880,2,0,B|118:175|118:175|203:233,1,140,14|2,0:0|0:0,0:0:0:0:
280,223,27344,6,0,B|333:144|333:144|340:100,1,140,14|2,0:0|0:0,0:0:0:0:
257,105,27808,2,0,B|203:183|203:183|196:227,1,140,14|2,0:0|0:0,0:0:0:0:
204,313,28271,1,14,0:0:0:0:
288,305,28426,1,10,0:3:0:0:
288,305,28503,1,10,0:3:0:0:
288,305,28581,2,0,L|336:291,3,35,6|6|6|6,0:3|0:3|0:3|0:3,0:0:0:0:
363,287,28890,70,0,P|358:227|291:183,1,140,14|0,0:0|0:0,0:0:0:0:
214,166,29354,2,0,P|274:161|318:94,1,140,14|2,0:0|0:0,0:0:0:0:
337,17,29818,6,0,P|342:77|409:121,1,140,14|2,0:0|0:0,0:0:0:0:
485,138,30282,2,0,P|425:143|381:210,1,140,14|2,0:0|0:0,0:0:0:0:
464,218,30746,1,14,0:0:0:0:
507,289,30900,1,0,0:0:0:0:
442,342,31055,2,0,L|356:328,1,70,14|0,0:0|0:0,0:0:0:0:
272,252,31364,5,4,0:0:0:0:
272,252,32292,2,0,L|216:243,1,52.5000020027161,0|2,0:0|3:2,0:0:0:0:
153,286,32601,6,0,L|33:266,1,105.000004005432,0|2,0:0|0:0,0:0:0:0:
15,197,33065,1,0,0:0:0:0:
15,197,33220,2,0,P|22:162|21:123,1,52.5000020027161,8|2,0:0|0:0,0:0:0:0:
58,75,33529,2,0,P|84:98|119:117,1,52.5000020027161,0|0,0:0|0:0,0:0:0:0:
177,119,33838,6,0,L|280:101,1,105.000004005432,0|0,3:0|0:0,0:0:0:0:
349,63,34302,1,2,0:0:0:0:
349,63,34457,2,0,P|368:45|389:30,1,52.5000020027161,8|0,0:0|0:0,0:0:0:0:
467,44,34766,1,0,0:0:0:0:
467,44,34921,6,0,L|483:156,1,105.000004005432,2|0,0:0|0:0,0:0:0:0:
429,206,35385,2,0,L|377:198,1,52.5000020027161,2|0,0:0|0:0,0:0:0:0:
302,172,35694,2,0,L|250:180,2,52.5000020027161,8|0|0,0:0|0:0|0:0,0:0:0:0:
316,255,36158,1,0,0:0:0:0:
316,255,36313,6,0,L|210:271,1,105.000004005432,0|0,3:0|0:0,0:0:0:0:
158,212,36777,1,2,0:0:0:0:
158,212,36931,2,0,P|141:236|134:263,1,52.5000020027161,8|0,0:0|0:0,0:0:0:0:
165,331,37241,2,0,P|139:336|113:333,1,52.5000020027161,2|0,0:0|3:0,0:0:0:0:
54,281,37550,6,0,L|45:214,1,52.5000020027161,0|0,0:0|3:0,0:0:0:0:
86,160,37859,2,0,L|95:93,1,52.5000020027161,0|0,0:0|0:0,0:0:0:0:
65,33,38168,2,0,P|92:27|135:37,1,52.5000020027161,8|2,0:0|0:0,0:0:0:0:
171,87,38478,2,0,P|198:93|241:83,1,52.5000020027161,0|0,0:0|0:0,0:0:0:0:
283,40,38787,6,0,L|405:15,1,105.000004005432,2|0,0:0|0:0,0:0:0:0:
381,102,39251,1,2,0:0:0:0:
381,102,39405,2,0,L|329:112,1,52.5000020027161,8|0,0:0|0:0,0:0:0:0:
350,189,39715,2,0,L|401:178,2,52.5000020027161,0|0|0,0:0|3:0|0:0,0:0:0:0:
68,65,41261,70,0,L|41:224,1,140,6|10,0:0|0:0,0:0:0:0:
30,285,41725,1,0,0:0:0:0:
30,285,41880,2,0,P|72:282|109:255,1,70,2|2,0:0|0:0,0:0:0:0:
127,190,42189,2,0,P|158:174|192:173,1,70,10|2,0:0|0:0,0:0:0:0:
264,217,42498,6,0,P|221:166|233:93,1,140,2|10,0:0|0:0,0:0:0:0:
301,142,42962,1,0,0:0:0:0:
301,142,43117,2,0,P|329:164|348:218,1,70,2|2,0:0|0:0,0:0:0:0:
325,276,43426,2,0,P|359:277|391:264,1,70,10|0,0:0|0:0,0:0:0:0:
424,186,43735,70,0,L|452:345,1,140,6|10,0:0|0:0,0:0:0:0:
375,365,44199,1,0,0:0:0:0:
291,355,44354,2,0,P|256:353|224:366,1,70,2|2,0:0|0:0,0:0:0:0:
140,361,44663,2,0,P|112:339|96:308,1,70,10|2,0:0|0:0,0:0:0:0:
111,226,44972,6,0,P|74:290|2:300,1,140,2|10,0:0|0:0,0:0:0:0:
27,219,45436,1,2,0:0:0:0:
73,148,45591,2,0,P|110:139|164:156,1,70,0|2,0:0|0:0,0:0:0:0:
194,209,45900,1,10,0:0:0:0:
111,226,46055,1,2,0:0:0:0:
223,131,46210,70,0,P|267:173|263:255,1,140,6|10,0:0|0:0,0:0:0:0:
223,320,46674,1,0,0:0:0:0:
223,320,46828,2,0,P|255:331|311:321,1,70,2|2,0:0|0:0,0:0:0:0:
347,266,47137,1,10,0:0:0:0:
323,185,47292,6,0,P|386:191|430:264,1,140,2|2,0:0|0:0,0:0:0:0:
510,228,47756,2,0,L|501:135,1,70,10|0,0:0|0:0,0:0:0:0:
493,74,48065,2,0,P|456:87|424:128,1,70,2|2,0:0|0:0,0:0:0:0:
349,103,48375,2,0,P|315:92|290:69,1,70,10|2,0:0|0:0,0:0:0:0:
209,43,48684,70,0,L|222:189,1,140,2|10,0:0|0:0,0:0:0:0:
231,266,49148,1,0,0:0:0:0:
231,266,49302,2,0,P|196:262|158:237,1,70,2|2,0:0|0:0,0:0:0:0:
139,164,49612,1,10,0:0:0:0:
269,108,49766,6,0,L|401:175,1,140,6|2,0:0|0:0,0:0:0:0:
468,209,50230,2,0,L|471:278,1,70,10|2,0:0|0:0,0:0:0:0:
473,321,50462,1,10,0:0:0:0:
473,321,50539,2,0,P|449:342|403:357,1,70,2|2,0:0|0:0,0:0:0:0:
343,308,50849,1,2,0:0:0:0:
265,339,51003,1,10,0:0:0:0:
189,301,51158,22,0,P|121:294|71:340,1,140,2|0,0:0|0:0,0:0:0:0:
148,374,51622,1,2,0:0:0:0:
148,374,51777,2,0,L|99:233,1,140,10|2,0:0|0:0,0:0:0:0:
77,161,52241,1,0,0:0:0:0:
158,177,52395,54,0,P|195:177|250:144,1,70,2|0,0:0|0:0,0:0:0:0:
306,186,52712,2,0,P|306:149|273:94,1,70,2|0,0:0|0:0,0:0:0:0:
314,36,53029,2,0,P|277:36|222:69,1,70,10|0,0:0|0:0,0:0:0:0:
165,27,53347,2,0,P|165:64|198:119,1,70,2|0,0:0|0:0,0:0:0:0:
158,177,53664,22,0,P|98:170|28:228,1,140,2|2,0:0|0:0,0:0:0:0:
117,254,54193,1,2,0:0:0:0:
200,248,54369,2,0,L|277:241,1,70,10|0,0:0|0:0,0:0:0:0:
327,302,54722,2,0,L|415:293,1,70,2|0,0:0|0:0,0:0:0:0:
478,342,55075,6,0,P|434:291|437:223,1,140,2|2,0:0|0:0,0:0:0:0:
485,145,55693,1,2,0:0:0:0:
485,145,55781,1,2,0:0:0:0:
485,145,55869,2,0,P|439:164|266:128,1,210,10|0,0:0|0:0,0:0:0:0:
165,80,56678,22,0,L|200:231,1,140,6|10,0:0|0:0,0:0:0:0:
115,235,57141,2,0,L|94:141,1,70,0|2,0:0|0:0,0:0:0:0:
16,183,57451,2,0,L|34:259,1,70,2|10,0:0|0:0,0:0:0:0:
85,316,57760,6,0,P|130:321|173:300,1,70,2|0,0:0|0:0,0:0:0:0:
199,243,58069,2,0,P|223:268|234:300,1,70,2|10,0:0|0:0,0:0:0:0:
291,363,58379,2,0,P|325:369|358:360,1,70,0|2,0:0|0:0,0:0:0:0:
405,290,58688,1,10,0:0:0:0:
351,224,58842,2,0,P|328:250|319:284,1,70,10|10,0:0|0:0,0:0:0:0:
438,369,59152,70,0,L|534:370,2,70,6|4|2,0:0|0:3|0:0,0:0:0:0:
405,290,59616,2,0,L|494:292,1,70,10|0,0:0|0:0,0:0:0:0:
512,215,59925,1,2,0:0:0:0:
510,130,60080,1,10,0:0:0:0:
469,57,60234,2,0,L|392:55,1,70,2|0,0:0|0:0,0:0:0:0:
156,173,61626,70,0,L|239:224,1,70,14|2,0:0|0:0,0:0:0:0:
289,250,61935,1,2,0:0:0:0:
289,165,62090,2,0,L|164:85,1,140,14|0,0:0|0:0,0:0:0:0:
91,117,62554,6,0,P|71:158|79:208,1,70,14|2,0:0|0:0,0:0:0:0:
116,252,62863,1,2,0:0:0:0:
191,288,63018,2,0,P|266:289|334:337,1,140,14|0,0:0|0:0,0:0:0:0:
395,282,63482,70,0,P|404:238|388:193,1,70,14|10,0:0|0:3,0:0:0:0:
333,160,63791,1,6,0:3:0:0:
319,242,63946,1,6,0:3:0:0:
414,130,64100,1,14,0:0:0:0:
349,76,64255,6,0,P|304:78|280:91,1,70,2|2,0:0|0:0,0:0:0:0:
246,165,64564,2,0,P|214:178|179:178,2,70,14|2|2,0:0|0:0|0:0,0:0:0:0:
197,96,65028,2,0,P|162:95|130:109,1,70,14|2,0:0|0:0,0:0:0:0:
109,224,65337,70,0,L|127:301,1,70,2|12,0:0|0:0,0:0:0:0:
190,344,65647,1,2,0:0:0:0:
267,311,65801,2,0,P|306:304|336:308,1,70,2|14,0:0|0:0,0:0:0:0:
411,345,66110,1,0,0:0:0:0:
469,284,66265,2,0,L|488:190,1,70,14|0,0:0|0:0,0:0:0:0:
429,88,66574,6,0,L|413:173,1,70,14|2,0:0|3:2,0:0:0:0:
363,223,66884,2,0,P|336:182|332:141,1,70,2|14,3:2|0:0,0:0:0:0:
271,103,67193,2,0,P|248:146|215:170,1,70,0|2,0:0|0:0,0:0:0:0:
210,241,67502,2,0,P|259:238|296:255,1,70,14|0,0:0|0:0,0:0:0:0:
241,320,67812,70,0,L|176:366,1,70,2|14,0:0|0:0,0:0:0:0:
105,329,68121,2,0,L|41:299,1,70,2|0,0:0|0:0,0:0:0:0:
31,216,68430,2,0,L|24:146,1,70,14|10,0:0|0:3,0:0:0:0:
35,105,68662,1,10,0:3:0:0:
35,105,68739,2,0,P|69:78|124:60,1,70,6|6,0:3|0:3,0:0:0:0:
232,28,69049,6,0,L|380:11,1,140,14|2,0:0|0:0,0:0:0:0:
449,41,69513,1,14,0:0:0:0:
382,91,69667,2,0,P|379:134|405:186,1,70,0|2,0:0|0:0,0:0:0:0:
461,197,69976,1,14,0:0:0:0:
427,274,70131,70,0,L|341:276,1,70,0|2,0:0|0:0,0:0:0:0:
288,227,70440,2,0,P|218:220|149:250,1,140,14|10,0:0|0:3,0:0:0:0:
102,312,70904,1,6,0:3:0:0:
102,312,70982,1,6,0:3:0:0:
102,312,71059,1,6,0:3:0:0:
30,266,71214,2,0,P|28:231|46:185,1,70,14|0,0:0|0:0,0:0:0:0:
98,139,71523,53,0,0:0:0:0:
354,48,71987,22,0,P|343:121|393:200,1,140,14|0,0:0|0:0,0:0:0:0:
408,254,72451,2,0,P|350:207|256:211,1,140,14|2,0:0|0:0,0:0:0:0:
202,197,72915,2,0,P|270:170|314:87,1,140,14|0,0:0|0:0,0:0:0:0:
266,43,73379,5,14,0:0:0:0:
182,35,73533,1,10,0:3:0:0:
182,35,73610,1,10,0:3:0:0:
182,35,73688,2,0,P|144:42|105:63,1,70,6|6,0:3|0:3,0:0:0:0:
42,179,73997,1,14,0:0:0:0:
60,261,74152,70,0,L|90:338,1,70,2|2,0:0|0:0,0:0:0:0:
167,345,74461,2,0,L|236:355,2,70,14|2|2,0:0|0:0|0:0,0:0:0:0:
147,263,74925,2,0,L|238:277,1,70,14|2,0:0|0:0,0:0:0:0:
318,337,75234,5,2,0:0:0:0:
298,255,75389,2,0,P|282:220|243:195,1,70,14|0,0:0|0:0,0:0:0:0:
288,122,75698,2,0,P|326:125|367:104,1,70,2|14,0:0|0:0,0:0:0:0:
311,42,76007,1,0,0:0:0:0:
227,51,76162,2,0,L|139:58,1,70,14|0,0:0|0:0,0:0:0:0:
42,135,76471,70,0,L|133:127,1,70,14|2,0:0|0:0,0:0:0:0:
172,188,76781,2,0,L|177:278,1,70,0|14,0:0|0:0,0:0:0:0:
189,340,77090,2,0,L|276:363,1,70,2|0,0:0|0:0,0:0:0:0:
340,369,77399,2,0,L|388:293,1,70,14|2,0:0|0:0,0:0:0:0:
411,233,77708,6,0,L|354:163,1,70,2|14,0:0|0:0,0:0:0:0:
308,116,78018,2,0,L|223:148,1,70,0|2,0:0|0:0,0:0:0:0:
172,188,78327,1,14,0:0:0:0:
89,172,78482,1,10,0:3:0:0:
89,172,78559,1,10,0:3:0:0:
89,172,78636,2,0,L|39:154,3,35,6|6|6|6,0:3|0:3|0:3|0:3,0:0:0:0:
15,145,78946,70,0,P|-9:220|21:290,1,140,14|2,0:0|0:0,0:0:0:0:
86,309,79409,2,0,P|152:290|216:314,1,140,14|2,0:0|0:0,0:0:0:0:
292,350,79873,2,0,P|300:318|290:276,1,70,14|2,0:0|0:0,0:0:0:0:
252,207,80183,6,0,L|224:157,3,35,8|8|8|8,0:0|0:0|0:0|0:0,0:0:0:0:
193,168,80492,2,0,L|173:131,3,35,8|8|8|8,0:3|0:3|0:3|0:3,0:0:0:0:
135,125,80801,2,0,L|106:71,3,35,8|8|0|0,0:0|0:0|0:0|0:0,0:0:0:0:
77,81,81110,2,0,L|54:39,3,35,4|4|4|4,0:3|0:3|0:3|0:3,0:0:0:0:
39,26,81420,22,0,L|146:10,1,105.000004005432,4|0,0:0|0:0,0:0:0:0:
214,43,81884,1,2,0:0:0:0:
214,43,82038,2,0,L|334:25,1,105.000004005432,10|0,0:0|0:0,0:0:0:0:
400,161,82657,6,0,P|342:160|285:190,1,105.000004005432,6|2,0:0|0:0,0:0:0:0:
358,324,83275,2,0,L|414:314,2,52.5000020027161,10|2|0,0:0|0:0|0:0,0:0:0:0:
280,338,83739,1,2,0:0:0:0:
210,301,83894,70,0,P|159:289|105:293,1,105.000004005432,6|0,0:0|0:0,0:0:0:0:
31,316,84358,1,2,0:0:0:0:
8,240,84513,2,0,P|38:194|51:132,1,105.000004005432,10|0,0:0|0:0,0:0:0:0:
24,71,84976,1,0,0:0:0:0:
101,85,85131,6,0,L|218:77,1,105.000004005432,6|0,0:0|0:0,0:0:0:0:
390,148,85750,2,0,P|419:152|458:138,1,52.5000020027161,10|2,0:0|0:0,0:0:0:0:
414,70,86059,1,6,0:3:0:0:
414,70,86214,1,6,0:3:0:0:
304,145,86368,22,0,L|316:293,1,140,14|8,0:0|0:0,0:0:0:0:
275,358,86832,1,8,0:3:0:0:
275,358,86909,1,8,0:3:0:0:
275,358,86987,2,0,L|236:350,3,35,8|8|8|8,0:3|0:3|0:3|0:3,0:0:0:0:
209,322,87296,2,0,L|170:314,3,35,8|8|8|8,0:3|0:3|0:3|0:3,0:0:0:0:
143,285,87605,6,0,L|64:268,1,70,12|0,0:0|0:0,0:0:0:0:
43,191,87915,2,0,L|-3:181,2,35,6|6|8,0:3|0:3|0:0,0:0:0:0:
123,167,88224,2,0,P|157:149|183:100,1,70,6|6,0:3|0:3,0:0:0:0:
215,50,88533,2,0,L|206:8,2,35,6|6|6,0:3|0:3|0:3,0:0:0:0:
259,121,88842,69,6,0:3:0:0:
399,161,88997,1,12,0:0:0:0:
