osu file format v14

[General]
AudioFilename: soraru - gin no kisei (TV Size).mp3
AudioLeadIn: 0
PreviewTime: 61626
Countdown: 0
SampleSet: Soft
StackLeniency: 0.5
Mode: 0
LetterboxInBreaks: 0
WidescreenStoryboard: 1

[Editor]
DistanceSpacing: 1.6
BeatDivisor: 4
GridSize: 32
TimelineZoom: 0.9999999

[Metadata]
Title:Gin no Kisei (TV Size)
TitleUnicode:銀の祈誓 (TV Size)
Artist:soraru
ArtistUnicode:そらる
Creator:Daisuke
Version:Starset's Another
Source:ゴブリンスレイヤー
Tags:zhu donjuan grindle walaowey matsubara kanon habiholic starset hb24 orcbolg beardcutter Goblin Slayer ED Ending Ohnishi Shogo from agehasprings Harumaki Gohan silver oath 大西省吾 はるまきごはん anime japanese
BeatmapID:1862796
BeatmapSetID:882398

[Difficulty]
HPDrainRate:6
CircleSize:4
OverallDifficulty:8.5
ApproachRate:9.4
SliderMultiplier:2
SliderTickRate:1

[Events]
//Background and Video events
0,0,"soraru - gin no kisei (TV Size) [Starset].jpg",0,0
//Break Periods
//Storyboard Layer 0 (Background)
//Storyboard Layer 1 (Fail)
//Storyboard Layer 2 (Pass)
//Storyboard Layer 3 (Foreground)
//Storyboard Layer 4 (Overlay)
//Storyboard Sound Samples

[TimingPoints]
1674,309.278350515464,4,2,1,30,1,0
11570,-133.333333333333,4,2,1,35,0,0
21467,-100,4,2,1,60,0,1
31364,-666.666666666658,4,2,1,50,0,0
32601,-153.846153846153,4,2,1,50,0,0
41261,-100,4,2,1,55,0,0
51158,-133.333333333333,4,2,1,35,0,0
52395,317.460317460317,4,2,1,50,1,0
52395,-133.333333333333,4,2,1,50,0,0
53664,352.941176470588,4,2,1,50,1,0
53664,-153.846153846153,4,2,1,50,0,0
54369,-181.818181818181,4,2,1,50,0,0
55428,530.973451327434,4,2,1,50,1,0
55693,352.941176470588,4,2,1,50,1,0
55869,404.721753794266,4,2,1,50,1,0
55869,-222.222222222222,4,2,1,50,0,0
56678,309.278350515464,4,2,1,55,1,0
61626,-83.3333333333333,4,2,1,60,0,1
71214,-222.222222222222,4,2,1,60,0,1
71523,-83.3333333333333,4,2,1,70,0,0
71987,-83.3333333333333,4,2,1,60,0,1
81420,-222.222222222221,4,2,1,55,0,0
82038,-133.333333333333,4,2,1,55,0,0
86368,-83.3333333333333,4,2,1,60,0,1
88997,-100,4,2,1,50,0,0

[Colours]
Combo1 : 170,0,85
Combo2 : 223,223,223
Combo3 : 159,159,159
Combo4 : 149,0,0

[HitObjects]
144,117,11570,5,2,0:0:0:0:
293,74,11725,1,0,0:0:0:0:
293,74,12034,1,2,0:0:0:0:
231,267,13271,1,0,0:0:0:0:
231,267,13349,1,0,0:0:0:0:
231,267,13426,1,8,0:0:0:0:
318,295,13581,1,4,0:3:0:0:
318,295,13890,1,0,0:0:0:0:
473,155,14045,5,2,0:0:0:0:
324,198,14199,1,0,0:0:0:0:
324,198,14509,1,2,0:0:0:0:
104,255,16519,37,2,0:0:0:0:
143,113,16674,1,0,0:0:0:0:
143,113,16983,1,2,0:0:0:0:
209,349,18220,1,0,0:0:0:0:
209,349,18297,1,0,0:0:0:0:
209,349,18375,2,0,P|255:318|331:325,2,112.500004291535,8|8|8,0:0|0:0|0:0,0:0:0:0:
34,205,18993,5,2,0:0:0:0:
73,347,19148,1,0,0:0:0:0:
73,347,19457,1,2,0:0:0:0:
327,80,21467,5,14,0:0:0:0:
267,258,21622,1,2,0:0:0:0:
178,168,21777,1,0,0:0:0:0:
397,249,21931,2,0,L|500:224,1,100,14|2,0:0|0:0,0:0:0:0:
350,173,22241,1,2,0:0:0:0:
172,346,22395,2,0,L|69:321,1,100,14|2,0:0|0:0,0:0:0:0:
153,247,22704,5,0,0:0:0:0:
425,384,22859,2,0,P|458:338|492:302,1,100,14|2,0:0|0:0,0:0:0:0:
494,225,23168,1,2,0:0:0:0:
215,169,23323,2,0,P|182:215|148:251,1,100,14|10,0:0|0:3,0:0:0:0:
49,190,23555,1,10,0:3:0:0:
75,169,23632,1,6,0:3:0:0:
100,144,23710,1,6,0:3:0:0:
120,120,23787,1,6,0:3:0:0:
140,98,23864,1,6,0:3:0:0:
158,72,23942,37,14,0:0:0:0:
265,248,24096,1,2,0:0:0:0:
439,150,24251,1,0,0:0:0:0:
156,311,24405,5,14,0:0:0:0:
285,347,24560,1,2,0:0:0:0:
375,258,24715,1,2,0:0:0:0:
50,337,24869,37,14,0:0:0:0:
174,223,25024,1,2,0:0:0:0:
285,347,25179,1,2,0:0:0:0:
512,141,25333,2,0,P|430:107|351:85,1,150,14|0,0:0|0:0,0:0:0:0:
353,96,25643,1,2,0:0:0:0:
81,186,25797,2,0,P|147:214|212:232,1,100,14|0,0:0|0:0,0:0:0:0:
465,333,26106,2,0,P|417:316|371:296,1,100,14|0,0:0|0:0,0:0:0:0:
50,337,26416,5,14,0:0:0:0:
248,221,26570,1,2,0:0:0:0:
248,221,26648,1,0,0:0:0:0:
248,221,26725,1,2,0:0:0:0:
0,104,26880,1,14,0:0:0:0:
70,202,27034,2,0,P|120:183|181:167,1,100,0|2,0:0|0:0,0:0:0:0:
508,127,27344,1,14,0:0:0:0:
469,226,27498,2,0,P|419:245|358:261,1,100,2|2,0:0|0:0,0:0:0:0:
220,12,27808,37,14,0:0:0:0:
291,63,27962,2,0,P|316:110|314:168,1,100,0|2,0:0|0:0,0:0:0:0:
161,345,28271,1,14,0:0:0:0:
174,97,28426,1,10,0:3:0:0:
186,102,28503,1,10,0:3:0:0:
198,113,28581,1,6,0:3:0:0:
204,125,28658,1,6,0:3:0:0:
206,139,28735,1,6,0:3:0:0:
442,318,28890,6,0,P|444:268|468:225,1,100,14|2,0:0|0:0,0:0:0:0:
418,154,29122,1,0,0:0:0:0:
418,154,29199,1,0,0:0:0:0:
254,376,29354,2,0,P|233:303|202:217,1,150,14|0,0:0|0:0,0:0:0:0:
199,226,29663,1,2,0:0:0:0:
325,38,29818,1,14,0:0:0:0:
217,82,29972,1,2,0:0:0:0:
101,37,30127,37,2,0:0:0:0:
326,194,30282,2,0,P|390:163|434:148,1,100,14|0,0:0|0:0,0:0:0:0:
510,112,30591,1,2,0:0:0:0:
155,368,30746,2,0,P|108:349|63:327,1,100,14|0,0:0|0:0,0:0:0:0:
418,71,31055,2,0,P|464:89|509:111,1,100,14|0,0:0|0:0,0:0:0:0:
85,133,31364,22,0,B|74:79|74:79|102:32,1,104.999996795654,4|2,0:0|3:2,0:0:0:0:
289,255,32911,1,2,0:0:0:0:
195,228,33065,1,0,0:0:0:0:
195,228,33143,1,0,0:0:0:0:
195,228,33220,1,8,0:0:0:0:
260,157,33375,1,2,0:0:0:0:
433,336,33838,5,0,3:0:0:0:
433,336,33993,2,0,P|454:270|469:196,1,129.999994049073,2|2,0:0|0:0,0:0:0:0:
212,308,34457,1,8,0:0:0:0:
212,308,34921,2,0,B|153:295|153:295|71:323|71:323|22:313,1,194.999991073609,2|2,0:0|0:0,0:0:0:0:
24,313,35694,1,8,0:0:0:0:
277,45,36313,37,0,3:0:0:0:
339,132,36467,1,0,0:0:0:0:
339,132,36545,1,0,0:0:0:0:
339,132,36622,1,0,0:0:0:0:
380,40,36777,1,2,0:0:0:0:
301,217,36931,1,8,0:0:0:0:
492,355,37241,5,2,0:0:0:0:
492,355,37395,1,0,3:0:0:0:
226,261,37704,2,0,L|204:122,1,129.999994049073,0|0,3:0|0:0,0:0:0:0:
205,132,38091,1,0,0:0:0:0:
205,132,38168,1,8,0:0:0:0:
301,217,38323,1,2,0:0:0:0:
128,362,38787,37,2,0:0:0:0:
56,291,38942,1,0,0:0:0:0:
56,291,39019,1,0,0:0:0:0:
56,291,39096,1,0,0:0:0:0:
121,211,39251,1,2,0:0:0:0:
17,67,39405,2,0,L|214:29,1,194.999991073609,8|0,0:0|3:0,0:0:0:0:
208,30,41261,6,0,P|228:85|243:137,1,100,6|2,0:0|0:0,0:0:0:0:
299,362,41570,2,0,P|281:315|267:267,1,100,10|0,0:0|0:0,0:0:0:0:
453,137,41880,1,2,0:0:0:0:
422,245,42034,1,2,0:0:0:0:
239,124,42189,2,0,P|299:90|329:76,1,100,10|2,0:0|0:0,0:0:0:0:
171,257,42498,38,0,L|69:232,1,100,2|2,0:0|0:0,0:0:0:0:
369,308,42808,1,10,0:0:0:0:
266,373,42962,1,0,0:0:0:0:
463,345,43117,1,2,0:0:0:0:
265,280,43271,1,2,0:0:0:0:
453,137,43426,2,0,P|379:172|309:214,1,150,10|0,0:0|0:0,0:0:0:0:
334,218,43735,6,0,P|274:184|244:170,1,100,6|0,0:0|0:0,0:0:0:0:
82,304,44045,2,0,P|142:270|172:256,1,100,10|0,0:0|0:0,0:0:0:0:
66,87,44354,1,2,0:0:0:0:
3,188,44509,1,2,0:0:0:0:
201,77,44663,2,0,L|298:97,1,100,10|2,0:0|0:0,0:0:0:0:
455,258,44972,38,0,P|400:291|363:310,1,100,2|0,0:0|0:0,0:0:0:0:
426,72,45282,2,0,P|468:98|512:121,1,100,10|2,0:0|0:0,0:0:0:0:
264,216,45591,1,0,0:0:0:0:
368,307,45746,1,2,0:0:0:0:
140,373,45900,2,0,L|156:261,1,100,10|2,0:0|0:0,0:0:0:0:
39,59,46210,6,0,P|15:129|67:209,1,150,6|0,0:0|0:0,0:0:0:0:
67,194,46519,2,0,P|89:147|119:100,1,100,10|0,0:0|0:0,0:0:0:0:
319,30,46828,2,0,P|292:72|271:117,1,100,2|2,0:0|0:0,0:0:0:0:
353,329,47137,1,10,0:0:0:0:
456,289,47292,2,0,P|410:232|266:265,1,200,2|2,0:0|0:0,0:0:0:0:
140,373,47756,2,0,P|113:330|92:285,1,100,10|0,0:0|0:0,0:0:0:0:
244,149,48065,2,0,P|270:191|291:236,1,100,2|2,0:0|0:0,0:0:0:0:
63,122,48375,1,10,0:0:0:0:
148,35,48529,1,2,0:0:0:0:
339,120,48684,38,0,L|208:159,1,100,2|0,0:0|0:0,0:0:0:0:
436,361,48993,2,0,L|462:196,1,150,10|0,0:0|0:0,0:0:0:0:
468,221,49302,1,2,0:0:0:0:
300,277,49457,1,2,0:0:0:0:
372,34,49612,1,10,0:0:0:0:
148,35,49766,6,0,L|243:6,1,100,6|0,0:0|0:0,0:0:0:0:
372,34,50076,1,2,0:0:0:0:
109,115,50230,2,0,L|13:143,1,100,10|2,0:0|0:0,0:0:0:0:
175,194,50462,1,10,0:0:0:0:
175,194,50539,2,0,L|270:165,1,100,2|2,0:0|0:0,0:0:0:0:
166,295,50849,1,2,0:0:0:0:
359,348,51003,1,10,0:0:0:0:
81,350,51158,38,0,P|56:316|35:269,1,75.0000028610231,2|0,0:0|0:0,0:0:0:0:
137,225,51467,2,0,P|148:260|165:294,1,75.0000028610231,0|2,0:0|0:0,0:0:0:0:
282,294,51777,2,0,P|298:260|310:224,1,75.0000028610231,10|0,0:0|0:0,0:0:0:0:
398,284,52086,2,0,P|380:317|358:347,1,75.0000028610231,2|0,0:0|0:0,0:0:0:0:
226,160,52395,6,0,L|267:84,1,75.0000028610231,2|0,0:0|0:0,0:0:0:0:
367,98,52712,2,0,L|331:164,1,75.0000028610231,2|0,0:0|0:0,0:0:0:0:
135,165,53029,2,0,L|94:89,1,75.0000028610231,10|0,0:0|0:0,0:0:0:0:
0,114,53347,2,0,L|35:180,1,75.0000028610231,2|0,0:0|0:0,0:0:0:0:
84,259,53664,37,2,0:0:0:0:
226,160,54193,1,0,0:0:0:0:
226,160,54369,2,0,P|209:94|159:68,2,110.000003356934,10|2|2,0:0|0:0|0:0,0:0:0:0:
177,238,55428,1,2,0:0:0:0:
436,330,55693,1,2,0:0:0:0:
436,330,55781,1,2,0:0:0:0:
436,330,55869,6,0,L|409:172,1,157.499995193482,10|0,0:0|0:0,0:0:0:0:
435,88,56678,38,0,P|368:72|322:66,1,100,6|0,0:0|0:0,0:0:0:0:
100,177,56987,1,10,0:0:0:0:
200,218,57141,2,0,L|185:114,1,100,0|2,0:0|0:0,0:0:0:0:
170,28,57451,1,2,0:0:0:0:
298,186,57605,1,10,0:0:0:0:
64,322,57760,2,0,P|75:259|103:168,1,150,2|0,0:0|0:0,0:0:0:0:
110,187,58069,5,2,0:0:0:0:
265,346,58224,2,0,L|381:326,1,100,10|0,0:0|0:0,0:0:0:0:
467,312,58533,1,2,0:0:0:0:
298,186,58688,1,10,0:0:0:0:
458,61,58842,1,10,0:0:0:0:
286,197,58997,1,10,0:0:0:0:
494,161,59152,37,6,0:0:0:0:
458,61,59306,1,4,0:3:0:0:
351,41,59461,1,2,0:0:0:0:
139,225,59616,2,0,L|299:196,1,150,10|0,0:0|0:0,0:0:0:0:
298,203,59925,1,2,0:0:0:0:
56,131,60080,1,10,0:0:0:0:
248,55,60234,1,2,0:0:0:0:
248,55,61626,22,0,L|122:35,1,119.999996337891,14|2,0:0|0:0,0:0:0:0:
23,85,61935,1,2,0:0:0:0:
298,203,62090,2,0,P|359:174|405:133,1,119.999996337891,14|0,0:0|0:0,0:0:0:0:
435,50,62399,1,0,0:0:0:0:
505,373,62554,2,0,P|458:334|404:310,1,119.999996337891,14|2,0:0|0:0,0:0:0:0:
310,297,62863,5,2,0:0:0:0:
38,372,63018,2,0,P|92:332|75:217,1,179.999994506836,14|0,0:0|0:0,0:0:0:0:
70,229,63327,1,0,0:0:0:0:
258,21,63482,2,0,P|240:76|277:149,1,119.999996337891,14|10,0:0|0:3,0:0:0:0:
468,101,63714,1,10,0:3:0:0:
445,65,63791,1,6,0:3:0:0:
407,46,63868,1,6,0:3:0:0:
364,50,63946,1,6,0:3:0:0:
330,75,64023,1,6,0:3:0:0:
391,137,64100,38,0,P|413:196|429:264,1,119.999996337891,14|2,0:0|0:0,0:0:0:0:
434,346,64409,1,2,0:0:0:0:
144,166,64564,2,0,L|271:129,1,119.999996337891,14|2,0:0|0:0,0:0:0:0:
156,64,64873,1,2,0:0:0:0:
10,286,65028,2,0,L|125:319,1,119.999996337891,14|2,0:0|0:0,0:0:0:0:
341,250,65337,5,2,0:0:0:0:
64,110,65492,2,0,P|19:62|-1:11,1,119.999996337891,12|2,0:0|0:0,0:0:0:0:
156,64,65801,1,2,0:0:0:0:
451,16,65956,2,0,L|325:36,1,119.999996337891,14|0,0:0|0:0,0:0:0:0:
222,268,66265,2,0,L|340:249,1,119.999996337891,14|0,0:0|0:0,0:0:0:0:
64,110,66574,37,14,0:0:0:0:
302,166,66729,1,2,3:2:0:0:
341,158,66806,1,2,3:2:0:0:
382,152,66884,1,2,3:2:0:0:
121,202,67038,2,0,L|2:220,1,119.999996337891,14|0,0:0|0:0,0:0:0:0:
75,303,67348,1,2,0:0:0:0:
258,83,67502,2,0,P|214:28|135:17,1,119.999996337891,14|0,0:0|0:0,0:0:0:0:
167,109,67812,5,2,0:0:0:0:
382,246,67966,2,0,P|437:225|471:177,1,119.999996337891,14|2,0:0|0:0,0:0:0:0:
382,152,68275,1,0,0:0:0:0:
168,315,68430,2,0,L|286:333,1,119.999996337891,14|10,0:0|0:3,0:0:0:0:
221,187,68662,1,10,0:3:0:0:
170,194,68739,1,6,0:3:0:0:
121,202,68817,1,6,0:3:0:0:
72,210,68894,1,6,0:3:0:0:
22,217,68971,1,6,0:3:0:0:
87,122,69049,38,0,P|116:74|109:1,1,119.999996337891,14|2,0:0|0:0,0:0:0:0:
233,54,69281,1,2,0:0:0:0:
247,61,69358,1,2,0:0:0:0:
263,63,69435,1,2,0:0:0:0:
284,63,69513,2,0,P|280:122|310:173,1,119.999996337891,14|0,0:0|0:0,0:0:0:0:
395,221,69822,1,2,0:0:0:0:
52,328,69976,2,0,L|72:209,1,119.999996337891,14|0,0:0|0:0,0:0:0:0:
87,122,70286,5,2,0:0:0:0:
336,351,70440,2,0,L|309:164,1,179.999994506836,14|0,0:0|0:0,0:0:0:0:
301,182,70750,1,10,0:3:0:0:
454,48,70904,1,6,0:3:0:0:
454,48,70982,1,6,0:3:0:0:
454,48,71059,2,0,L|443:115,1,59.9999981689454,6|6,0:3|0:3,0:0:0:0:
245,335,71214,6,0,L|229:241,1,89.9999972534181,14|0,0:0|0:0,0:0:0:0:
229,246,71987,22,0,P|145:213|92:208,1,119.999996337891,14|0,0:0|0:0,0:0:0:0:
381,150,72296,1,0,0:0:0:0:
129,76,72451,2,0,P|70:87|16:113,1,119.999996337891,14|2,0:0|0:0,0:0:0:0:
113,306,72760,1,2,0:0:0:0:
285,117,72915,2,0,L|260:-4,1,119.999996337891,14|0,0:0|0:0,0:0:0:0:
129,76,73224,1,0,0:0:0:0:
443,324,73379,6,0,P|472:246|474:170,1,119.999996337891,14|10,0:0|0:3,0:0:0:0:
381,150,73610,1,10,0:3:0:0:
377,191,73688,1,6,0:3:0:0:
365,231,73765,1,6,0:3:0:0:
351,269,73842,1,6,0:3:0:0:
333,307,73920,1,6,0:3:0:0:
309,341,73997,37,14,0:0:0:0:
71,233,74152,1,2,0:0:0:0:
285,117,74306,1,2,0:0:0:0:
0,272,74461,5,14,0:0:0:0:
61,124,74616,1,2,0:0:0:0:
216,163,74770,1,2,0:0:0:0:
16,30,74925,37,14,0:0:0:0:
146,198,75080,1,2,0:0:0:0:
273,27,75234,1,2,0:0:0:0:
495,210,75389,2,0,L|370:189,1,119.999996337891,14|0,0:0|0:0,0:0:0:0:
285,117,75698,1,2,0:0:0:0:
69,316,75853,2,0,L|194:295,1,119.999996337891,14|0,0:0|0:0,0:0:0:0:
463,34,76162,2,0,L|344:53,1,119.999996337891,14|0,0:0|0:0,0:0:0:0:
471,326,76471,5,14,0:0:0:0:
377,373,76626,2,0,P|365:303|391:254,1,119.999996337891,2|0,0:0|0:0,0:0:0:0:
113,108,76935,1,14,0:0:0:0:
179,183,77090,2,0,P|200:237|187:295,1,119.999996337891,2|0,0:0|0:0,0:0:0:0:
31,47,77399,2,0,P|98:29|181:22,1,119.999996337891,14|2,0:0|0:0,0:0:0:0:
235,31,77708,1,2,0:0:0:0:
187,295,77863,2,0,P|127:302|69:319,1,119.999996337891,14|0,0:0|0:0,0:0:0:0:
0,366,78172,1,2,0:0:0:0:
307,150,78327,38,0,P|364:166|424:174,1,119.999996337891,14|10,0:0|0:3,0:0:0:0:
249,231,78559,1,10,0:3:0:0:
210,213,78636,1,6,0:3:0:0:
168,203,78714,1,6,0:3:0:0:
126,200,78791,1,6,0:3:0:0:
84,206,78868,1,6,0:3:0:0:
43,219,78946,5,14,0:0:0:0:
244,38,79100,1,2,0:0:0:0:
244,38,79178,1,2,0:0:0:0:
244,38,79255,1,2,0:0:0:0:
395,291,79409,2,0,L|518:266,1,119.999996337891,14|0,0:0|0:0,0:0:0:0:
424,174,79719,1,2,0:0:0:0:
170,327,79873,2,0,L|47:302,1,119.999996337891,14|2,0:0|0:0,0:0:0:0:
244,38,80183,37,8,0:0:0:0:
236,78,80260,1,8,0:0:0:0:
243,119,80337,1,8,0:0:0:0:
266,154,80415,1,8,0:0:0:0:
267,195,80492,1,8,0:3:0:0:
280,228,80569,1,8,0:3:0:0:
285,263,80647,1,8,0:3:0:0:
275,297,80724,1,8,0:3:0:0:
252,337,80801,5,8,0:0:0:0:
252,337,80879,1,8,0:0:0:0:
252,337,80956,2,0,L|193:325,1,59.9999981689454,0|0,0:0|0:0,0:0:0:0:
360,198,81110,1,4,0:3:0:0:
360,198,81188,1,4,0:3:0:0:
360,198,81265,2,0,L|455:217,1,59.9999981689454,4|4,0:3|0:3,0:0:0:0:
244,38,81420,6,0,P|177:45|112:65,1,134.999995880127,4|2,0:0|0:0,0:0:0:0:
62,145,82038,2,0,P|80:183|93:232,1,75.0000028610231,10|2,0:0|0:0,0:0:0:0:
68,363,82348,2,0,P|84:329|95:293,1,75.0000028610231,0|0,0:0|0:0,0:0:0:0:
167,245,82657,2,0,L|251:230,1,75.0000028610231,6|0,0:0|0:0,0:0:0:0:
290,307,82966,2,0,L|216:320,1,75.0000028610231,2|2,0:0|0:0,0:0:0:0:
470,275,83275,1,10,0:0:0:0:
407,211,83430,2,0,P|398:167|410:131,1,75.0000028610231,2|0,0:0|0:0,0:0:0:0:
459,69,83739,1,2,0:0:0:0:
282,27,83894,6,0,L|296:116,1,75.0000028610231,6|0,0:0|0:0,0:0:0:0:
212,136,84203,2,0,L|200:61,1,75.0000028610231,0|2,0:0|0:0,0:0:0:0:
110,33,84513,2,0,P|73:63|49:91,1,75.0000028610231,10|2,0:0|0:0,0:0:0:0:
63,200,84822,2,0,P|100:170|124:142,1,75.0000028610231,0|0,0:0|0:0,0:0:0:0:
155,257,85131,2,0,P|129:284|99:307,1,75.0000028610231,6|0,0:0|0:0,0:0:0:0:
27,354,85440,1,0,0:0:0:0:
27,354,85595,1,2,0:0:0:0:
251,287,85750,38,0,P|280:309|306:337,1,75.0000028610231,10|2,0:0|0:0,0:0:0:0:
415,152,86059,1,6,0:3:0:0:
394,160,86136,1,6,0:3:0:0:
372,167,86214,1,6,0:3:0:0:
350,172,86291,1,6,0:3:0:0:
328,176,86368,22,0,P|267:186|201:181,1,119.999996337891,14|6,0:0|0:3,0:0:0:0:
104,147,86600,1,8,0:0:0:0:
104,147,86678,2,0,L|96:87,1,59.9999981689454,8|0,0:0|0:0,0:0:0:0:
207,20,86832,1,8,0:3:0:0:
207,20,86909,1,8,0:3:0:0:
207,20,86987,2,0,L|214:79,1,59.9999981689454,8|8,0:3|0:3,0:0:0:0:
20,207,87141,2,0,L|12:147,1,59.9999981689454,8|8,0:3|0:3,0:0:0:0:
209,182,87296,2,0,L|216:241,1,59.9999981689454,8|8,0:3|0:3,0:0:0:0:
8,372,87451,2,0,L|0:312,1,59.9999981689454,8|8,0:3|0:3,0:0:0:0:
235,369,87605,5,12,0:0:0:0:
118,303,87760,1,0,0:0:0:0:
360,268,87915,1,6,0:3:0:0:
360,268,87992,1,6,0:3:0:0:
360,268,88069,1,8,0:0:0:0:
209,182,88224,1,6,0:3:0:0:
446,35,88379,1,6,0:3:0:0:
462,79,88456,1,6,0:3:0:0:
478,123,88533,1,6,0:3:0:0:
496,166,88610,1,6,0:3:0:0:
415,175,88688,37,6,0:3:0:0:
401,141,88765,1,6,0:3:0:0:
387,107,88842,1,6,0:3:0:0:
374,72,88920,1,6,0:3:0:0:
315,164,88997,5,12,0:0:0:0:
