osu file format v14

[General]
AudioFilename: soraru - gin no kisei (TV Size).mp3
AudioLeadIn: 0
PreviewTime: 61626
Countdown: 0
SampleSet: Soft
StackLeniency: 0.3
Mode: 0
LetterboxInBreaks: 0
WidescreenStoryboard: 1

[Editor]
DistanceSpacing: 1.6
BeatDivisor: 4
GridSize: 32
TimelineZoom: 1.3

[Metadata]
Title:Gin no Kisei (TV Size)
TitleUnicode:銀の祈誓 (TV Size)
Artist:soraru
ArtistUnicode:そらる
Creator:Daisuke
Version:Misery
Source:ゴブリンスレイヤー
Tags:zhu donjuan grindle walaowey matsubara kanon habiholic starset hb24 orcbolg beardcutter Goblin Slayer ED Ending Ohnishi Shogo from agehasprings Harumaki Gohan silver oath 大西省吾 はるまきごはん anime japanese
BeatmapID:1862002
BeatmapSetID:882398

[Difficulty]
HPDrainRate:5
CircleSize:4
OverallDifficulty:8
ApproachRate:9.5
SliderMultiplier:2
SliderTickRate:1

[Events]
//Background and Video events
0,0,"soraru - gin no kisei (TV Size).jpg",0,0
//Break Periods
//Storyboard Layer 0 (Background)
//Storyboard Layer 1 (Fail)
//Storyboard Layer 2 (Pass)
//Storyboard Layer 3 (Foreground)
//Storyboard Layer 4 (Overlay)
//Storyboard Sound Samples

[TimingPoints]
1674,309.278350515464,4,2,1,30,1,0
11570,-133.333333333333,4,2,1,35,0,0
15127,-1000,4,2,1,35,0,0
15285,-133.333333333333,4,2,1,35,0,0
15439,-133.333333333333,4,2,1,35,0,0
15594,-133.333333333333,4,2,1,35,0,0
15749,-133.333333333333,4,2,1,35,0,0
15903,-133.333333333333,4,2,1,35,0,0
16058,-133.333333333333,4,2,1,35,0,0
16213,-133.333333333333,4,2,1,35,0,0
16367,-133.333333333333,4,2,1,35,0,0
16522,-133.333333333333,4,2,1,35,0,0
20076,-1000,4,2,1,35,0,0
20233,-133.333333333333,4,2,1,35,0,0
20388,-133.333333333333,4,2,1,35,0,0
20542,-133.333333333333,4,2,1,35,0,0
20697,-133.333333333333,4,2,1,35,0,0
20852,-133.333333333333,4,2,1,35,0,0
21006,-133.333333333333,4,2,1,35,0,0
21467,-100,4,2,1,60,0,1
31364,-133.333333333333,4,2,1,50,0,0
41184,-133.333333333333,4,2,1,5,0,0
41261,-117.647058823529,4,2,1,55,0,0
51158,-117.647058823529,4,2,1,35,0,0
52395,317.460317460317,4,2,1,50,1,0
52395,-117.647058823529,4,2,1,50,0,0
53664,352.941176470588,4,2,1,50,1,0
53664,-117.647058823529,4,2,1,50,0,0
55428,530.973451327434,4,2,1,50,1,0
55693,352.941176470588,4,2,1,50,1,0
55869,404.721753794266,4,2,1,50,1,0
56678,309.278350515464,4,2,1,55,1,0
56678,-117.647058823529,4,2,1,55,0,0
61320,-100,4,2,1,55,0,0
61626,-83.3333333333333,4,2,1,60,0,1
71523,-83.3333333333333,4,2,1,55,0,0
71832,-83.3333333333333,4,2,1,60,0,1
81420,-100,4,2,1,55,0,0
86368,-100,4,2,1,60,0,1
88997,-100,4,2,1,50,0,0

[Colours]
Combo1 : 0,149,74
Combo2 : 223,223,223
Combo3 : 159,159,159
Combo4 : 149,0,0
Combo5 : 255,255,128
Combo6 : 0,106,106

[HitObjects]
164,69,11570,69,2,0:0:0:0:
104,298,11725,1,0,0:0:0:0:
104,298,12034,1,2,0:0:0:0:
209,306,13271,6,0,L|246:309,1,37.5000014305115,0|0,0:0|0:0,0:0:0:0:
104,298,13426,1,8,0:0:0:0:
358,320,13581,2,0,P|379:251|341:187,1,150.000005722046,4|0,0:3|0:0,0:0:0:0:
230,53,14045,69,2,0:0:0:0:
457,138,14199,1,0,0:0:0:0:
457,138,14509,1,2,0:0:0:0:
300,262,15127,6,0,L|297:268,17,5
300,262,16519,69,2,0:0:0:0:
154,65,16674,1,0,0:0:0:0:
154,65,16983,1,2,0:0:0:0:
154,65,18220,6,0,L|164:101,1,37.5000014305115,0|0,0:0|0:0,0:0:0:0:
212,259,18375,2,0,P|262:236|315:250,2,112.500004291535,8|8|8,0:0|0:0|0:0,0:0:0:0:
138,350,18993,69,2,0:0:0:0:
403,325,19148,1,0,0:0:0:0:
403,325,19457,1,2,0:0:0:0:
350,104,20076,6,0,L|347:97,13,5
432,131,21467,37,14,0:0:0:0:
326,359,21622,1,2,0:0:0:0:
440,114,21777,1,0,0:0:0:0:
287,216,21931,6,0,P|245:203|205:164,1,100,14|2,0:0|0:0,0:0:0:0:
473,223,22241,1,2,0:0:0:0:
297,105,22395,69,14,0:0:0:0:
485,231,22550,1,2,0:0:0:0:
364,45,22704,1,0,0:0:0:0:
375,277,22859,5,14,0:0:0:0:
363,19,23014,1,2,0:0:0:0:
375,305,23168,2,0,P|334:331|286:324,1,100,2|14,0:0|0:0,0:0:0:0:
64,179,23478,69,10,0:3:0:0:
64,179,23555,1,10,0:3:0:0:
64,179,23632,2,0,L|112:167,1,50,6|6,0:3|0:3,0:0:0:0:
296,229,23787,2,0,L|246:240,1,50,6|6,0:3|0:3,0:0:0:0:
87,378,23942,6,0,P|68:332|79:284,1,100,14|2,0:0|0:0,0:0:0:0:
221,152,24251,1,0,0:0:0:0:
158,328,24405,69,14,0:0:0:0:
64,179,24560,1,2,0:0:0:0:
278,268,24715,1,2,0:0:0:0:
49,172,24869,5,14,0:0:0:0:
288,356,25024,1,2,0:0:0:0:
159,163,25179,1,2,0:0:0:0:
381,264,25333,69,14,0:0:0:0:
113,239,25488,1,0,0:0:0:0:
373,346,25643,1,2,0:0:0:0:
328,63,25797,6,0,L|341:162,1,100,14|0,0:0|0:0,0:0:0:0:
210,355,26106,2,0,L|196:255,1,100,14|0,0:0|0:0,0:0:0:0:
175,21,26416,69,14,0:0:0:0:
113,239,26570,1,2,0:0:0:0:
113,239,26648,1,10,0:3:0:0:
113,239,26725,1,10,0:3:0:0:
80,43,26880,5,14,0:0:0:0:
248,86,27034,1,0,0:0:0:0:
45,159,27189,1,2,0:0:0:0:
266,78,27344,69,14,0:0:0:0:
23,170,27498,2,0,P|5:211|8:270,1,100,2|2,0:0|0:0,0:0:0:0:
214,186,27808,5,14,0:0:0:0:
46,342,27962,2,0,B|148:328,1,100,0|2,0:0|0:0,0:0:0:0:
316,247,28271,69,14,0:0:0:0:
92,254,28426,2,0,B|141:247,1,50,10|10,0:3|0:3,0:0:0:0:
380,225,28581,2,0,B|330:231,1,50,6|6,0:3|0:3,0:0:0:0:
107,239,28735,2,0,B|156:232,1,50,6|6,0:3|0:3,0:0:0:0:
373,333,28890,6,0,P|338:362|285:361,1,100,14|2,0:0|0:0,0:0:0:0:
214,186,29199,1,0,0:0:0:0:
451,258,29354,70,0,P|472:291|474:359,1,100,14|2,0:0|0:0,0:0:0:0:
300,139,29663,1,2,0:0:0:0:
218,278,29818,5,14,0:0:0:0:
405,142,29973,1,2,0:0:0:0:
202,288,30127,1,2,0:0:0:0:
421,147,30282,69,14,0:0:0:0:
179,81,30437,1,0,0:0:0:0:
437,157,30591,1,2,0:0:0:0:
66,195,30746,6,0,L|165:207,1,99.4500003793716,14|0,0:0|0:0,0:0:0:0:
386,125,31055,2,0,L|287:113,1,100,14|0,0:0|0:0,0:0:0:0:
284,277,31365,37,4,0:0:0:0:
96,230,32447,53,2,3:2:0:0:
432,255,32911,1,2,0:0:0:0:
320,251,33065,1,0,0:0:0:0:
320,251,33143,1,0,0:0:0:0:
320,251,33220,1,8,0:0:0:0:
372,350,33375,1,2,0:0:0:0:
412,15,33838,5,0,3:0:0:0:
436,124,33993,2,0,P|454:120|469:109,2,37.5000014305115,2|0|0,0:0|0:0|0:0,0:0:0:0:
331,83,34302,1,2,0:0:0:0:
349,194,34457,1,8,0:0:0:0:
349,194,34921,69,2,0:0:0:0:
47,94,35385,2,0,B|109:67|109:67|191:97,1,150.000005722046,2|8,0:0|0:0,0:0:0:0:
186,95,36313,5,0,3:0:0:0:
230,197,36467,1,0,0:0:0:0:
230,197,36545,1,0,0:0:0:0:
230,197,36622,1,0,0:0:0:0:
299,107,36777,1,2,0:0:0:0:
344,209,36931,1,8,0:0:0:0:
140,305,37241,69,2,0:0:0:0:
101,199,37395,1,0,3:0:0:0:
283,330,37704,1,0,3:0:0:0:
204,118,38014,2,0,L|191:81,2,37.5000014305115,0|0|8,0:0|0:0|0:0,0:0:0:0:
244,223,38323,1,2,0:0:0:0:
244,223,38787,5,2,0:0:0:0:
146,279,38942,1,0,0:0:0:0:
146,279,39019,1,0,0:0:0:0:
146,279,39096,1,0,0:0:0:0:
160,167,39251,1,2,0:0:0:0:
55,209,39405,2,0,P|52:136|92:74,1,150.000005722046,8|0,0:0|0:0,0:0:0:0:
205,69,39869,1,0,3:0:0:0:
256,192,39947,12,0,41184,0:0:0:0:
85,162,41261,54,0,L|1:148,1,85.0000016212464,6|2,0:0|0:0,0:0:0:0:
60,309,41570,2,0,L|143:322,1,85.0000016212464,10|0,0:0|0:0,0:0:0:0:
30,229,41880,1,2,0:0:0:0:
141,96,42034,1,2,0:0:0:0:
255,191,42189,2,0,L|171:177,1,85.0000016212464,10|2,0:0|0:0,0:0:0:0:
56,80,42498,6,0,P|73:42|106:16,1,85.0000016212464,2|2,0:0|0:0,0:0:0:0:
85,162,42808,1,10,0:0:0:0:
197,30,42962,1,0,0:0:0:0:
311,125,43117,2,0,L|394:138,1,85.0000016212464,2|2,0:0|0:0,0:0:0:0:
200,258,43426,2,0,L|117:245,1,85.0000016212464,10|0,0:0|0:0,0:0:0:0:
340,206,43735,70,0,P|364:239|370:281,1,85.0000016212464,6|0,0:0|0:0,0:0:0:0:
170,177,44045,2,0,P|145:143|139:101,1,85.0000016212464,10|0,0:0|0:0,0:0:0:0:
285,273,44354,1,2,0:0:0:0:
226,111,44509,1,2,0:0:0:0:
200,258,44663,2,0,L|117:245,1,85.0000016212464,10|2,0:0|0:0,0:0:0:0:
315,353,44972,6,0,L|398:366,1,85.0000016212464,2|0,0:0|0:0,0:0:0:0:
510,235,45282,2,0,L|427:222,1,85.0000016212464,10|2,0:0|0:0,0:0:0:0:
200,258,45591,1,0,0:0:0:0:
311,125,45746,1,2,0:0:0:0:
285,273,45900,2,0,L|368:286,1,85.0000016212464,10|2,0:0|0:0,0:0:0:0:
226,111,46210,70,0,L|142:97,1,85,6|0,0:0|0:0,0:0:0:0:
145,324,46519,2,0,P|120:290|114:248,1,85.0000016212464,10|0,0:0|0:0,0:0:0:0:
255,191,46828,1,2,0:0:0:0:
315,353,46983,2,0,L|231:339,1,85,2|10,0:0|0:0,0:0:0:0:
425,220,47292,2,0,L|509:234,1,85,2|0,0:0|0:0,0:0:0:0:
400,368,47601,5,2,0:0:0:0:
340,206,47756,2,0,L|256:192,1,85,10|0,0:0|0:0,0:0:0:0:
455,302,48065,1,2,0:0:0:0:
396,140,48220,1,2,0:0:0:0:
370,287,48375,2,0,L|286:273,1,85,10|2,0:0|0:0,0:0:0:0:
311,125,48684,69,2,0:0:0:0:
425,220,48838,1,0,0:0:0:0:
255,191,48993,2,0,L|171:177,1,85,10|0,0:0|0:0,0:0:0:0:
367,59,49302,1,2,0:0:0:0:
370,287,49457,1,2,0:0:0:0:
393,136,49612,1,10,0:0:0:0:
455,302,49766,2,0,P|438:340|404:366,1,85.0000016212464,6|0,0:0|0:0,0:0:0:0:
311,125,50076,5,2,0:0:0:0:
285,273,50230,1,10,0:0:0:0:
425,220,50385,1,2,0:0:0:0:
425,220,50462,1,10,0:0:0:0:
425,220,50539,1,2,0:0:0:0:
255,191,50694,1,2,0:0:0:0:
315,353,50849,1,2,0:0:0:0:
396,140,51003,1,10,0:0:0:0:
198,256,51158,22,0,L|30:228,1,170.000003242493,2|0,0:0|0:0,0:0:0:0:
141,94,51622,1,2,0:0:0:0:
256,191,51777,2,0,L|339:204,1,85.0000016212464,10|0,0:0|0:0,0:0:0:0:
453,300,52086,2,0,L|369:286,1,85.0000016212464,2|0,0:0|0:0,0:0:0:0:
393,143,52395,54,0,P|417:177|423:218,1,85.0000016212464,2|0,0:0|0:0,0:0:0:0:
320,353,52712,2,0,P|295:318|290:278,1,85.0000016212464,2|0,0:0|0:0,0:0:0:0:
309,119,53029,2,0,L|226:106,1,85.0000016212464,10|0,0:0|0:0,0:0:0:0:
339,204,53347,2,0,L|422:217,1,85.0000016212464,2|0,0:0|0:0,0:0:0:0:
256,189,53664,22,0,B|122:166|122:166|163:151,1,170.000003242493,2|2,0:0|0:0,0:0:0:0:
311,124,54193,1,2,0:0:0:0:
311,124,54369,2,0,L|394:137,1,85.0000016212464,10|0,0:0|0:0,0:0:0:0:
285,272,54722,2,0,L|189:256,1,85.0000016212464,2|0,0:0|0:0,0:0:0:0:
256,191,55075,1,2,0:0:0:0:
366,58,55428,1,2,0:0:0:0:
425,221,55693,1,2,0:0:0:0:
425,221,55781,1,2,0:0:0:0:
425,221,55869,1,10,0:0:0:0:
115,243,56678,38,0,L|215:261,1,85.0000016212464,6|0,0:0|0:0,0:0:0:0:
340,206,56987,2,0,L|246:188,1,85.0000016212464,10|0,0:0|0:0,0:0:0:0:
86,161,57296,1,2,0:0:0:0:
197,29,57451,1,2,0:0:0:0:
198,258,57605,1,10,0:0:0:0:
55,80,57760,2,0,P|22:105|4:143,1,85.0000016212464,2|0,0:0|0:0,0:0:0:0:
60,309,58069,5,2,0:0:0:0:
198,258,58224,2,0,L|281:273,1,85.0000016212464,10|0,0:0|0:0,0:0:0:0:
455,302,58533,1,2,0:0:0:0:
340,206,58688,1,10,0:0:0:0:
315,353,58842,1,10,0:0:0:0:
425,221,58997,1,10,0:0:0:0:
311,125,59152,69,6,0:0:0:0:
370,287,59306,1,4,0:3:0:0:
370,287,59384,1,2,0:0:0:0:
370,287,59461,1,2,0:0:0:0:
396,140,59616,2,0,L|479:155,1,85.0000016212464,10|0,0:0|0:0,0:0:0:0:
285,273,59925,1,2,0:0:0:0:
366,58,60080,1,10,0:0:0:0:
256,190,60234,1,2,0:0:0:0:
363,265,61626,69,14,0:0:0:0:
129,298,61781,1,2,0:0:0:0:
345,124,61935,1,2,0:0:0:0:
447,325,62090,2,0,P|302:349|257:280,1,239.999992675781,14|0,0:0|0:0,0:0:0:0:
248,39,62554,5,14,0:0:0:0:
363,265,62708,1,2,0:0:0:0:
97,209,62863,1,2,0:0:0:0:
461,139,63018,2,0,B|398:170|398:170|233:126,1,239.999992675781,14|0,0:0|0:0,0:0:0:0:
44,78,63482,1,14,0:0:0:0:
227,60,63636,69,10,0:3:0:0:
233,93,63714,1,10,0:3:0:0:
233,126,63791,1,6,0:3:0:0:
225,158,63868,1,6,0:3:0:0:
209,188,63946,1,6,0:3:0:0:
188,213,64023,1,6,0:3:0:0:
161,234,64100,5,14,0:0:0:0:
374,177,64255,1,2,0:0:0:0:
121,333,64409,1,2,0:0:0:0:
409,289,64564,69,14,0:0:0:0:
218,114,64719,1,2,0:0:0:0:
471,208,64873,1,2,0:0:0:0:
288,339,65028,5,14,0:0:0:0:
297,6,65183,2,0,L|306:125,1,119.999996337891,2|2,0:0|0:0,0:0:0:0:
196,317,65492,69,12,0:0:0:0:
180,68,65647,1,2,0:0:0:0:
197,344,65801,1,2,0:0:0:0:
471,208,65956,6,0,P|484:141|461:88,1,119.999996337891,14|0,0:0|0:0,0:0:0:0:
302,254,66265,2,0,L|311:373,1,119.999996337891,14|0,0:0|0:0,0:0:0:0:
478,307,66574,69,14,0:0:0:0:
186,264,66729,1,2,3:2:0:0:
184,234,66806,1,2,3:2:0:0:
193,205,66884,1,2,3:2:0:0:
441,109,67038,6,0,P|464:163|459:222,1,119.999996337891,14|0,0:0|0:0,0:0:0:0:
219,364,67348,1,2,0:0:0:0:
264,128,67502,70,0,L|146:111,1,119.999996337891,14|0,0:0|0:0,0:0:0:0:
422,303,67812,1,2,0:0:0:0:
193,205,67966,6,0,L|75:188,1,119.999996337891,14|2,0:0|0:0,0:0:0:0:
349,172,68275,1,0,0:0:0:0:
125,295,68430,69,14,0:0:0:0:
37,121,68585,1,10,0:3:0:0:
72,114,68662,1,10,0:3:0:0:
110,115,68739,1,6,0:3:0:0:
146,124,68817,1,6,0:3:0:0:
181,134,68894,1,6,0:3:0:0:
218,133,68971,1,6,0:3:0:0:
254,122,69049,5,14,0:0:0:0:
391,294,69203,1,2,0:0:0:0:
418,280,69281,1,2,0:0:0:0:
438,259,69358,1,2,0:0:0:0:
306,22,69513,70,0,P|241:15|192:39,1,119.999996337891,14|0,0:0|0:0,0:0:0:0:
472,105,69822,1,2,0:0:0:0:
243,236,69976,6,0,B|233:167|233:167|254:122,1,119.999996337891,14|0,0:0|0:0,0:0:0:0:
354,355,70286,1,2,0:0:0:0:
117,124,70440,70,0,L|88:241,1,119.999996337891,14|0,0:0|0:0,0:0:0:0:
243,236,70750,1,10,0:3:0:0:
277,256,70827,1,10,0:3:0:0:
315,267,70904,1,6,0:3:0:0:
355,269,70982,1,6,0:3:0:0:
394,260,71059,1,6,0:3:0:0:
430,242,71136,1,6,0:3:0:0:
460,216,71214,5,14,0:0:0:0:
20,256,71987,70,0,P|127:208|242:235,1,239.999992675781,14|0,0:0|0:0,0:0:0:0:
414,352,72451,5,14,0:0:0:0:
156,166,72605,1,2,0:0:0:0:
397,56,72760,1,2,0:0:0:0:
282,333,72915,2,0,L|266:93,1,239.999992675781,14|0,0:0|0:0,0:0:0:0:
71,203,73379,69,14,0:0:0:0:
197,341,73533,1,10,0:3:0:0:
237,332,73610,1,10,0:3:0:0:
282,333,73688,1,6,0:3:0:0:
324,344,73765,1,6,0:3:0:0:
365,356,73842,1,6,0:3:0:0:
408,355,73920,1,6,0:3:0:0:
450,342,73997,5,14,0:0:0:0:
221,95,74152,1,2,0:0:0:0:
430,245,74306,1,2,0:0:0:0:
208,213,74461,69,14,0:0:0:0:
507,127,74616,1,2,0:0:0:0:
193,218,74770,1,2,0:0:0:0:
417,31,74925,5,14,0:0:0:0:
376,323,75080,1,2,0:0:0:0:
418,15,75234,1,2,0:0:0:0:
374,338,75389,70,0,B|306:350|306:350|243:326,1,119.999996337891,14|0,0:0|0:0,0:0:0:0:
185,76,75698,1,2,0:0:0:0:
368,149,75853,6,0,P|340:201|291:235,1,119.999996337891,14|0,0:0|0:0,0:0:0:0:
63,339,76162,2,0,P|91:287|140:253,1,119.999996337891,14|0,0:0|0:0,0:0:0:0:
439,348,76471,69,14,0:0:0:0:
225,210,76626,2,0,L|211:338,1,119.999996337891,2|0,0:0|0:0,0:0:0:0:
474,233,76935,5,14,0:0:0:0:
131,139,77090,2,0,P|177:101|236:94,1,119.999996337891,2|0,0:0|0:0,0:0:0:0:
439,348,77399,69,14,0:0:0:0:
380,36,77554,2,0,L|370:155,1,119.999996337891,2|2,0:0|0:0,0:0:0:0:
259,330,77863,5,14,0:0:0:0:
45,111,78018,2,0,L|54:230,1,119.999996337891,0|2,0:0|0:0,0:0:0:0:
114,34,78327,69,14,0:0:0:0:
178,181,78482,1,10,0:3:0:0:
184,214,78560,1,10,0:3:0:0:
184,247,78637,1,6,0:3:0:0:
176,279,78714,1,6,0:3:0:0:
160,309,78792,1,6,0:3:0:0:
139,334,78869,1,6,0:3:0:0:
112,355,78946,5,14,0:0:0:0:
298,240,79101,1,2,0:0:0:0:
54,230,79255,1,2,0:0:0:0:
236,350,79410,69,14,0:0:0:0:
204,95,79565,1,0,0:0:0:0:
237,364,79719,1,2,0:0:0:0:
202,80,79873,6,0,P|141:70|77:107,1,119.999996337891,14|2,0:0|0:0,0:0:0:0:
4,300,80183,1,8,0:0:0:0:
31,293,80260,1,8,0:0:0:0:
59,288,80337,1,8,0:0:0:0:
86,295,80415,1,8,0:0:0:0:
109,311,80492,70,0,L|119:370,1,59.9999981689454,8|8,0:3|0:3,0:0:0:0:
290,173,80647,2,0,L|279:113,1,59.9999981689454,8|8,0:3|0:3,0:0:0:0:
208,248,80801,5,8,0:0:0:0:
240,270,80879,1,8,0:0:0:0:
278,280,80956,1,0,0:0:0:0:
317,273,81033,1,0,0:0:0:0:
355,263,81110,1,4,0:3:0:0:
394,256,81188,1,4,0:3:0:0:
432,262,81265,1,4,0:3:0:0:
468,280,81342,1,4,0:3:0:0:
498,304,81420,21,4,0:0:0:0:
486,24,81884,1,2,0:0:0:0:
285,59,82038,1,10,0:0:0:0:
416,216,82193,1,2,0:0:0:0:
397,103,82657,5,6,0:0:0:0:
186,116,82966,1,2,0:0:0:0:
300,168,83121,1,2,0:0:0:0:
98,203,83275,1,10,0:0:0:0:
168,12,83430,1,2,0:0:0:0:
168,12,83739,1,2,0:0:0:0:
213,259,83894,69,6,0:0:0:0:
98,205,84358,1,2,0:0:0:0:
229,361,84513,1,10,0:0:0:0:
300,168,84667,1,2,0:0:0:0:
397,103,85131,5,6,0:0:0:0:
285,59,85595,1,2,0:0:0:0:
486,24,85750,1,10,0:0:0:0:
416,216,85904,1,2,0:0:0:0:
477,383,86059,69,6,0:3:0:0:
435,356,86136,1,6,0:3:0:0:
388,341,86214,1,6,0:3:0:0:
338,338,86291,1,6,0:3:0:0:
288,350,86368,38,0,L|215:337,1,50,14|0,0:0|0:0,0:0:0:0:
102,264,86523,1,6,0:3:0:0:
141,243,86600,1,8,0:0:0:0:
176,223,86678,2,0,L|243:233,1,50,8|0,0:0|0:0,0:0:0:0:
373,137,86832,5,8,0:3:0:0:
343,105,86909,1,8,0:3:0:0:
305,78,86987,1,8,0:3:0:0:
267,61,87064,1,8,0:3:0:0:
226,51,87141,1,8,0:3:0:0:
183,47,87219,1,8,0:3:0:0:
139,52,87296,1,8,0:3:0:0:
97,67,87373,1,8,0:3:0:0:
59,87,87451,1,8,0:3:0:0:
26,115,87528,1,8,0:3:0:0:
0,151,87605,70,0,L|10:221,1,50,12|0,0:0|0:0,0:0:0:0:
118,260,87760,2,0,L|125:210,1,50
229,125,87915,1,6,0:3:0:0:
246,157,87992,1,6,0:3:0:0:
261,190,88069,2,0,L|251:250,1,50,8|0,0:0|0:0,0:0:0:0:
323,380,88224,5,6,0:3:0:0:
373,364,88301,1,6,0:3:0:0:
409,325,88379,1,6,0:3:0:0:
416,273,88456,1,6,0:3:0:0:
389,226,88533,1,6,0:3:0:0:
343,201,88610,1,6,0:3:0:0:
294,206,88688,1,6,0:3:0:0:
252,239,88765,1,6,0:3:0:0:
211,272,88842,1,6,0:3:0:0:
157,269,88920,1,6,0:3:0:0:
120,231,88997,69,12,0:0:0:0:
