osu file format v14

[General]
AudioFilename: soraru - gin no kisei (TV Size).mp3
AudioLeadIn: 0
PreviewTime: 61626
Countdown: 0
SampleSet: Soft
StackLeniency: 0.5
Mode: 0
LetterboxInBreaks: 0
WidescreenStoryboard: 1

[Editor]
DistanceSpacing: 1.6
BeatDivisor: 4
GridSize: 32
TimelineZoom: 2

[Metadata]
Title:Gin no Kisei (TV Size)
TitleUnicode:銀の祈誓 (TV Size)
Artist:soraru
ArtistUnicode:そらる
Creator:Daisuke
Version:Habi's Insane
Source:ゴブリンスレイヤー
Tags:zhu donjuan grindle walaowey matsubara kanon habiholic starset hb24 orcbolg beardcutter Goblin Slayer ED Ending Ohnishi Shogo from agehasprings Harumaki Gohan silver oath 大西省吾 はるまきごはん anime japanese
BeatmapID:1862795
BeatmapSetID:882398

[Difficulty]
HPDrainRate:6
CircleSize:4
OverallDifficulty:7
ApproachRate:9
SliderMultiplier:1.66
SliderTickRate:1

[Events]
//Background and Video events
0,0,"soraru - gin no kisei (TV Size) [Habi].jpg",0,0
//Break Periods
//Storyboard Layer 0 (Background)
//Storyboard Layer 1 (Fail)
//Storyboard Layer 2 (Pass)
//Storyboard Layer 3 (Foreground)
//Storyboard Layer 4 (Overlay)
//Storyboard Sound Samples

[TimingPoints]
1674,309.278350515464,4,2,1,30,1,0
11570,-133.333333333333,4,2,1,45,0,0
21467,-100,4,2,1,60,0,1
31364,-133.333333333333,4,2,1,50,0,0
41261,-100,4,2,1,55,0,0
51158,-133.333333333333,4,2,1,45,0,0
52395,317.460317460317,4,2,1,50,1,0
52395,-133.333333333333,4,2,1,50,0,0
53664,352.941176470588,4,2,1,50,1,0
53664,-133.333333333333,4,2,1,50,0,0
55075,-200,4,2,1,50,0,0
55428,530.973451327434,4,2,1,50,1,0
55693,352.941176470588,4,2,1,50,1,0
55869,404.721753794266,4,2,1,50,1,0
55869,-200,4,2,1,50,0,0
56678,309.278350515464,4,2,1,55,1,0
61626,-100,4,2,1,60,0,1
71523,-100,4,2,1,55,0,0
71987,-100,4,2,1,60,0,1
81420,-100,4,2,1,55,0,0
86368,-100,4,2,1,60,0,1
88842,-100,4,2,1,50,0,0

[Colours]
Combo1 : 0,149,74
Combo2 : 223,223,223
Combo3 : 159,159,159
Combo4 : 149,0,0
Combo5 : 255,255,128
Combo6 : 0,106,106

[HitObjects]
48,112,11570,69,2,0:0:0:0:
136,176,11725,2,0,P|156:116|140:56,1,124.500004749298,0|2,0:0|0:0,0:0:0:0:
39,211,12189,2,0,P|108:270|196:253,1,186.750007123947,0|0,0:0|0:0,0:0:0:0:
272,184,12808,6,0,L|260:116,1,62.2500023746491,0|0,0:0|0:0,0:0:0:0:
348,56,13117,2,0,L|360:124,1,62.2500023746491,0|0,0:0|0:0,0:0:0:0:
364,136,13349,1,0,0:0:0:0:
364,136,13426,1,8,0:0:0:0:
484,88,13581,1,4,0:3:0:0:
488,232,13735,2,0,P|456:232|424:220,1,62.2500023746491,0|0,0:0|0:0,0:0:0:0:
272,176,14045,69,2,0:0:0:0:
272,176,14199,2,0,L|288:304,1,124.500004749298,0|2,0:0|0:0,0:0:0:0:
216,356,14663,1,0,0:0:0:0:
215,355,14972,2,0,P|158:337|102:361,1,124.500004749298,0|0,0:0|0:0,0:0:0:0:
40,284,15436,1,0,0:0:0:0:
32,272,15514,1,0,0:0:0:0:
24,260,15591,2,0,P|32:228|24:196,1,62.2500023746491,0|2,0:0|0:0,0:0:0:0:
88,128,15900,2,0,L|216:148,1,124.500004749298,0|0,0:0|0:0,0:0:0:0:
424,28,16519,5,2,0:0:0:0:
424,28,16674,2,0,L|404:156,1,124.500004749298,0|2,0:0|0:0,0:0:0:0:
332,216,17137,2,0,L|344:280,1,62.2500023746491,0|0,0:0|0:0,0:0:0:0:
432,352,17447,2,0,L|443:290,1,62.2500023746491,0|0,0:0|0:0,0:0:0:0:
247,311,17756,70,0,P|186:306|134:337,1,124.500004749298,0|0,0:0|0:0,0:0:0:0:
60,268,18220,1,0,0:0:0:0:
48,280,18297,1,0,0:0:0:0:
36,288,18375,2,0,L|16:188,2,93.3750035619737,8|8|8,0:0|0:0|0:0,0:0:0:0:
152,192,18993,5,2,0:0:0:0:
231,128,19148,2,0,P|293:127|343:161,1,124.500004749298,0|2,0:0|0:0,0:0:0:0:
256,192,19612,12,0,21158,0:0:0:0:
164,112,21467,38,0,L|72:96,1,83,14|2,0:0|0:0,0:0:0:0:
8,164,21777,1,0,0:0:0:0:
120,276,21931,2,0,L|288:248,1,166,14|2,0:0|0:0,0:0:0:0:
363,159,22395,6,0,P|399:233|383:313,1,166,14|0,0:0|0:0,0:0:0:0:
280,368,22859,2,0,L|196:352,1,83,14|2,0:0|0:0,0:0:0:0:
104,256,23168,1,2,0:0:0:0:
200,132,23323,1,14,0:0:0:0:
28,164,23478,1,10,0:3:0:0:
20,144,23555,1,10,0:3:0:0:
12,124,23632,2,0,L|20:84,2,41.5,6|6|6,0:3|0:3|0:3,0:0:0:0:
120,208,23942,70,0,B|84:256|84:256|108:372,1,166,14|0,0:0|0:0,0:0:0:0:
348,264,24405,2,0,B|260:240|280:312|188:284,1,166,14|2,0:0|0:0,0:0:0:0:
208,104,24869,2,0,L|224:192,1,83,14|2,0:0|0:0,0:0:0:0:
320,352,25179,5,2,0:0:0:0:
448,260,25333,2,0,P|475:182|453:104,1,166,14|2,0:0|0:0,0:0:0:0:
348,32,25797,2,0,L|252:44,1,83,14|0,0:0|0:0,0:0:0:0:
240,44,26029,1,0,0:0:0:0:
240,44,26106,1,14,0:0:0:0:
112,12,26261,1,0,0:0:0:0:
151,136,26416,70,0,P|143:176|153:216,1,83,14|2,0:0|0:0,0:0:0:0:
236,288,26725,1,2,0:0:0:0:
416,208,26880,2,0,B|356:192|356:192|316:200|316:200|252:184,1,166,14|2,0:0|0:0,0:0:0:0:
308,104,27344,1,14,0:0:0:0:
360,288,27498,1,2,0:0:0:0:
416,208,27653,6,0,L|436:120,1,83,2|14,0:0|0:0,0:0:0:0:
264,280,27962,2,0,L|282:360,1,83,0|2,0:0|0:0,0:0:0:0:
312,184,28271,1,14,0:0:0:0:
172,244,28426,1,10,0:3:0:0:
156,264,28503,1,10,0:3:0:0:
140,288,28581,2,0,L|92:276,2,41.5,6|6|6,0:3|0:3|0:3,0:0:0:0:
144,96,28890,70,0,B|200:124|200:124|304:96,1,166,14|0,0:0|0:0,0:0:0:0:
411,7,29354,2,0,P|446:81|428:161,1,166,14|2,0:0|0:0,0:0:0:0:
324,176,29818,1,14,0:0:0:0:
464,264,29972,1,2,0:0:0:0:
320,328,30127,6,0,L|228:308,1,83,2|14,0:0|0:0,0:0:0:0:
80,228,30436,2,0,L|172:208,1,83,0|2,0:0|0:0,0:0:0:0:
200,108,30746,1,14,0:0:0:0:
240,272,30900,1,0,0:0:0:0:
284,44,31055,1,14,0:0:0:0:
284,44,31364,6,0,L|408:64,1,124.500004749298,4|0,0:0|0:0,0:0:0:0:
488,20,31828,1,0,0:0:0:0:
496,176,31983,2,0,L|432:164,1,62.2500023746491,0|0,0:0|0:0,0:0:0:0:
304,216,32292,2,0,L|368:228,1,62.2500023746491,0|2,0:0|3:2,0:0:0:0:
240,156,32601,6,0,B|260:216|260:216|240:284,1,124.500004749298,0|2,0:0|0:0,0:0:0:0:
164,216,33065,1,0,0:0:0:0:
164,216,33143,1,0,0:0:0:0:
164,216,33220,1,8,0:0:0:0:
200,40,33375,1,2,0:0:0:0:
76,160,33529,1,0,0:0:0:0:
76,160,33838,70,0,L|64:96,1,62.2500023746491,0|2,3:0|0:0,0:0:0:0:
60,72,34070,1,0,0:0:0:0:
60,72,34148,1,0,0:0:0:0:
32,248,34302,1,2,0:0:0:0:
196,160,34457,2,0,L|176:288,1,124.500004749298,8|0,0:0|0:0,0:0:0:0:
268,360,34921,6,0,L|288:232,1,124.500004749298,2|0,0:0|0:0,0:0:0:0:
272,108,35385,1,2,0:0:0:0:
388,204,35539,1,0,0:0:0:0:
311,27,35694,2,0,P|251:15|200:48,1,124.500004749298,8|0,0:0|0:0,0:0:0:0:
136,116,36158,1,0,0:0:0:0:
236,240,36313,70,0,L|244:176,1,62.2500023746491,0|0,3:0|0:0,0:0:0:0:
248,156,36545,1,0,0:0:0:0:
248,156,36622,1,0,0:0:0:0:
144,288,36777,1,2,0:0:0:0:
312,308,36931,2,0,B|352:324|352:324|440:304,1,124.500004749298,8|2,0:0|0:0,0:0:0:0:
488,224,37395,1,0,3:0:0:0:
384,76,37550,6,0,P|371:136|392:194,1,124.500004749298,0|0,0:0|0:0,0:0:0:0:
468,128,38014,1,0,0:0:0:0:
468,128,38091,1,0,0:0:0:0:
468,128,38168,1,8,0:0:0:0:
304,32,38323,1,2,0:0:0:0:
268,216,38478,1,0,0:0:0:0:
268,216,38787,70,0,L|204:208,1,62.2500023746491,2|0,0:0|0:0,0:0:0:0:
176,204,39019,1,0,0:0:0:0:
176,204,39096,1,0,0:0:0:0:
80,128,39251,1,2,0:0:0:0:
128,280,39405,1,8,0:0:0:0:
72,104,39560,1,0,0:0:0:0:
24,272,39715,2,0,L|36:340,1,62.2500023746491,0|0,0:0|3:0,0:0:0:0:
128,280,40024,1,0,0:0:0:0:
40,180,41261,70,0,B|124:196|88:252|196:256,1,166,6|10,0:0|0:0,0:0:0:0:
260,188,41725,1,0,0:0:0:0:
207,40,41880,2,0,P|192:78|187:119,1,83,2|2,0:0|0:0,0:0:0:0:
308,343,42189,2,0,P|323:305|328:264,1,83,10|2,0:0|0:0,0:0:0:0:
260,188,42498,5,2,0:0:0:0:
416,248,42653,1,2,0:0:0:0:
204,288,42808,2,0,L|112:272,1,83,10|0,0:0|0:0,0:0:0:0:
48,200,43117,1,2,0:0:0:0:
72,360,43271,1,2,0:0:0:0:
28,216,43426,2,0,P|36:176|28:136,1,83,10|0,0:0|0:0,0:0:0:0:
100,48,43735,70,0,L|264:72,1,166,6|10,0:0|0:0,0:0:0:0:
344,144,44199,1,0,0:0:0:0:
436,96,44354,2,0,P|444:56|436:16,1,83,2|2,0:0|0:0,0:0:0:0:
252,188,44663,2,0,P|244:228|252:268,1,83,10|2,0:0|0:0,0:0:0:0:
328,328,44972,6,0,L|164:304,1,166,2|10,0:0|0:0,0:0:0:0:
7,203,45436,2,0,P|85:223|149:174,1,166,2|2,0:0|0:0,0:0:0:0:
172,64,45900,1,10,0:0:0:0:
240,232,46055,1,2,0:0:0:0:
312,160,46210,70,0,B|400:148|384:212|484:184,1,166,6|10,0:0|0:0,0:0:0:0:
440,96,46674,1,0,0:0:0:0:
256,84,46828,2,0,L|280:252,1,166,2|10,0:0|0:0,0:0:0:0:
220,336,47292,6,0,P|298:354|363:307,1,166,2|2,0:0|0:0,0:0:0:0:
368,172,47756,1,10,0:0:0:0:
480,260,47911,1,0,0:0:0:0:
476,72,48065,2,0,L|460:168,1,83,2|2,0:0|0:0,0:0:0:0:
280,252,48375,2,0,L|266:170,1,83,10|2,0:0|0:0,0:0:0:0:
212,72,48684,69,2,0:0:0:0:
356,112,48838,1,0,0:0:0:0:
172,168,48993,2,0,L|88:152,1,83,10|0,0:0|0:0,0:0:0:0:
280,252,49302,2,0,L|364:236,1,83,2|2,0:0|0:0,0:0:0:0:
444,300,49612,1,10,0:0:0:0:
504,159,49766,6,0,P|423:161|364:106,1,166,6|2,0:0|0:0,0:0:0:0:
304,24,50230,1,10,0:0:0:0:
244,192,50385,1,2,0:0:0:0:
244,192,50462,1,10,0:0:0:0:
244,192,50539,1,2,0:0:0:0:
176,112,50694,1,2,0:0:0:0:
144,208,50849,2,0,L|60:192,1,83,2|10,0:0|0:0,0:0:0:0:
232,344,51158,22,0,L|356:324,1,124.500004749298,2|0,0:0|0:0,0:0:0:0:
424,248,51622,1,2,0:0:0:0:
424,248,51777,2,0,P|424:208|432:184,1,62.2500023746491,10|0,0:0|0:0,0:0:0:0:
344,152,52086,2,0,P|363:117|382:100,1,62.2500023746491,2|0,0:0|0:0,0:0:0:0:
447,56,52395,54,0,P|387:63|334:32,1,124.500004749298,2|2,0:0|0:0,0:0:0:0:
180,116,53029,2,0,L|200:240,1,124.500004749298,10|2,0:0|0:0,0:0:0:0:
200,240,53664,22,0,P|264:240|320:272,1,124.500004749298,2|2,0:0|0:0,0:0:0:0:
400,356,54193,2,0,L|424:228,1,124.500004749298,2|0,0:0|0:0,0:0:0:0:
384,140,54722,1,2,0:0:0:0:
508,196,54899,1,0,0:0:0:0:
368,156,55075,6,0,L|383:63,1,83,2|2,0:0|0:0,0:0:0:0:
248,128,55693,1,2,0:0:0:0:
248,128,55781,1,2,0:0:0:0:
248,128,55869,70,0,L|268:268,1,124.5,10|0,0:0|0:0,0:0:0:0:
203,331,56678,38,0,P|280:354|346:308,1,166,6|10,0:0|0:0,0:0:0:0:
424,196,57141,2,0,L|448:364,1,166,0|2,0:0|0:0,0:0:0:0:
480,108,57605,1,10,0:0:0:0:
356,32,57760,6,0,P|312:32|272:44,1,83,2|0,0:0|0:0,0:0:0:0:
128,124,58069,2,0,P|172:124|212:112,1,83,2|10,0:0|0:0,0:0:0:0:
24,48,58379,2,0,L|52:228,1,166,0|10,0:0|0:0,0:0:0:0:
124,280,58842,1,10,0:0:0:0:
16,372,58997,1,10,0:0:0:0:
104,252,59152,70,0,L|193:236,1,83,6|4,0:0|0:3,0:0:0:0:
270,219,59384,1,2,0:0:0:0:
270,219,59461,1,2,0:0:0:0:
323,115,59616,2,0,P|245:96|180:143,1,166,10|2,0:0|0:0,0:0:0:0:
415,193,60080,1,10,0:0:0:0:
441,31,60234,1,2,0:0:0:0:
220,156,61626,70,0,L|136:136,1,83,14|2,0:0|0:0,0:0:0:0:
52,196,61935,1,2,0:0:0:0:
288,239,62090,2,0,P|328:170|308:92,1,166,14|0,0:0|0:0,0:0:0:0:
236,20,62554,1,14,0:0:0:0:
412,88,62708,2,0,L|500:72,1,83,2|2,0:0|0:0,0:0:0:0:
204,180,63018,6,0,B|140:172|140:172|104:184|104:184|40:176,1,166,14|0,0:0|0:0,0:0:0:0:
88,84,63482,1,14,0:0:0:0:
156,264,63636,1,10,0:3:0:0:
178,30,63791,1,6,0:3:0:0:
178,30,63868,1,6,0:3:0:0:
178,30,63946,2,0,L|189:69,2,41.5,6|6|14,0:3|0:3|0:0,0:0:0:0:
286,118,64255,69,2,0:0:0:0:
401,84,64409,2,0,L|385:172,1,83,2|14,0:0|0:0,0:0:0:0:
262,114,64719,1,2,0:0:0:0:
487,146,64873,1,2,0:0:0:0:
309,211,65028,1,14,0:0:0:0:
498,125,65183,1,2,0:0:0:0:
401,84,65337,6,0,B|341:100|341:100|237:64,1,166,2|2,0:0|0:0,0:0:0:0:
111,14,65801,2,0,L|135:182,1,166,2|0,0:0|0:0,0:0:0:0:
76,304,66265,1,14,0:0:0:0:
76,304,66574,70,0,B|160:288|148:352|240:320,1,166,14|2,0:0|3:2,0:0:0:0:
312,252,67038,1,14,0:0:0:0:
232,112,67193,2,0,P|223:152|232:192,1,83,0|2,0:0|0:0,0:0:0:0:
387,192,67502,2,0,P|396:152|388:112,1,83,14|0,0:0|0:0,0:0:0:0:
304,16,67812,6,0,L|132:40,1,166,2|2,0:0|0:0,0:0:0:0:
40,112,68275,1,0,0:0:0:0:
172,216,68430,1,14,0:0:0:0:
172,216,68507,1,8,0:0:0:0:
172,216,68585,1,10,0:3:0:0:
32,132,68739,1,6,0:3:0:0:
248,164,68894,1,6,0:3:0:0:
107,328,69049,70,0,P|187:312|253:359,1,166,14|2,0:0|0:0,0:0:0:0:
344,312,69513,1,14,0:0:0:0:
280,180,69667,1,0,0:0:0:0:
424,248,69822,1,2,0:0:0:0:
260,192,69976,1,14,0:0:0:0:
384,60,70131,6,0,B|324:48|324:48|284:56|284:56|220:40,1,166,0|14,0:0|0:0,0:0:0:0:
64,108,70595,2,0,L|160:96,1,83,0|10,0:0|0:3,0:0:0:0:
256,160,70904,1,6,0:3:0:0:
276,176,70982,1,6,0:3:0:0:
296,192,71059,2,0,L|340:180,1,41.5,6|6,0:3|0:3,0:0:0:0:
448,116,71214,2,0,L|432:244,1,124.5,14|0,0:0|0:0,0:0:0:0:
360,296,71523,5,0,0:0:0:0:
360,296,71832,5,0,0:0:0:0:
192,196,71987,38,0,P|128:180|52:240,1,166,14|0,0:0|0:0,0:0:0:0:
284,243,72451,2,0,P|292:203|288:162,1,83,14|2,0:0|0:0,0:0:0:0:
232,84,72760,1,2,0:0:0:0:
184,336,72915,6,0,B|244:324|244:324|284:336|284:336|344:320,1,166,14|0,0:0|0:0,0:0:0:0:
480,224,73379,1,14,0:0:0:0:
480,224,73456,1,8,0:0:0:0:
480,224,73533,2,0,L|432:216,1,41.5,10|10,0:3|0:3,0:0:0:0:
312,144,73688,2,0,L|360:136,1,41.5,6|6,0:3|0:3,0:0:0:0:
428,56,73842,1,6,0:3:0:0:
232,20,73997,70,0,P|240:60|232:100,1,83,14|2,0:0|0:0,0:0:0:0:
80,180,74306,2,0,P|71:139|79:99,1,83,2|14,0:0|0:0,0:0:0:0:
228,192,74616,1,2,0:0:0:0:
100,280,74770,1,2,0:0:0:0:
240,344,74925,2,0,L|332:328,1,83,14|2,0:0|0:0,0:0:0:0:
472,240,75234,6,0,L|380:224,1,83,2|14,0:0|0:0,0:0:0:0:
244,92,75543,1,0,0:0:0:0:
320,16,75698,2,0,P|348:92|316:172,1,166,2|0,0:0|0:0,0:0:0:0:
236,224,76162,1,14,0:0:0:0:
236,224,76471,70,0,L|152:212,1,83,14|2,0:0|0:0,0:0:0:0:
24,304,76781,2,0,L|108:316,1,83,0|14,0:0|0:0,0:0:0:0:
323,316,77090,2,0,P|351:238|337:158,1,166,2|14,0:0|0:0,0:0:0:0:
272,80,77554,1,2,0:0:0:0:
360,24,77708,6,0,L|448:36,1,83,2|14,0:0|0:0,0:0:0:0:
180,132,78018,2,0,L|92:120,1,83,0|2,0:0|0:0,0:0:0:0:
28,196,78327,1,14,0:0:0:0:
20,208,78404,1,8,0:0:0:0:
12,220,78482,2,0,L|20:260,1,41.5,10|10,0:3|0:3,0:0:0:0:
120,352,78636,2,0,L|112:312,1,41.5,6|6,0:3|0:3,0:0:0:0:
180,200,78791,2,0,L|188:240,1,41.5,6|6,0:3|0:3,0:0:0:0:
272,304,78946,70,0,B|356:288|344:352|440:328,1,166,14|2,0:0|0:0,0:0:0:0:
512,152,79409,2,0,P|432:153|396:223,1,166,14|2,0:0|0:0,0:0:0:0:
456,320,79873,1,14,0:0:0:0:
456,320,80183,6,0,L|443:384,2,41.5,8|8|8,0:0|0:0|0:0,0:0:0:0:
300,256,80492,2,0,L|284:172,1,83,8|8,0:3|0:3,0:0:0:0:
336,76,80801,1,8,0:0:0:0:
336,76,80879,1,8,0:0:0:0:
336,76,80956,1,0,0:0:0:0:
192,140,81110,1,4,0:3:0:0:
380,168,81265,1,4,0:3:0:0:
168,168,81420,22,0,L|132:0,1,166,4|0,0:0|0:0,0:0:0:0:
52,104,81884,1,2,0:0:0:0:
144,268,82038,2,0,P|185:268|222:252,1,83,10|2,0:0|0:0,0:0:0:0:
364,156,82348,2,0,P|322:155|285:171,1,83,0|0,0:0|0:0,0:0:0:0:
444,256,82657,6,0,L|472:84,2,166,6|2|10,0:0|0:0|0:0,0:0:0:0:
296,280,83430,1,2,0:0:0:0:
488,348,83585,1,0,0:0:0:0:
364,216,83739,1,2,0:0:0:0:
468,356,83894,70,0,B|380:336|380:336|356:372|312:376,1,166,6|0,0:0|0:0,0:0:0:0:
200,240,84358,1,2,0:0:0:0:
188,252,84435,1,0,0:0:0:0:
176,264,84513,2,0,L|152:180,1,83,10|2,0:0|0:0,0:0:0:0:
232,80,84822,2,0,L|256:164,1,83,0|0,0:0|0:0,0:0:0:0:
340,296,85131,6,0,B|400:284|400:284|440:292|440:292|504:276,1,166,6|0,0:0|0:0,0:0:0:0:
440,200,85595,1,2,0:0:0:0:
248,340,85750,2,0,P|235:300|242:260,1,83,10|2,0:0|0:0,0:0:0:0:
242,260,85982,1,0,0:0:0:0:
242,260,86059,1,6,0:3:0:0:
320,136,86214,1,6,0:3:0:0:
160,200,86368,22,0,L|72:188,1,83,14|6,0:0|0:3,0:0:0:0:
77,188,86600,1,8,0:0:0:0:
77,188,86678,1,8,0:0:0:0:
268,40,86832,5,8,0:3:0:0:
307,27,86909,1,8,0:3:0:0:
348,31,86987,1,8,0:3:0:0:
385,49,87064,1,8,0:3:0:0:
412,80,87141,2,0,L|404:132,1,41.5,8|8,0:3|0:3,0:0:0:0:
320,184,87296,2,0,L|328:235,1,41.5,8|8,0:3|0:3,0:0:0:0:
412,284,87451,2,0,L|403:335,1,41.5,8|8,0:3|0:3,0:0:0:0:
320,364,87605,70,0,L|176:348,1,124.5,12|0,0:0|0:0,0:0:0:0:
168,328,87915,1,6,0:3:0:0:
208,168,88069,1,8,0:0:0:0:
208,168,88147,1,4,0:3:0:0:
208,168,88224,1,6,0:3:0:0:
80,264,88379,1,6,0:3:0:0:
68,276,88456,1,6,0:3:0:0:
56,288,88533,2,0,L|44:240,1,41.5,6|6,0:3|0:3,0:0:0:0:
92,120,88688,2,0,L|102:160,1,41.5,6|6,0:3|0:3,0:0:0:0:
188,264,88842,6,0,L|276:244,1,83,6|12,0:3|0:0,0:0:0:0:
