osu file format v14

[General]
AudioFilename: soraru - gin no kisei (TV Size).mp3
AudioLeadIn: 0
PreviewTime: 61626
Countdown: 0
SampleSet: Soft
StackLeniency: 0.7
Mode: 0
LetterboxInBreaks: 0
WidescreenStoryboard: 1

[Editor]
DistanceSpacing: 1.6
BeatDivisor: 4
GridSize: 8
TimelineZoom: 3.599999

[Metadata]
Title:Gin no Kisei (TV Size)
TitleUnicode:銀の祈誓 (TV Size)
Artist:soraru
ArtistUnicode:そらる
Creator:Daisuke
Version:Grindle's Normal
Source:ゴブリンスレイヤー
Tags:zhu donjuan grindle walaowey matsubara kanon habiholic starset hb24 orcbolg beardcutter Goblin Slayer ED Ending Ohnishi Shogo from agehasprings Harumaki Gohan silver oath 大西省吾 はるまきごはん anime japanese
BeatmapID:1874015
BeatmapSetID:882398

[Difficulty]
HPDrainRate:4
CircleSize:3
OverallDifficulty:4
ApproachRate:5
SliderMultiplier:0.8
SliderTickRate:1

[Events]
//Background and Video events
0,0,"soraru - gin no kisei (TV Size).jpg",0,0
//Break Periods
2,51358,55478
//Storyboard Layer 0 (Background)
//Storyboard Layer 1 (Fail)
//Storyboard Layer 2 (Pass)
//Storyboard Layer 3 (Foreground)
//Storyboard Layer 4 (Overlay)
//Storyboard Sound Samples

[TimingPoints]
1674,309.278350515464,4,2,1,30,1,0
11570,-100,4,2,1,45,0,0
21467,-100,4,2,1,60,0,1
31364,-100,4,2,1,50,0,0
41261,-100,4,2,1,55,0,0
51158,-100,4,2,1,45,0,0
52395,317.460317460317,4,2,1,50,1,0
53664,352.941176470588,4,2,1,50,1,0
55428,530.973451327434,4,2,1,50,1,0
55693,352.941176470588,4,2,1,50,1,0
55869,404.721753794266,4,2,1,50,1,0
56678,309.278350515464,4,2,1,55,1,0
61626,-100,4,2,1,60,0,1
71523,-100,4,2,1,50,0,0
71987,-100,4,2,1,60,0,1
81420,-100,4,2,1,55,0,0
86368,-100,4,2,1,60,0,1
88997,-100,4,2,1,50,0,0

[Colours]
Combo1 : 255,255,128
Combo2 : 0,106,106
Combo3 : 0,149,74
Combo4 : 149,0,0

[HitObjects]
139,43,11570,6,0,P|92:79|70:134,1,120,2|2,0:0|0:0,0:0:0:0:
93,177,12189,2,0,B|110:260|53:242|66:330,2,160,0|0|8,0:0|0:0|0:0,0:0:0:0:
245,59,14045,6,0,L|364:68,1,120,2|2,0:0|0:0,0:0:0:0:
412,73,14663,1,0,0:0:0:0:
475,144,14972,2,0,P|489:221|455:292,1,160,0|0,0:0|0:0,0:0:0:0:
265,251,16210,1,0,0:0:0:0:
197,318,16519,38,0,L|77:303,1,120,2|2,0:0|0:0,0:0:0:0:
40,272,17137,2,0,P|25:235|31:196,1,80,0|0,0:0|0:0,0:0:0:0:
79,113,17756,2,0,L|158:103,1,80,0|0,0:0|0:0,0:0:0:0:
242,149,18375,2,0,L|321:139,1,80,8|0,0:0|0:0,0:0:0:0:
416,129,18993,6,0,P|455:173|460:232,1,120,2|2,0:0|0:0,0:0:0:0:
269,57,21467,6,0,L|149:45,1,120,14|14,0:0|0:0,0:0:0:0:
34,133,22395,2,0,P|28:172|37:211,1,80,14|0,0:0|0:0,0:0:0:0:
70,245,22859,2,0,L|189:256,1,120,14|14,0:0|0:0,0:0:0:0:
279,222,23632,1,6,0:3:0:0:
336,298,23942,6,0,L|455:287,1,120,14|14,0:0|0:0,0:0:0:0:
484,145,24869,2,0,P|475:107|451:76,1,80,14|2,0:0|0:0,0:0:0:0:
406,57,25333,2,0,P|348:69|308:113,1,120,14|14,0:0|0:0,0:0:0:0:
289,207,26106,1,14,0:0:0:0:
199,243,26416,38,0,L|80:232,1,120,14|14,0:0|0:0,0:0:0:0:
48,90,27344,2,0,P|72:60|109:44,1,80,14|2,0:0|0:0,0:0:0:0:
157,47,27808,2,0,L|276:58,1,120,14|14,0:0|0:0,0:0:0:0:
369,31,28581,1,6,0:3:0:0:
428,106,28890,6,0,B|440:172|407:161|419:223,1,120,14|14,0:0|0:0,0:0:0:0:
296,300,29818,2,0,L|216:292,1,80,14|2,0:0|0:0,0:0:0:0:
185,329,30282,2,0,L|65:317,1,120,14|14,0:0|0:0,0:0:0:0:
25,229,31055,1,14,0:0:0:0:
81,151,31364,5,4,0:0:0:0:
81,151,32601,6,0,B|165:124|145:187|235:154,1,160,0|8,0:0|0:0,0:0:0:0:
306,89,33529,1,0,0:0:0:0:
387,138,33838,2,0,P|415:111|454:102,2,80,0|0|8,3:0|0:0|0:0,0:0:0:0:
448,213,34766,2,0,L|440:292,1,80,0|0,0:0|0:0,0:0:0:0:
344,283,35385,1,2,0:0:0:0:
288,361,35694,2,0,L|209:352,1,80,8|0,0:0|0:0,0:0:0:0:
112,340,36313,38,0,P|96:263|131:192,1,160,0|8,3:0|0:0,0:0:0:0:
197,123,37241,1,2,0:0:0:0:
285,159,37550,2,0,L|364:150,1,80,0|0,0:0|0:0,0:0:0:0:
447,102,38168,2,0,P|458:139|454:179,1,80,8|0,0:0|0:0,0:0:0:0:
422,270,38787,6,0,L|264:288,1,160,2|8,0:0|0:0,0:0:0:0:
171,259,39715,1,0,0:0:0:0:
115,338,40024,1,0,0:0:0:0:
463,175,41261,22,0,P|439:99|378:50,1,160,6|2,0:0|0:0,0:0:0:0:
284,26,42189,1,10,0:0:0:0:
216,94,42498,2,0,L|136:101,1,80,2|10,0:0|0:0,0:0:0:0:
54,152,43117,2,0,P|43:189|46:229,1,80,2|10,0:0|0:0,0:0:0:0:
106,304,43735,6,0,L|225:293,1,120,6|0,0:0|0:0,0:0:0:0:
269,313,44354,2,0,P|276:331|279:351,2,40,2|2|10,0:0|0:0|0:0,0:0:0:0:
311,226,44972,2,0,P|346:209|386:209,1,80,2|10,0:0|0:0,0:0:0:0:
432,224,45436,2,0,P|472:180|476:122,1,120,2|10,0:0|0:0,0:0:0:0:
408,53,46210,38,0,L|328:48,1,80,6|10,0:0|0:0,0:0:0:0:
247,100,46828,2,0,L|244:139,2,40,2|2|10,0:0|0:0|0:0,0:0:0:0:
209,69,47292,2,0,L|88:61,1,120,2|10,0:0|0:0,0:0:0:0:
26,133,48065,2,0,P|25:172|40:209,1,80,2|10,0:0|0:0,0:0:0:0:
97,286,48684,6,0,L|176:290,1,80,2|10,0:0|0:0,0:0:0:0:
262,248,49302,2,0,L|265:209,2,40,2|2|10,0:0|0:0|0:0,0:0:0:0:
296,282,49766,2,0,L|415:289,1,120,6|10,0:0|0:0,0:0:0:0:
477,214,50539,2,0,P|481:174|472:135,1,80,2|2,0:0|0:0,0:0:0:0:
411,61,51158,5,2,0:0:0:0:
130,337,56678,22,0,L|114:258,1,80,6|10,0:0|0:0,0:0:0:0:
73,234,57141,2,0,L|57:155,1,80,0|2,0:0|0:0,0:0:0:0:
101,69,57760,2,0,P|138:56|177:60,1,80,2|2,0:0|0:0,0:0:0:0:
213,92,58224,1,10,0:0:0:0:
213,92,58379,2,0,P|252:95|289:82,1,80,0|10,0:0|0:0,0:0:0:0:
326,50,58842,1,10,0:0:0:0:
420,69,59152,6,0,L|439:187,1,120,6|10,0:0|0:0,0:0:0:0:
364,247,59925,2,0,L|370:286,1,40,2|10,0:0|0:0,0:0:0:0:
376,333,60234,1,2,0:0:0:0:
49,71,61626,22,0,L|127:58,1,80,14|2,0:0|0:0,0:0:0:0:
164,88,62090,2,0,L|282:68,1,120,14|14,0:0|0:0,0:0:0:0:
373,98,62863,1,2,0:0:0:0:
373,98,63018,2,0,P|386:135|384:175,1,80,14|0,0:0|0:0,0:0:0:0:
348,207,63482,2,0,L|269:220,1,80,14|6,0:0|0:3,0:0:0:0:
176,195,64100,5,14,0:0:0:0:
125,277,64409,1,2,0:0:0:0:
187,352,64719,2,0,L|266:339,1,80,2|14,0:0|0:0,0:0:0:0:
361,343,65337,2,0,P|381:309|385:270,1,80,2|2,0:0|0:0,0:0:0:0:
386,222,65801,2,0,P|402:165|446:125,1,120,2|14,0:0|0:0,0:0:0:0:
379,55,66574,38,0,L|299:48,1,80,14|2,0:0|3:2,0:0:0:0:
217,99,67193,2,0,L|137:92,1,80,0|14,0:0|0:0,0:0:0:0:
54,141,67812,2,0,P|38:177|38:217,1,80,2|2,0:0|0:0,0:0:0:0:
96,293,68430,2,0,L|176:300,1,80,14|6,0:0|0:3,0:0:0:0:
268,275,69049,5,14,0:0:0:0:
326,350,69358,1,2,0:0:0:0:
410,305,69667,2,0,P|431:250|417:192,1,120,2|0,0:0|0:0,0:0:0:0:
352,121,70440,2,0,L|232:110,1,120,14|6,0:0|0:3,0:0:0:0:
136,101,71214,1,14,0:0:0:0:
72,332,71987,38,0,L|192:321,1,120,14|14,0:0|0:0,0:0:0:0:
333,347,72915,2,0,P|364:297|362:237,1,120,14|14,0:0|0:0,0:0:0:0:
419,160,73688,2,0,L|408:121,1,40,6|6,0:3|0:3,0:0:0:0:
395,74,73997,6,0,L|315:66,1,80,14|2,0:0|0:0,0:0:0:0:
232,115,74616,2,0,L|152:107,1,80,2|14,0:0|0:0,0:0:0:0:
77,167,75234,1,2,0:0:0:0:
77,167,75389,2,0,P|76:226|107:276,1,120,14|14,0:0|0:0,0:0:0:0:
200,251,76162,1,14,0:0:0:0:
227,159,76471,38,0,L|307:151,1,80,14|0,0:0|0:0,0:0:0:0:
398,180,77090,2,0,P|415:215|417:255,1,80,2|14,0:0|0:0,0:0:0:0:
362,333,77708,2,0,P|326:350|286:352,1,80,2|0,0:0|0:0,0:0:0:0:
209,295,78327,1,14,0:0:0:0:
129,348,78636,1,6,0:3:0:0:
66,274,78946,6,0,L|74:195,1,80,14|2,0:0|0:0,0:0:0:0:
106,159,79409,2,0,L|114:80,1,80,14|2,0:0|0:0,0:0:0:0:
148,45,79873,2,0,P|187:48|221:68,1,80,14|8,0:0|0:0,0:0:0:0:
281,143,80492,1,8,0:3:0:0:
361,90,80801,2,0,L|440:99,1,80,8|4,0:0|0:3,0:0:0:0:
497,176,81420,6,0,B|482:267|445:233|436:320,1,160,4|10,0:0|0:0,0:0:0:0:
345,289,82348,1,0,0:0:0:0:
273,353,82657,2,0,L|193:345,1,80,6|2,0:0|0:0,0:0:0:0:
146,261,83275,2,0,L|66:253,1,80,10|0,0:0|0:0,0:0:0:0:
28,164,83894,6,0,P|36:125|58:92,1,80,6|0,0:0|0:0,0:0:0:0:
147,56,84513,2,0,L|227:64,1,80,10|0,0:0|0:0,0:0:0:0:
291,134,85131,2,0,L|450:118,1,160,6|10,0:0|0:0,0:0:0:0:
500,200,86059,1,6,0:3:0:0:
450,282,86368,6,0,L|370:290,1,80,14|8,0:0|0:0,0:0:0:0:
344,330,86832,2,0,L|264:322,1,80,8|8,0:3|0:3,0:0:0:0:
222,297,87296,2,0,L|142:305,1,80,8|12,0:3|0:0,0:0:0:0:
50,136,88224,2,0,P|52:116|61:98,1,40,6|6,0:3|0:3,0:0:0:0:
97,66,88533,6,0,L|216:54,1,120,6|12,0:3|0:0,0:0:0:0:
