osu file format v14

[General]
AudioFilename: soraru - gin no kisei (TV Size).mp3
AudioLeadIn: 0
PreviewTime: 61626
Countdown: 0
SampleSet: Soft
StackLeniency: 0.7
Mode: 0
LetterboxInBreaks: 0
WidescreenStoryboard: 0

[Editor]
DistanceSpacing: 0.9
BeatDivisor: 4
GridSize: 32
TimelineZoom: 1

[Metadata]
Title:Gin no Kisei (TV Size)
TitleUnicode:銀の祈誓 (TV Size)
Artist:soraru
ArtistUnicode:そらる
Creator:Daisuke
Version:Advanced
Source:ゴブリンスレイヤー
Tags:zhu donjuan grindle walaowey matsubara kanon habiholic starset hb24 orcbolg beardcutter Goblin Slayer ED Ending Ohnishi Shogo from agehasprings Harumaki Gohan silver oath 大西省吾 はるまきごはん anime japanese
BeatmapID:1844734
BeatmapSetID:882398

[Difficulty]
HPDrainRate:4
CircleSize:3.5
OverallDifficulty:5
ApproachRate:7
SliderMultiplier:1
SliderTickRate:1

[Events]
//Background and Video events
0,0,"soraru - gin no kisei (TV Size).jpg",0,0
//Break Periods
2,51358,54446
//Storyboard Layer 0 (Background)
//Storyboard Layer 1 (Fail)
//Storyboard Layer 2 (Pass)
//Storyboard Layer 3 (Foreground)
//Storyboard Layer 4 (Overlay)
//Storyboard Sound Samples

[TimingPoints]
1674,309.278350515464,4,2,1,30,1,0
11570,-133.333333333333,4,2,1,45,0,0
21467,-90.9090909090909,4,2,1,60,0,1
31364,-133.333333333333,4,2,1,50,0,0
41261,-100,4,2,1,55,0,0
51158,-100,4,2,1,45,0,0
52395,317.460317460317,4,2,1,50,1,0
53664,352.941176470588,4,2,1,50,1,0
55428,530.973451327434,4,2,1,50,1,0
55693,352.941176470588,4,2,1,50,1,0
55869,404.721753794266,4,2,1,50,1,0
56678,309.278350515464,4,2,1,55,1,0
61626,-90.9090909090909,4,2,1,60,0,1
71523,-90.9090909090909,4,2,1,50,0,0
71987,-90.9090909090909,4,2,1,60,0,1
81420,-133.333333333333,4,2,1,55,0,0
86368,-90.9090909090909,4,2,1,60,0,1
88997,-100,4,2,1,50,0,0

[Colours]
Combo1 : 255,255,128
Combo2 : 0,106,106
Combo3 : 0,149,74
Combo4 : 149,0,0

[HitObjects]
57,239,11570,6,0,L|67:201,1,37.5000014305115,2|0,0:0|0:0,0:0:0:0:
88,122,12034,1,2,0:0:0:0:
88,122,13271,2,0,L|130:125,1,37.5000014305115,0|8,0:0|0:0,0:0:0:0:
165,127,13581,2,0,P|174:163|166:199,1,75.0000028610231,4|0,0:3|0:0,0:0:0:0:
147,236,14045,6,0,L|189:239,1,37.5000014305115,2|0,0:0|0:0,0:0:0:0:
266,243,14509,1,2,0:0:0:0:
426,290,16519,38,0,P|419:272|417:253,1,37.5000014305115,2|0,0:0|0:0,0:0:0:0:
439,174,16983,1,2,0:0:0:0:
439,174,18220,1,0,0:0:0:0:
438,174,18375,2,0,P|411:178|383:174,2,56.2500021457673,8|8|8,0:0|0:0|0:0,0:0:0:0:
462,139,18993,6,0,L|452:87,1,37.5000014305115,2|0,0:0|0:0,0:0:0:0:
440,20,19457,1,2,0:0:0:0:
472,55,21467,6,0,P|420:70|366:61,1,110.000003356934,14|0,0:0|0:0,0:0:0:0:
321,41,21931,1,14,0:0:0:0:
173,23,22395,2,0,P|143:71|137:128,1,110.000003356934,14|0,0:0|0:0,0:0:0:0:
152,170,22859,1,14,0:0:0:0:
115,316,23323,1,14,0:0:0:0:
115,316,23478,2,0,L|51:330,2,55.0000016784668,10|6|6,0:3|0:3|0:3,0:0:0:0:
164,310,23942,6,0,B|194:302|218:313|218:313|241:325|271:311,1,110.000003356934,14|0,0:0|0:0,0:0:0:0:
314,288,24405,2,0,L|361:316,1,55.0000016784668,14|2,0:0|0:0,0:0:0:0:
458,326,24869,2,0,P|480:276|471:222,1,110.000003356934,14|2,0:0|0:0,0:0:0:0:
434,189,25333,2,0,P|427:162|428:135,1,55.0000016784668,14|0,0:0|0:0,0:0:0:0:
459,40,25797,2,0,L|404:40,1,55.0000016784668,14|0,0:0|0:0,0:0:0:0:
356,55,26106,2,0,L|301:55,1,55.0000016784668,14|0,0:0|0:0,0:0:0:0:
250,57,26416,38,0,P|267:109|248:159,1,110.000003356934,14|2,0:0|0:0,0:0:0:0:
214,194,26880,1,14,0:0:0:0:
99,288,27344,2,0,L|208:300,1,110.000003356934,14|2,0:0|0:0,0:0:0:0:
248,329,27808,1,14,0:0:0:0:
393,298,28271,1,14,0:0:0:0:
393,298,28426,2,0,P|407:322|409:349,2,55.0000016784668,10|6|6,0:3|0:3|0:3,0:0:0:0:
354,266,28890,6,0,B|340:236|340:236|354:160,1,110.000003356934,14|0,0:0|0:0,0:0:0:0:
337,113,29354,2,0,P|310:122|283:118,1,55.0000016784668,14|2,0:0|0:0,0:0:0:0:
191,82,29818,2,0,L|130:174,1,110.000003356934,14|2,0:0|0:0,0:0:0:0:
98,211,30282,2,0,P|125:203|152:208,1,55.0000016784668,14|0,0:0|0:0,0:0:0:0:
218,279,30746,2,0,L|271:264,1,55.0000016784668,14|0,0:0|0:0,0:0:0:0:
319,254,31055,2,0,B|345:238|371:242|371:242|397:248|422:227,1,110.000003356934,14|4,0:0|0:0,0:0:0:0:
86,273,32447,22,0,P|57:248|44:214,1,75.0000028610231,2|0,3:2|0:0,0:0:0:0:
60,168,32911,1,2,0:0:0:0:
60,168,33065,2,0,L|48:115,2,37.5000014305115,0|8|2,0:0|0:0|0:0,0:0:0:0:
173,75,33838,37,0,3:0:0:0:
173,75,33993,2,0,L|254:80,1,75.0000028610231,2|2,0:0|0:0,0:0:0:0:
296,87,34457,1,8,0:0:0:0:
442,95,34921,6,0,P|457:129|455:166,1,75.0000028610231,2|0,0:0|0:0,0:0:0:0:
424,204,35385,2,0,L|443:245,1,37.5000014305115,2|0,0:0|0:0,0:0:0:0:
464,279,35694,1,8,0:0:0:0:
277,337,36313,37,0,3:0:0:0:
277,337,36467,2,0,L|231:349,2,37.5000014305115,0|0|2,0:0|0:0|0:0,0:0:0:0:
324,326,36931,1,8,0:0:0:0:
416,293,37241,5,2,0:0:0:0:
415,293,37395,2,0,P|425:256|416:220,1,75.0000028610231,0|0,3:0|3:0,0:0:0:0:
387,127,38014,2,0,P|406:122|424:124,2,37.5000014305115,0|8|2,0:0|0:0|0:0,0:0:0:0:
245,93,38787,37,2,0:0:0:0:
245,93,38942,2,0,L|243:56,2,37.5000014305115,0|0|2,0:0|0:0|0:0,0:0:0:0:
248,141,39405,1,8,0:0:0:0:
252,287,39869,5,0,3:0:0:0:
100,63,41261,22,0,P|114:111|112:161,1,100,6|10,0:0|0:0,0:0:0:0:
83,196,41725,1,0,0:0:0:0:
83,196,41880,2,0,L|186:177,1,100,2|10,0:0|0:0,0:0:0:0:
223,257,42498,2,0,L|124:275,1,100,2|10,0:0|0:0,0:0:0:0:
110,318,42962,1,0,0:0:0:0:
110,318,43117,2,0,B|142:352|142:352|194:344,1,100,2|10,0:0|0:0,0:0:0:0:
282,324,43735,5,6,0:0:0:0:
370,316,44045,2,0,L|413:341,1,50,10|0,0:0|0:0,0:0:0:0:
454,363,44354,2,0,P|475:318|475:268,1,100,2|10,0:0|0:0,0:0:0:0:
429,191,44972,2,0,L|329:196,1,100,2|10,0:0|0:0,0:0:0:0:
286,182,45436,1,2,0:0:0:0:
286,182,45591,1,0,0:0:0:0:
196,183,45900,2,0,P|184:161|182:136,1,50,10|2,0:0|0:0,0:0:0:0:
214,103,46210,38,0,L|104:112,1,100,6|10,0:0|0:0,0:0:0:0:
70,121,46674,1,0,0:0:0:0:
70,121,46828,2,0,B|46:153|46:153|54:212,1,100,2|10,0:0|0:0,0:0:0:0:
65,256,47292,1,2,0:0:0:0:
92,341,47601,2,0,L|142:327,1,50,2|10,0:0|0:0,0:0:0:0:
184,316,47911,1,0,0:0:0:0:
184,316,48065,2,0,P|227:308|289:340,1,100,2|10,0:0|0:0,0:0:0:0:
367,340,48684,6,0,L|392:243,1,100,2|10,0:0|0:0,0:0:0:0:
429,217,49148,1,0,0:0:0:0:
429,217,49302,1,2,0:0:0:0:
404,130,49612,1,10,0:0:0:0:
358,133,49766,2,0,P|309:138|265:116,1,100,6|2,0:0|0:0,0:0:0:0:
231,86,50230,1,10,0:0:0:0:
151,127,50539,2,0,L|136:174,1,50,2|2,0:0|0:0,0:0:0:0:
134,220,50849,2,0,L|148:267,1,50,2|10,0:0|0:0,0:0:0:0:
152,312,51158,5,2,0:0:0:0:
302,280,56678,22,0,L|192:271,1,100,6|10,0:0|0:0,0:0:0:0:
152,267,57142,1,0,0:0:0:0:
152,267,57296,2,0,P|160:216|135:171,1,100,2|10,0:0|0:0,0:0:0:0:
98,143,57760,1,2,0:0:0:0:
87,43,58069,2,0,L|145:37,1,50,2|10,0:0|0:0,0:0:0:0:
184,68,58379,1,0,0:0:0:0:
184,68,58533,2,0,L|287:58,1,100,2|10,0:0|0:0,0:0:0:0:
383,59,59152,6,0,P|391:82|395:107,1,50,6|4,0:0|0:3,0:0:0:0:
384,156,59461,1,2,0:0:0:0:
383,156,59616,2,0,P|382:205|399:252,1,100,10|2,0:0|0:0,0:0:0:0:
431,291,60080,1,10,0:0:0:0:
431,291,60234,1,2,0:0:0:0:
19,337,61626,22,0,L|28:282,1,55.0000016784668,14|2,0:0|0:0,0:0:0:0:
40,234,61935,1,2,0:0:0:0:
40,234,62090,2,0,L|49:179,1,55.0000016784668,14|0,0:0|0:0,0:0:0:0:
147,193,62554,2,0,L|178:147,1,55.0000016784668,14|2,0:0|0:0,0:0:0:0:
209,108,62863,1,2,0:0:0:0:
209,108,63018,2,0,L|240:62,1,55.0000016784668,14|0,0:0|0:0,0:0:0:0:
322,117,63482,2,0,L|369:89,1,55.0000016784668,14|10,0:0|0:3,0:0:0:0:
414,66,63791,1,6,0:3:0:0:
414,66,63946,1,6,0:3:0:0:
494,130,64255,5,2,0:0:0:0:
494,130,64409,2,0,P|482:155|481:183,1,55.0000016784668,2|14,0:0|0:0,0:0:0:0:
482,231,64719,2,0,P|486:257|480:284,2,55.0000016784668,2|2|14,0:0|0:0|0:0,0:0:0:0:
385,251,65337,2,0,L|275:237,1,110.000003356934,2|2,0:0|0:0,0:0:0:0:
234,264,65801,1,2,0:0:0:0:
234,264,65956,2,0,L|179:257,1,55.0000016784668,14|0,0:0|0:0,0:0:0:0:
137,283,66265,1,14,0:0:0:0:
38,272,66574,37,14,0:0:0:0:
90,187,66884,2,0,P|93:132|78:79,1,110.000003356934,2|0,3:2|0:0,0:0:0:0:
56,35,67348,1,2,0:0:0:0:
56,35,67502,2,0,L|110:26,1,55.0000016784668,14|0,0:0|0:0,0:0:0:0:
159,21,67812,2,0,B|186:65|186:65|190:122,1,110.000003356934,2|2,0:0|0:0,0:0:0:0:
172,219,68430,2,0,L|226:210,1,55.0000016784668,14|10,0:0|0:3,0:0:0:0:
267,182,68739,2,0,L|321:173,1,55.0000016784668,6|6,0:3|0:3,0:0:0:0:
370,166,69049,5,14,0:0:0:0:
412,254,69358,2,0,P|453:218|469:166,1,110.000003356934,2|0,0:0|0:0,0:0:0:0:
459,117,69822,2,0,L|447:59,1,55.0000016784668,2|14,0:0|0:0,0:0:0:0:
351,37,70286,1,2,0:0:0:0:
351,36,70440,2,0,P|307:69|253:70,1,110.000003356934,14|10,0:0|0:3,0:0:0:0:
204,61,70904,2,0,P|178:50|151:45,2,55.0000016784668,6|6|14,0:3|0:3|0:0,0:0:0:0:
43,78,71987,38,0,P|37:119|46:148,1,55.0000016784668,14|0,0:0|0:0,0:0:0:0:
112,197,72451,2,0,P|119:224|116:251,1,55.0000016784668,14|2,0:0|0:0,0:0:0:0:
84,289,72760,1,2,0:0:0:0:
84,289,72915,2,0,L|138:284,1,55.0000016784668,14|0,0:0|0:0,0:0:0:0:
230,321,73379,2,0,L|284:316,1,55.0000016784668,14|10,0:0|0:3,0:0:0:0:
334,310,73688,1,6,0:3:0:0:
334,310,73842,1,6,0:3:0:0:
428,274,74152,6,0,P|434:300|431:328,2,55.0000016784668,2|2|14,0:0|0:0|0:0,0:0:0:0:
404,230,74616,1,2,0:0:0:0:
404,230,74770,2,0,P|397:203|401:176,1,55.0000016784668,2|14,0:0|0:0,0:0:0:0:
429,134,75080,2,0,L|484:127,2,55.0000016784668,2|2|14,0:0|0:0|0:0,0:0:0:0:
333,107,75698,1,2,0:0:0:0:
333,107,75853,2,0,L|278:114,1,55.0000016784668,14|0,0:0|0:0,0:0:0:0:
228,116,76162,1,14,0:0:0:0:
129,114,76471,37,14,0:0:0:0:
43,164,76781,2,0,B|30:193|30:193|55:272,1,110.000003356934,0|2,0:0|0:0,0:0:0:0:
102,277,77245,1,0,0:0:0:0:
102,277,77399,2,0,L|156:286,1,55.0000016784668,14|2,0:0|0:0,0:0:0:0:
204,291,77709,2,0,P|258:283|310:301,1,110.000003356934,2|0,0:0|0:0,0:0:0:0:
403,336,78327,2,0,L|430:288,1,55.0000016784668,14|10,0:0|0:3,0:0:0:0:
438,239,78636,2,0,L|410:191,1,55.0000016784668,6|6,0:3|0:3,0:0:0:0:
384,148,78946,6,0,P|334:125|280:134,1,110.000003356934,14|2,0:0|0:0,0:0:0:0:
232,146,79409,1,14,0:0:0:0:
232,146,79564,2,0,P|242:172|245:199,1,55.0000016784668,0|2,0:0|0:0,0:0:0:0:
242,249,79873,1,14,0:0:0:0:
161,306,80183,2,0,L|144:253,1,55.0000016784668,8|8,0:0|0:0,0:0:0:0:
101,277,80492,2,0,L|99:222,1,55.0000016784668,8|8,0:3|0:3,0:0:0:0:
50,233,80801,2,0,L|62:179,1,55.0000016784668,8|0,0:0|0:0,0:0:0:0:
12,177,81110,2,0,L|37:128,1,55.0000016784668,4|4,0:3|0:3,0:0:0:0:
62,85,81420,21,4,0:0:0:0:
198,137,81884,1,2,0:0:0:0:
245,129,82039,2,0,L|282:123,1,37.5000014305115,10|2,0:0|0:0,0:0:0:0:
427,104,82657,1,6,0:0:0:0:
427,104,82812,2,0,P|449:133|453:170,1,75.0000028610231,0|2,0:0|0:0,0:0:0:0:
440,217,83275,1,10,0:0:0:0:
440,217,83430,2,0,L|456:267,1,37.5000014305115,2|0,0:0|0:0,0:0:0:0:
486,344,83894,37,6,0:0:0:0:
342,314,84358,1,2,0:0:0:0:
295,298,84513,2,0,P|276:300|258:304,1,37.5000014305115,10|2,0:0|0:0,0:0:0:0:
118,346,85131,1,6,0:0:0:0:
55,213,85595,1,2,0:0:0:0:
55,213,85750,2,0,L|78:171,1,37.5000014305115,10|2,0:0|0:0,0:0:0:0:
112,151,86059,2,0,L|147:138,1,37.5000014305115,6|6,0:3|0:3,0:0:0:0:
195,128,86368,22,0,P|250:144|304:132,1,110.000003356934,14|8,0:0|0:0,0:0:0:0:
347,112,86832,2,0,L|351:221,1,110.000003356934,8|8,0:3|0:3,0:0:0:0:
350,271,87296,1,8,0:3:0:0:
256,304,87605,1,12,0:0:0:0:
256,304,87760,2,0,B|223:284|223:284|152:297,1,110.000003356934,0|8,0:0|0:0,0:0:0:0:
105,312,88224,2,0,L|99:257,1,55.0000016784668,6|6,0:3|0:3,0:0:0:0:
75,213,88533,2,0,L|69:158,1,55.0000016784668,6|6,0:3|0:3,0:0:0:0:
99,73,88997,5,12,0:0:0:0:
