osu file format v14

[General]
AudioFilename: audio.mp3
AudioLeadIn: 0
PreviewTime: 55108
Countdown: 0
SampleSet: None
StackLeniency: 0.8
Mode: 0
LetterboxInBreaks: 0
WidescreenStoryboard: 1

[Editor]
Bookmarks: -59,721,20654,22873,27510,46590
DistanceSpacing: 1.2
BeatDivisor: 4
GridSize: 16
TimelineZoom: 2.2

[Metadata]
Title:New Stranger (TV size)
TitleUnicode:New Stranger (TV size)
Artist:sora tob sakana
ArtistUnicode:sora tob sakana
Creator:Eqeminiv
Version:Hard
Source:High Score Girl
Tags:high score girl hi sora tob sakana new stranger
BeatmapID:1744328
BeatmapSetID:832646

[Difficulty]
HPDrainRate:5
CircleSize:4
OverallDifficulty:6.5
ApproachRate:8
SliderMultiplier:1.4
SliderTickRate:1

[Events]
//Background and Video events
0,0,"mpc-hc64_nvo_2018-09-07_00-24-58.png",0,0
//Break Periods
//Storyboard Layer 0 (Background)
//Storyboard Layer 1 (Fail)
//Storyboard Layer 2 (Pass)
//Storyboard Layer 3 (Foreground)
//Storyboard Sound Samples

[TimingPoints]
84,315.789473684211,4,3,0,60,1,0
84,-80,4,3,0,60,0,0
9713,-400,4,3,0,60,0,0
10344,-80,4,3,0,60,0,0
17764,-133.333333333333,4,3,0,60,0,0
19185,-80,4,3,0,60,0,0
40496,-133.333333333333,4,3,0,60,0,0
55177,-80,4,3,0,60,0,0
78225,-200,4,3,0,60,0,0
81856,-80,4,3,0,60,0,0
83987,-200,4,3,0,60,0,0
84539,-80,4,3,0,60,0,0
87381,-200,4,3,0,60,0,0

[HitObjects]
211,200,84,6,0,P|273:152|364:206,1,175,8|0,0:0|0:0,0:0:0:0:
391,184,1189,2,0,L|236:78,1,175,4|0,0:0|0:0,0:0:0:0:
119,318,2136,6,0,L|206:198,1,131.25,4|0,0:0|0:0,0:0:0:0:
252,129,2610,1,0,0:0:0:0:
133,109,3557,1,0,0:0:0:0:
133,109,3715,2,0,P|154:199|88:285,1,175,4|0,0:0|0:0,0:0:0:0:
209,212,4347,2,0,P|123:215|72:144,1,175,8|0,0:0|0:0,0:0:0:0:
181,160,4899,2,0,L|62:245,1,131.25,0|8,0:0|0:0,0:0:0:0:
156,275,6241,6,0,P|201:310|322:254,1,175,8|0,0:0|0:0,0:0:0:0:
248,114,7189,6,0,L|166:182,1,87.5,8|0,0:0|0:0,0:0:0:0:
133,216,7426,2,0,L|271:301,1,131.25,8|0,0:0|0:0,0:0:0:0:
190,236,8768,6,0,L|273:298,1,87.5,8|0,0:0|0:0,0:0:0:0:
346,274,9084,2,0,L|359:167,1,87.5
321,89,9399,5,0,0:0:0:0:
241,89,9557,1,0,0:0:0:0:
248,175,9715,2,0,L|237:188,2,17.5,8|4|0,0:0|0:0|0:0,0:0:0:0:
301,138,10189,1,0,0:0:0:0:
320,50,10347,5,8,0:0:0:0:
320,50,10505,2,0,P|257:68|265:112,1,87.5,8|0,0:0|0:0,0:0:0:0:
248,164,10820,2,0,P|233:206|247:252,1,87.5
286,294,11136,2,0,P|351:286|380:267,1,87.5
386,197,11452,1,0,0:0:0:0:
386,197,11610,2,0,P|447:219|425:336,1,175,8|0,0:0|0:0,0:0:0:0:
361,323,12084,2,0,B|199:369|152:221,1,262.5,8|0,0:0|0:0,0:0:0:0:
140,105,12715,6,0,P|107:71|66:53,1,87.5,8|0,0:0|0:0,0:0:0:0:
127,180,13031,2,0,P|71:219|36:197,1,87.5,8|0,0:0|0:0,0:0:0:0:
45,286,13347,2,0,P|112:291|140:286,1,87.5
211,300,13662,1,0,0:0:0:0:
297,311,13820,2,0,L|372:265,1,87.5,8|0,0:0|0:0,0:0:0:0:
409,168,14136,1,0,0:0:0:0:
337,204,14294,2,0,B|290:243|274:202|257:120|181:145,1,175
103,107,14768,1,0,0:0:0:0:
164,186,14926,5,0,0:0:0:0:
70,190,15084,1,0,0:0:0:0:
86,261,15241,2,0,B|125:314|101:330|163:304,1,87.5,8|0,0:0|0:0,0:0:0:0:
221,258,15557,2,0,P|262:217|274:173,1,87.5,8|0,0:0|0:0,0:0:0:0:
299,98,15873,2,0,P|374:66|395:82,1,87.5
394,173,16189,1,0,0:0:0:0:
361,262,16347,1,8,0:0:0:0:
253,271,16662,2,0,B|179:269|148:309|145:240|145:253,1,87.5,8|0,0:0|0:0,0:0:0:0:
98,214,16978,1,0,0:0:0:0:
80,233,17294,2,0,L|61:324,2,87.5
281,194,17768,6,0,P|240:228|191:201,1,105.000004005432,8|4,0:0|0:0,0:0:0:0:
189,294,18241,2,0,P|240:315|277:285,1,105.000004005432,4|8,0:0|0:0,0:0:0:0:
366,272,18715,2,0,P|408:316|379:347,1,105.000004005432,8|0,0:0|0:0,0:0:0:0:
356,196,19189,6,0,L|366:94,1,87.5,8|0,0:0|0:0,0:0:0:0:
286,109,19505,2,0,L|280:219,1,87.5,8|0,0:0|0:0,0:0:0:0:
236,262,19820,1,0,0:0:0:0:
160,269,19978,1,8,0:0:0:0:
107,215,20136,2,0,L|107:122,1,87.5
240,227,20610,5,8,0:0:0:0:
322,246,20768,1,0,0:0:0:0:
400,239,20926,2,0,P|433:197|411:156,1,87.5,8|0,0:0|0:0,0:0:0:0:
476,343,21399,6,0,P|456:288|407:289,1,87.5,8|0,0:0|0:0,0:0:0:0:
315,289,21715,2,0,P|242:296|223:258,1,87.5
160,211,22031,2,0,B|110:192|92:152|144:77|216:105,1,175,8|8,0:0|0:0,0:0:0:0:
319,278,22662,5,0,0:0:0:0:
223,211,22820,1,0,0:0:0:0:
141,277,22978,1,0,0:0:0:0:
93,164,23136,2,0,P|136:127|190:115,1,87.5,8|0,0:0|0:0,0:0:0:0:
251,89,23452,1,0,0:0:0:0:
353,95,23610,2,0,P|381:147|361:180,1,87.5
346,245,23926,2,0,L|260:267,1,87.5,8|0,0:0|0:0,0:0:0:0:
309,99,24241,6,0,L|315:150,2,43.75
391,157,24557,2,0,L|447:166,10,43.75
220,51,25662,6,0,P|270:73|261:95,1,87.5
226,147,25978,2,0,P|185:186|202:235,1,87.5,8|0,0:0|0:0,0:0:0:0:
262,299,26452,2,0,P|288:327|333:343,1,87.5,8|0,0:0|0:0,0:0:0:0:
418,270,26768,1,0,0:0:0:0:
325,104,26926,1,0,0:0:0:0:
425,166,27084,2,0,B|358:216|268:202|248:228|247:248|247:248|246:255,1,175
319,152,27715,5,0,0:0:0:0:
292,178,27873,1,0,0:0:0:0:
266,202,28031,1,8,0:0:0:0:
241,228,28189,1,0,0:0:0:0:
216,263,28347,1,0,0:0:0:0:
183,296,28505,2,0,B|115:356|46:348|143:226|116:212,1,175,8|0,0:0|0:0,0:0:0:0:
133,149,28978,1,0,0:0:0:0:
130,72,29294,2,0,B|223:66|273:97|308:128|305:143,1,175
270,187,29926,1,0,0:0:0:0:
339,208,30084,2,0,B|383:255|437:235|311:338|469:328,1,175,8|0,0:0|0:0,0:0:0:0:
454,180,30715,5,8,0:0:0:0:
384,137,30873,1,0,0:0:0:0:
279,91,31031,2,0,P|225:111|228:144,1,87.5
216,213,31505,1,8,0:0:0:0:
293,167,31662,1,0,0:0:0:0:
321,234,31820,2,0,P|244:291|244:291,1,87.5,8|0,0:0|0:0,0:0:0:0:
177,301,32136,2,0,P|94:292|61:204,1,175,8|8,0:0|0:0,0:0:0:0:
134,119,32610,1,0,0:0:0:0:
217,62,32768,6,0,P|255:41|287:83,1,87.5
310,143,33084,2,0,P|370:123|384:99,1,87.5,8|0,0:0|0:0,0:0:0:0:
459,80,33399,2,0,P|454:138|431:179,1,87.5
434,240,33715,2,0,P|435:264|434:338,1,87.5,0|4,0:0|0:0,0:0:0:0:
342,324,34031,1,8,0:0:0:0:
246,278,34347,1,0,0:0:0:0:
312,236,34662,2,0,B|366:216|380:179|388:128|380:84|366:62,1,175
273,78,35215,2,0,P|222:142|271:180,1,131.25,8|8,0:0|0:0,0:0:0:0:
251,308,35768,5,0,0:0:0:0:
315,290,35926,1,0,0:0:0:0:
351,234,36084,2,0,P|334:174|293:180,1,87.5,8|0,0:0|0:0,0:0:0:0:
195,210,36399,1,0,0:0:0:0:
123,122,36557,2,0,B|165:58|202:83|281:106,1,175,8|0,0:0|0:0,0:0:0:0:
349,135,37031,1,0,0:0:0:0:
353,207,37347,2,0,P|335:262|294:267,1,87.5,8|0,0:0|0:0,0:0:0:0:
257,223,37978,5,8,0:0:0:0:
277,280,38136,1,0,0:0:0:0:
312,307,38294,2,0,P|359:313|379:277,1,87.5
399,175,38768,1,0,0:0:0:0:
345,58,39084,1,0,0:0:0:0:
213,46,39557,1,8,0:0:0:0:
137,146,39873,6,0,P|194:203|185:213,1,87.5,8|0,0:0|0:0,0:0:0:0:
253,261,40189,1,0,0:0:0:0:
321,241,40347,1,0,0:0:0:0:
343,177,40505,1,0,0:0:0:0:
154,214,40820,5,8,0:0:0:0:
228,235,40978,2,0,P|280:225|315:185,1,105.000004005432,8|0,0:0|0:0,0:0:0:0:
343,75,41452,1,0,0:0:0:0:
419,137,41610,2,0,P|438:178|400:235,1,105.000004005432,8|0,0:0|0:0,0:0:0:0:
339,268,42084,1,0,0:0:0:0:
255,197,42241,1,0,0:0:0:0:
161,116,42399,2,0,B|115:119|108:138|108:138,1,52.5000020027161,8|0,0:0|0:0,0:0:0:0:
80,240,42715,1,8,0:0:0:0:
170,318,42873,2,0,L|198:263,1,52.5000020027161
189,144,43347,5,0,0:0:0:0:
281,198,43505,1,0,0:0:0:0:
364,155,43662,2,0,P|401:139|422:113,1,52.5000020027161,8|0,0:0|0:0,0:0:0:0:
441,60,43978,1,0,0:0:0:0:
358,42,44136,2,0,B|318:44|284:43|257:74,1,105.000004005432
158,138,44610,1,0,0:0:0:0:
262,309,44926,6,0,P|306:283|309:265,1,52.5000020027161,8|8,0:0|0:0,0:0:0:0:
331,221,45241,1,0,0:0:0:0:
323,148,45399,2,0,L|311:91,1,52.5000020027161
321,292,45873,5,8,0:0:0:0:
310,200,46031,1,0,0:0:0:0:
286,108,46189,2,0,L|214:112,1,52.5000020027161,8|0,0:0|0:0,0:0:0:0:
128,153,46505,1,0,0:0:0:0:
70,228,46662,2,0,P|85:254|125:266,1,52.5000020027161,8|0,0:0|0:0,0:0:0:0:
181,242,46978,1,0,0:0:0:0:
176,162,47136,1,0,0:0:0:0:
231,96,47294,1,0,0:0:0:0:
292,157,47452,2,0,L|302:217,1,52.5000020027161,8|0,0:0|0:0,0:0:0:0:
274,92,48084,5,0,0:0:0:0:
169,96,48241,1,0,0:0:0:0:
185,205,48399,2,0,P|224:177|241:158,1,52.5000020027161
319,151,48715,1,0,0:0:0:0:
414,191,48873,2,0,P|430:216|412:224,1,52.5000020027161,8|0,0:0|0:0,0:0:0:0:
204,103,49189,5,8,0:0:0:0:
290,186,49347,1,0,0:0:0:0:
229,263,49505,1,0,0:0:0:0:
343,263,49662,1,8,0:0:0:0:
392,157,49820,1,0,0:0:0:0:
355,63,49978,2,0,P|378:33|400:45,2,52.5000020027161,8|0|8,0:0|0:0|0:0,0:0:0:0:
207,138,50610,6,0,L|119:71,1,105.000004005432
71,94,51084,2,0,P|52:127|40:193,1,105.000004005432,0|8,0:0|0:0,0:0:0:0:
73,248,51557,2,0,B|84:290|98:305|117:324|159:334,1,105.000004005432,8|0,0:0|0:0,0:0:0:0:
262,327,52031,1,0,0:0:0:0:
341,252,52189,1,0,0:0:0:0:
247,219,52347,1,8,0:0:0:0:
196,134,52505,1,0,0:0:0:0:
289,114,52662,2,0,L|330:155,1,52.5000020027161,8|0,0:0|0:0,0:0:0:0:
380,218,52978,1,0,0:0:0:0:
397,302,53136,2,0,B|368:331|278:315|278:315,1,105.000004005432,8|0,0:0|0:0,0:0:0:0:
218,326,53610,5,0,0:0:0:0:
134,299,53768,2,0,L|189:250,1,52.5000020027161,8|0,0:0|0:0,0:0:0:0:
230,190,54241,1,0,0:0:0:0:
150,98,54557,1,0,0:0:0:0:
296,104,54873,1,0,0:0:0:0:
361,279,55189,5,0,0:0:0:0:
302,251,55347,1,0,0:0:0:0:
246,211,55505,1,0,0:0:0:0:
189,171,55662,6,0,P|122:136|69:43,1,175,8|8,0:0|0:0,0:0:0:0:
218,55,56136,1,0,0:0:0:0:
318,96,56452,1,0,0:0:0:0:
402,146,56768,2,0,P|423:209|380:311,1,175,8|8,0:0|0:0,0:0:0:0:
219,292,57399,1,0,0:0:0:0:
127,208,57715,6,0,L|97:126,1,87.5,8|0,0:0|0:0,0:0:0:0:
146,53,58031,1,0,0:0:0:0:
241,38,58189,1,8,0:0:0:0:
238,118,58347,2,0,P|243:154|221:199,1,87.5
299,240,58662,1,0,0:0:0:0:
344,141,58820,1,8,0:0:0:0:
411,199,58978,2,0,P|420:251|392:260,1,87.5
346,315,59294,1,0,0:0:0:0:
266,302,59610,2,0,B|184:334|167:322|132:343|67:343,1,175,8|8,0:0|0:0,0:0:0:0:
225,143,60399,5,0,0:0:0:0:
288,136,60557,1,0,0:0:0:0:
351,138,60715,2,0,P|388:182|368:198,1,87.5,8|0,0:0|0:0,0:0:0:0:
336,256,61031,1,0,0:0:0:0:
220,264,61189,1,8,0:0:0:0:
114,275,61347,2,0,P|80:227|94:202,1,87.5
131,112,61662,1,0,0:0:0:0:
254,66,61820,6,0,B|312:82|340:105|365:151|365:288,1,262.5
169,122,62610,5,0,0:0:0:0:
128,149,62768,1,0,0:0:0:0:
101,179,62926,2,0,P|92:242|123:268,1,87.5,8|0,0:0|0:0,0:0:0:0:
219,163,63399,1,0,0:0:0:0:
197,227,63557,2,0,P|222:289|251:292,1,87.5,8|0,0:0|0:0,0:0:0:0:
258,135,64031,1,0,0:0:0:0:
297,162,64189,2,0,B|355:211|382:196|388:180,1,87.5,8|0,0:0|0:0,0:0:0:0:
398,264,64662,1,0,0:0:0:0:
314,211,64820,2,0,L|196:186,1,116.666666666667,8|0,0:0|0:0,0:0:0:0:
159,46,65136,6,0,L|174:109,5,58.3333333333333,8|0|0|0|0|0,0:0|0:0|0:0|0:0|0:0|0:0,0:0:0:0:
239,108,65768,6,0,L|283:54,5,58.3333333333333,8|0|0|0|0|0,0:0|0:0|0:0|0:0|0:0|0:0,0:0:0:0:
240,153,66399,2,0,B|159:157|153:158,5,58.3333333333333,8|0|0|0|0|0,0:0|0:0|0:0|0:0|0:0|0:0,0:0:0:0:
105,216,67031,2,0,L|183:212,5,58.3333333333333,8|0|0|0|0|0,0:0|0:0|0:0|0:0|0:0|0:0,0:0:0:0:
145,279,67662,2,0,L|210:258,5,58.3333333333333,8|0|0|0|0|0,0:0|0:0|0:0|0:0|0:0|0:0,0:0:0:0:
416,82,68294,5,0,0:0:0:0:
356,126,68452,1,0,0:0:0:0:
281,169,68610,2,0,L|183:213,1,87.5,8|0,0:0|0:0,0:0:0:0:
107,186,68926,1,0,0:0:0:0:
179,136,69084,2,0,P|219:92|205:51,1,87.5,8|0,0:0|0:0,0:0:0:0:
123,45,69399,1,0,0:0:0:0:
51,123,69557,1,0,0:0:0:0:
82,203,69715,2,0,L|156:268,1,87.5,8|0,0:0|0:0,0:0:0:0:
229,238,70031,1,0,0:0:0:0:
313,273,70189,1,0,0:0:0:0:
241,323,70347,1,0,0:0:0:0:
166,329,70505,6,0,P|88:249|130:218,1,175,8|0,0:0|0:0,0:0:0:0:
168,176,70978,2,0,L|125:93,1,87.5,8|0,0:0|0:0,0:0:0:0:
205,47,71294,1,0,0:0:0:0:
266,126,71452,1,0,0:0:0:0:
259,214,71610,2,0,L|346:182,2,87.5
202,248,72084,2,0,P|202:314|182:335,2,87.5,8|0|0,0:0|0:0|0:0,0:0:0:0:
127,234,72557,2,0,P|86:198|107:83,1,175,8|0,0:0|0:0,0:0:0:0:
192,72,73031,1,0,0:0:0:0:
299,56,73189,2,0,B|366:82|399:121|425:176|419:233|379:285|312:297|252:312|180:295,1,437.5
134,209,74136,5,0,0:0:0:0:
225,150,74294,2,0,P|255:207|299:224,1,87.5,8|0,0:0|0:0,0:0:0:0:
361,159,74768,1,0,0:0:0:0:
391,70,74926,2,0,P|482:103|488:117,1,87.5,8|0,0:0|0:0,0:0:0:0:
437,182,75241,1,0,0:0:0:0:
406,255,75399,1,0,0:0:0:0:
324,230,75557,1,0,0:0:0:0:
218,149,75873,5,8,0:0:0:0:
193,218,76031,1,0,0:0:0:0:
261,264,76189,2,0,L|194:326,1,87.5,8|0,0:0|0:0,0:0:0:0:
118,248,76505,1,0,0:0:0:0:
74,167,76662,1,0,0:0:0:0:
158,93,76820,2,0,P|200:82|234:51,1,87.5,8|0,0:0|0:0,0:0:0:0:
333,288,77136,5,0,0:0:0:0:
396,217,77294,1,0,0:0:0:0:
310,163,77452,1,0,0:0:0:0:
241,227,77610,1,0,0:0:0:0:
313,286,77768,1,0,0:0:0:0:
319,197,77926,1,8,0:0:0:0:
166,71,78084,5,0,0:0:0:0:
141,112,78241,2,0,P|130:158|132:215,1,105,8|0,0:0|0:0,0:0:0:0:
170,297,79031,1,0,0:0:0:0:
170,297,79189,1,8,0:0:0:0:
270,318,79505,2,0,P|305:292|310:256,1,70,8|0,0:0|0:0,0:0:0:0:
320,183,80136,1,0,0:0:0:0:
306,75,80452,6,0,L|263:97,1,35,8|0,0:0|0:0,0:0:0:0:
213,127,80689,2,0,L|235:169,1,35,8|0,0:0|0:0,0:0:0:0:
260,211,80926,1,0,0:0:0:0:
215,68,81557,5,0,0:0:0:0:
103,122,81873,1,0,0:0:0:0:
69,205,82031,2,0,B|114:269|165:288|212:288|251:282,1,175,8|0,0:0|0:0,0:0:0:0:
362,260,82662,2,0,B|398:202|401:157|378:93|344:69,1,175,8|0,0:0|0:0,0:0:0:0:
292,107,83215,2,0,B|342:173|309:222|289:245,1,131.25,8|4,0:0|0:0,0:0:0:0:
135,321,84557,6,0,P|198:243|288:278,1,175,8|0,0:0|0:0,0:0:0:0:
200,254,85505,6,0,L|133:171,1,87.5,8|0,0:0|0:0,0:0:0:0:
212,126,85741,2,0,L|303:229,1,131.25,8|0,0:0|0:0,0:0:0:0:
293,239,87084,6,0,L|329:139,1,87.5,8|0,0:0|0:0,0:0:0:0:
393,208,87399,2,0,B|482:210|458:208,1,70,8|0,0:0|0:0,0:0:0:0:
453,290,87873,1,0,0:0:0:0:
359,307,88031,1,0,0:0:0:0:
266,285,88189,1,8,0:0:0:0:
256,183,88347,1,2,0:0:0:0:
