osu file format v14

[General]
AudioFilename: audio.mp3
AudioLeadIn: 0
PreviewTime: 55108
Countdown: 0
SampleSet: None
StackLeniency: 0.7
Mode: 0
LetterboxInBreaks: 0
WidescreenStoryboard: 0

[Editor]
DistanceSpacing: 1.2
BeatDivisor: 4
GridSize: 16
TimelineZoom: 2.2

[Metadata]
Title:New Stranger (TV size)
TitleUnicode:New Stranger (TV size)
Artist:sora tob sakana
ArtistUnicode:sora tob sakana
Creator:Eqeminiv
Version:Extra
Source:High Score Girl
Tags:high score girl hi sora tob sakana new stranger
BeatmapID:1744327
BeatmapSetID:832646

[Difficulty]
HPDrainRate:7
CircleSize:3.8
OverallDifficulty:7.5
ApproachRate:9.2
SliderMultiplier:1.4
SliderTickRate:1

[Events]
//Background and Video events
0,0,"mpc-hc64_nvo_2018-09-18_16-15-22.jpg",0,0
//Break Periods
//Storyboard Layer 0 (Background)
//Storyboard Layer 1 (Fail)
//Storyboard Layer 2 (Pass)
//Storyboard Layer 3 (Foreground)
//Storyboard Sound Samples

[TimingPoints]
84,315.789473684211,4,3,0,60,1,0
84,-66.6666666666667,4,3,0,60,0,0
557,-200,4,3,0,60,0,0
1189,-66.6666666666667,4,3,0,60,0,0
2926,-200,4,3,0,60,0,0
3557,-66.6666666666667,4,3,0,60,0,0
5688,-200,4,3,0,60,0,0
6240,-66.6666666666667,4,3,0,60,0,0
7978,-400,4,3,0,60,0,0
8768,-66.6666666666667,4,3,0,60,0,0
9713,-400,4,3,0,60,0,0
10344,-66.6666666666667,4,3,0,60,0,0
17764,-133.333333333333,4,3,0,60,0,0
19185,-66.6666666666667,4,3,0,60,0,0
40496,-133.333333333333,4,3,0,60,0,0
55177,-66.6666666666667,4,3,0,60,0,1
78225,-200,4,3,0,60,0,0
81856,-66.6666666666667,4,3,0,60,0,0
83987,-200,4,3,0,60,0,0
84539,-66.6666666666667,4,3,0,60,0,0
85031,-200,4,3,0,60,0,0
85505,-66.6666666666667,4,3,0,60,0,0
87381,-200,4,3,0,60,0,0

[Colours]
Combo1 : 158,30,162
Combo2 : 78,7,120
Combo3 : 214,45,20
Combo4 : 17,149,83
Combo5 : 187,26,95

[HitObjects]
208,192,84,6,0,P|288:144|366:201,1,157.500006008148,8|0,0:0|0:0,0:0:0:0:
362,195,399,1,0,0:0:0:0:
385,235,478,1,0,0:0:0:0:
369,275,557,1,0,0:0:0:0:
329,294,636,2,0,L|247:301,1,70
347,197,1189,2,0,P|336:130|214:77,1,210.000008010865
270,220,1662,2,0,L|221:255,3,52.5000020027161
39,329,2136,6,0,L|48:224,1,105.000004005432,4|0,0:0|0:0,0:0:0:0:
73,86,2373,2,0,L|192:96,1,105.000004005432,4|0,0:0|0:0,0:0:0:0:
326,188,2610,2,0,P|393:186|414:97,1,157.500006008148,8|0,0:0|0:0,0:0:0:0:
399,72,2926,1,0,0:0:0:0:
368,54,3005,1,0,0:0:0:0:
321,44,3084,1,0,0:0:0:0:
280,43,3162,2,0,L|251:45,3,17.5
316,104,3557,5,4,0:0:0:0:
334,128,3715,2,0,P|355:218|279:309,1,210.000008010865,4|0,0:0|0:0,0:0:0:0:
471,245,4347,2,0,P|385:248|323:140,1,210.000008010865,8|0,0:0|0:0,0:0:0:0:
320,94,4899,2,0,P|242:80|184:151,1,157.500006008148
189,129,5452,6,0,P|182:107|196:70,2,52.5000020027161,8|0|0,0:0|0:0|0:0,0:0:0:0:
243,57,5689,2,0,P|274:51|337:77,1,87.5,8|4,0:0|0:0,0:0:0:0:
90,182,6241,6,0,P|135:217|271:160,1,210.000008010865,8|0,0:0|0:0,0:0:0:0:
380,180,6715,2,0,L|387:232,4,52.5000020027161
248,114,7189,6,0,P|186:135|162:186,1,105.000004005432,8|0,0:0|0:0,0:0:0:0:
248,114,7426,2,0,P|308:134|325:194,1,105.000004005432,8|0,0:0|0:0,0:0:0:0:
356,224,7662,1,0,0:0:0:0:
232,147,7978,6,0,B|201:167|215:176|219:186|191:209,1,70
25,273,8768,6,0,L|144:288,1,105.000004005432,8|0,0:0|0:0,0:0:0:0:
189,329,9084,2,0,L|320:320,1,105.000004005432,8|0,0:0|0:0,0:0:0:0:
339,180,9399,5,0,0:0:0:0:
252,79,9557,1,0,0:0:0:0:
112,112,9715,2,0,L|128:144,1,35,8|4,0:0|0:0,0:0:0:0:
257,193,10189,5,2,0:0:0:0:
443,136,10347,5,8,0:0:0:0:
320,50,10505,2,0,P|257:68|268:121,1,105.000004005432,8|0,0:0|0:0,0:0:0:0:
157,44,10820,2,0,P|123:102|152:124,1,105.000004005432,8|0,0:0|0:0,0:0:0:0:
236,241,11136,1,0,0:0:0:0:
292,256,11215,1,0,0:0:0:0:
349,271,11294,1,0,0:0:0:0:
336,159,11452,1,0,0:0:0:0:
371,131,11610,2,0,P|432:153|405:282,1,210.000008010865,8|0,0:0|0:0,0:0:0:0:
192,278,12084,2,0,B|251:237|202:203|188:134|199:90|263:41|332:23,1,315.000012016297,8|0,0:0|0:0,0:0:0:0:
367,262,12715,6,0,P|322:304|276:286,1,105.000004005432,8|0,0:0|0:0,0:0:0:0:
343,173,13031,2,0,P|287:212|247:189,1,105.000004005432,8|0,0:0|0:0,0:0:0:0:
130,276,13347,1,0,0:0:0:0:
95,249,13426,1,0,0:0:0:0:
66,221,13505,1,0,0:0:0:0:
142,52,13662,1,0,0:0:0:0:
160,160,13820,2,0,L|288:144,1,105.000004005432,8|0,0:0|0:0,0:0:0:0:
310,65,14136,2,0,L|240:80,1,52.5000020027161
330,138,14294,2,0,B|376:191|332:223|286:214|229:166|394:315|490:135|488:294,1,315.000012016297,8|0,0:0|0:0,0:0:0:0:
311,313,14926,5,0,0:0:0:0:
276,140,15084,1,0,0:0:0:0:
152,201,15241,2,0,B|191:254|66:298|156:254,1,105.000004005432,8|0,0:0|0:0,0:0:0:0:
54,141,15557,2,0,P|95:100|110:45,1,105.000004005432,8|0,0:0|0:0,0:0:0:0:
295,148,15873,1,0,0:0:0:0:
312,136,15952,1,0,0:0:0:0:
312,157,16031,1,0,0:0:0:0:
394,173,16189,5,0,0:0:0:0:
361,262,16347,1,8,0:0:0:0:
307,326,16505,1,0,0:0:0:0:
253,271,16662,2,0,B|179:269|148:309|158:199|159:208,1,105.000004005432,8|0,0:0|0:0,0:0:0:0:
52,178,16978,1,0,0:0:0:0:
52,178,17136,1,0,0:0:0:0:
174,80,17294,5,0,0:0:0:0:
297,95,17452,2,0,P|362:116|397:155,1,105.000004005432
391,279,17768,6,0,P|348:257|301:286,1,105.000004005432,8|4,0:0|0:0,0:0:0:0:
323,51,18241,2,0,P|374:72|411:42,1,105.000004005432,4|8,0:0|0:0,0:0:0:0:
101,152,18715,2,0,P|143:196|114:227,1,105.000004005432,8|0,0:0|0:0,0:0:0:0:
326,246,19189,6,0,P|277:286|214:292,1,105.000004005432,8|0,0:0|0:0,0:0:0:0:
292,192,19505,2,0,P|246:229|188:211,1,105.000004005432,8|0,0:0|0:0,0:0:0:0:
203,140,19820,1,0,0:0:0:0:
88,188,19978,1,8,0:0:0:0:
175,68,20136,1,0,0:0:0:0:
117,87,20215,1,0,0:0:0:0:
62,111,20294,1,8,0:0:0:0:
298,290,20610,5,8,0:0:0:0:
199,208,20768,1,0,0:0:0:0:
188,87,20926,2,0,P|221:45|305:69,1,105.000004005432,8|0,0:0|0:0,0:0:0:0:
476,343,21399,6,0,P|456:288|382:293,1,105.000004005432,8|0,0:0|0:0,0:0:0:0:
248,303,21715,1,0,0:0:0:0:
146,233,21873,1,0,0:0:0:0:
274,186,22031,2,0,B|354:167|360:110|349:64|269:46,1,210.000008010865,8|8,0:0|0:0,0:0:0:0:
373,296,22662,5,0,0:0:0:0:
248,199,22820,1,0,0:0:0:0:
145,278,22978,1,0,0:0:0:0:
93,164,23136,2,0,P|136:127|203:113,1,105.000004005432,8|0,0:0|0:0,0:0:0:0:
331,88,23452,1,0,0:0:0:0:
447,82,23610,2,0,P|475:134|449:173,1,105.000004005432
384,176,23926,2,0,P|336:176|320:112,1,105.000004005432,8|0,0:0|0:0,0:0:0:0:
188,88,24241,5,0,0:0:0:0:
224,133,24320,1,0,0:0:0:0:
257,177,24399,1,8,0:0:0:0:
242,293,24557,5,0,0:0:0:0:
294,264,24636,1,0,0:0:0:0:
345,234,24715,1,8,0:0:0:0:
295,166,24873,5,0,0:0:0:0:
252,198,24952,1,0,0:0:0:0:
211,232,25031,1,8,0:0:0:0:
168,261,25110,1,0,0:0:0:0:
129,290,25189,1,0,0:0:0:0:
358,286,25347,1,8,0:0:0:0:
268,50,25662,5,8,0:0:0:0:
136,107,25820,1,0,0:0:0:0:
272,192,25978,1,0,0:0:0:0:
288,304,26136,2,0,L|352:320,2,52.5000020027161
138,276,26452,2,0,P|107:322|152:338,1,105.000004005432,8|0,0:0|0:0,0:0:0:0:
321,338,26768,1,0,0:0:0:0:
325,104,26926,1,0,0:0:0:0:
416,224,27084,2,0,L|432:160,2,52.5000020027161
181,224,27399,2,0,P|247:198|246:165,2,105.000004005432
85,137,27873,5,0,0:0:0:0:
182,218,28031,1,0,0:0:0:0:
276,117,28189,1,8,0:0:0:0:
355,217,28347,1,0,0:0:0:0:
456,118,28505,1,0,0:0:0:0:
326,137,28662,2,0,B|258:197|228:155|286:67|135:73,1,210.000008010865,8|0,0:0|0:0,0:0:0:0:
51,220,29294,5,0,0:0:0:0:
252,288,29610,1,8,0:0:0:0:
269,103,29926,1,0,0:0:0:0:
155,193,30084,2,0,B|199:240|253:220|127:323|332:314,1,210.000008010865,8|0,0:0|0:0,0:0:0:0:
395,59,30715,5,8,0:0:0:0:
309,106,30873,1,0,0:0:0:0:
206,57,31031,1,0,0:0:0:0:
169,88,31110,1,8,0:0:0:0:
159,137,31189,1,0,0:0:0:0:
197,258,31505,5,8,0:0:0:0:
286,267,31662,1,0,0:0:0:0:
396,142,31820,2,0,P|416:256|416:256,1,105.000004005432,8|0,0:0|0:0,0:0:0:0:
239,280,32136,2,0,P|156:271|221:210,1,210.000008010865,8|8,0:0|0:0,0:0:0:0:
263,190,32768,6,0,P|304:230|340:208,1,105.000004005432
415,208,33084,2,0,P|447:160|412:109,1,105.000004005432,8|0,0:0|0:0,0:0:0:0:
346,33,33399,2,0,P|295:89|233:71,1,105.000004005432
205,51,33715,2,0,P|142:56|156:99,1,105.000004005432,0|4,0:0|0:0,0:0:0:0:
204,150,34031,1,8,0:0:0:0:
135,248,34347,1,0,0:0:0:0:
363,245,34662,1,8,0:0:0:0:
340,108,34978,1,0,0:0:0:0:
174,55,35215,2,0,P|123:119|208:157,1,157.500006008148,8|8,0:0|0:0,0:0:0:0:
295,265,35768,5,0,0:0:0:0:
387,293,35926,1,0,0:0:0:0:
456,189,36084,2,0,P|439:129|406:166,1,105.000004005432,8|0,0:0|0:0,0:0:0:0:
139,201,36399,1,0,0:0:0:0:
86,140,36557,2,0,B|128:76|165:101|235:224,1,210.000008010865,8|0,0:0|0:0,0:0:0:0:
383,38,37031,1,0,0:0:0:0:
276,82,37347,2,0,P|258:137|319:177,1,105.000004005432,8|0,0:0|0:0,0:0:0:0:
358,169,37978,5,8,0:0:0:0:
272,309,38136,1,0,0:0:0:0:
228,162,38294,1,0,0:0:0:0:
408,357,38452,1,0,0:0:0:0:
334,199,38768,1,0,0:0:0:0:
345,58,39084,1,0,0:0:0:0:
213,46,39557,1,8,0:0:0:0:
137,146,39873,6,0,P|194:203|161:224,1,105.000004005432,8|0,0:0|0:0,0:0:0:0:
216,244,40110,1,0,0:0:0:0:
259,268,40189,2,0,B|320:308|371:297|426:270|437:216,1,210.000008010865,8|0,0:0|0:0,0:0:0:0:
217,77,40820,5,8,0:0:0:0:
289,139,40978,2,0,P|341:129|376:89,1,105.000004005432,8|0,0:0|0:0,0:0:0:0:
440,38,41452,1,0,0:0:0:0:
432,254,41610,2,0,P|412:285|363:252,1,105.000004005432,8|0,0:0|0:0,0:0:0:0:
341,93,42084,1,0,0:0:0:0:
267,221,42241,1,0,0:0:0:0:
161,115,42399,2,0,B|115:118|108:137|108:137,1,52.5000020027161,8|0,0:0|0:0,0:0:0:0:
88,268,42715,1,8,0:0:0:0:
318,276,42873,1,0,0:0:0:0:
340,234,42952,1,8,0:0:0:0:
337,180,43031,1,4,0:0:0:0:
124,117,43347,5,0,0:0:0:0:
197,246,43505,1,0,0:0:0:0:
231,109,43662,2,0,P|247:74|277:52,1,52.5000020027161,8|0,0:0|0:0,0:0:0:0:
418,191,43978,1,0,0:0:0:0:
259,335,44136,2,0,B|312:356|330:328|348:277|372:300|372:300,1,105.000004005432,8|8,0:0|0:0,0:0:0:0:
366,204,44610,5,0,0:0:0:0:
199,213,44768,1,0,0:0:0:0:
278,127,44926,2,0,P|322:101|325:83,1,52.5000020027161,8|8,0:0|0:0,0:0:0:0:
238,29,45241,1,0,0:0:0:0:
186,37,45320,1,0,0:0:0:0:
128,60,45399,2,0,P|115:102|125:118,1,52.5000020027161,8|4,0:0|0:0,0:0:0:0:
327,177,45873,5,8,0:0:0:0:
239,208,46031,1,0,0:0:0:0:
259,115,46189,2,0,P|289:89|279:59,1,52.5000020027161,8|0,0:0|0:0,0:0:0:0:
95,200,46505,1,0,0:0:0:0:
255,191,46662,2,0,P|270:217|259:243,1,52.5000020027161,8|0,0:0|0:0,0:0:0:0:
188,296,46978,1,0,0:0:0:0:
170,182,47136,1,0,0:0:0:0:
248,86,47294,1,0,0:0:0:0:
324,173,47452,2,0,P|341:204|328:233,1,52.5000020027161,8|0,0:0|0:0,0:0:0:0:
301,317,47768,5,0,0:0:0:0:
239,303,47847,1,0,0:0:0:0:
198,260,47926,1,0,0:0:0:0:
321,87,48084,1,4,0:0:0:0:
169,96,48241,1,0,0:0:0:0:
363,185,48399,1,8,0:0:0:0:
141,199,48557,1,0,0:0:0:0:
289,68,48715,1,0,0:0:0:0:
85,79,48873,2,0,P|66:97|83:112,1,52.5000020027161,8|0,0:0|0:0,0:0:0:0:
150,174,49189,5,8,0:0:0:0:
326,162,49347,1,0,0:0:0:0:
170,274,49505,1,0,0:0:0:0:
332,257,49662,1,8,0:0:0:0:
396,136,49820,1,0,0:0:0:0:
275,79,49978,2,0,P|298:49|320:61,2,52.5000020027161,8|0|8,0:0|0:0|0:0,0:0:0:0:
374,178,50452,1,0,0:0:0:0:
188,113,50610,6,0,P|74:158|74:158,1,105.000004005432,8|0,0:0|0:0,0:0:0:0:
275,196,51084,2,0,P|243:213|185:263,1,105.000004005432,0|8,0:0|0:0,0:0:0:0:
396,212,51557,2,0,B|381:260|390:277|417:294|447:301,1,105.000004005432,8|0,0:0|0:0,0:0:0:0:
455,122,52031,1,0,0:0:0:0:
252,104,52189,1,0,0:0:0:0:
165,226,52347,1,8,0:0:0:0:
86,68,52505,1,0,0:0:0:0:
256,112,52662,2,0,L|272:176,1,52.5000020027161,8|0,0:0|0:0,0:0:0:0:
361,215,52978,1,0,0:0:0:0:
388,257,53057,1,0,0:0:0:0:
397,302,53136,2,0,B|368:331|278:315|278:315,1,105.000004005432,8|0,0:0|0:0,0:0:0:0:
111,183,53610,5,0,0:0:0:0:
159,302,53768,2,0,L|224:288,1,52.5000020027161,8|0,0:0|0:0,0:0:0:0:
276,217,54241,1,0,0:0:0:0:
142,95,54557,1,0,0:0:0:0:
365,160,54873,1,0,0:0:0:0:
133,109,55189,5,0,0:0:0:0:
279,256,55347,1,0,0:0:0:0:
369,82,55505,1,0,0:0:0:0:
225,62,55662,6,0,P|186:104|276:213,1,210.000008010865,8|8,0:0|0:0,0:0:0:0:
370,164,56136,1,0,0:0:0:0:
380,268,56452,1,0,0:0:0:0:
145,253,56768,2,0,P|95:234|112:96,1,210.000008010865,8|8,0:0|0:0,0:0:0:0:
357,190,57399,1,0,0:0:0:0:
337,272,57715,2,0,L|214:299,1,105.000004005432,8|0,0:0|0:0,0:0:0:0:
211,188,58031,1,0,0:0:0:0:
87,50,58189,5,8,0:0:0:0:
245,111,58347,1,0,0:0:0:0:
63,188,58505,1,0,0:0:0:0:
256,311,58662,1,0,0:0:0:0:
394,114,58820,1,8,0:0:0:0:
197,107,58978,1,0,0:0:0:0:
445,191,59136,1,0,0:0:0:0:
254,336,59294,2,0,L|357:300,1,105.000004005432,8|0,0:0|0:0,0:0:0:0:
400,270,59610,2,0,B|318:302|301:290|263:225|176:312,1,210.000008010865,8|8,0:0|0:0,0:0:0:0:
219,163,60084,1,0,0:0:0:0:
134,87,60241,1,8,0:0:0:0:
287,180,60399,5,0,0:0:0:0:
321,168,60478,1,0,0:0:0:0:
362,173,60557,2,0,P|399:217|372:233,1,105.000004005432,8|0,0:0|0:0,0:0:0:0:
261,291,60873,1,0,0:0:0:0:
81,192,61031,1,0,0:0:0:0:
246,94,61189,1,8,0:0:0:0:
81,75,61347,1,0,0:0:0:0:
186,189,61505,1,0,0:0:0:0:
117,295,61662,1,0,0:0:0:0:
117,295,61741,2,0,P|161:362|167:366,1,52.5000020027161,8|0,0:0|0:0,0:0:0:0:
241,189,61978,5,0,0:0:0:0:
412,255,62136,1,0,0:0:0:0:
410,130,62294,1,0,0:0:0:0:
281,261,62452,1,8,0:0:0:0:
210,103,62610,5,0,0:0:0:0:
210,103,62768,1,0,0:0:0:0:
101,179,62926,2,0,P|92:242|128:275,1,105.000004005432,8|0,0:0|0:0,0:0:0:0:
200,101,63241,1,0,0:0:0:0:
200,101,63399,1,0,0:0:0:0:
195,209,63557,2,0,P|223:280|252:283,1,105.000004005432,8|0,0:0|0:0,0:0:0:0:
200,100,63873,1,0,0:0:0:0:
200,100,64031,1,0,0:0:0:0:
297,162,64189,2,0,B|355:211|382:196|394:175,1,105.000004005432,8|0,0:0|0:0,0:0:0:0:
398,264,64662,1,0,0:0:0:0:
314,211,64820,2,0,L|176:182,1,105.000004005432,8|0,0:0|0:0,0:0:0:0:
159,46,65136,6,0,L|175:118,1,70.0000026702882,8|0,0:0|0:0,0:0:0:0:
222,67,65347,6,0,L|217:146,1,70.0000026702882,8|0,0:0|0:0,0:0:0:0:
155,117,65557,6,0,L|172:184,1,70.0000026702882,8|0,0:0|0:0,0:0:0:0:
285,140,65768,6,0,P|295:98|335:87,1,70.0000026702882,8|0,0:0|0:0,0:0:0:0:
417,129,65978,6,0,P|443:156|418:201,1,70.0000026702882,8|0,0:0|0:0,0:0:0:0:
338,248,66189,6,0,P|300:257|266:237,1,70.0000026702882,8|0,0:0|0:0,0:0:0:0:
287,340,66399,6,0,B|199:345|200:345,1,70.0000026702882,8|0,0:0|0:0,0:0:0:0:
157,286,66610,6,0,P|130:253|147:204,1,70.0000026702882,8|0,0:0|0:0,0:0:0:0:
236,186,66820,6,0,P|257:242|283:257,1,70.0000026702882,8|0,0:0|0:0,0:0:0:0:
355,237,67031,6,0,P|365:195|341:145,1,70.0000026702882,8|0,0:0|0:0,0:0:0:0:
329,93,67241,6,0,P|287:79|252:100,1,70.0000026702882,8|0,0:0|0:0,0:0:0:0:
185,95,67452,6,0,P|151:129|151:171,1,70.0000026702882,8|0,0:0|0:0,0:0:0:0:
129,222,67662,6,0,L|138:304,1,70.0000026702882,8|0,0:0|0:0,0:0:0:0:
213,321,67873,6,0,L|290:328,1,70.0000026702882,8|0,0:0|0:0,0:0:0:0:
266,193,68084,6,0,L|291:275,1,52.5000020027161,8|0,0:0|0:0,0:0:0:0:
423,319,68294,5,0,0:0:0:0:
334,161,68452,1,0,0:0:0:0:
252,248,68610,2,0,L|146:295,1,105.000004005432,8|0,0:0|0:0,0:0:0:0:
140,138,68926,1,0,0:0:0:0:
255,242,69084,2,0,P|295:198|281:153,1,105.000004005432,8|0,0:0|0:0,0:0:0:0:
259,93,69399,5,0,0:0:0:0:
186,230,69557,1,0,0:0:0:0:
176,80,69715,2,0,P|121:56|81:109,1,105.000004005432,8|0,0:0|0:0,0:0:0:0:
55,171,70031,1,0,0:0:0:0:
81,216,70110,1,8,0:0:0:0:
117,249,70189,1,0,0:0:0:0:
254,321,70347,1,0,0:0:0:0:
364,82,70505,6,0,P|395:172|371:293,1,210.000008010865,8|0,0:0|0:0,0:0:0:0:
278,257,70978,1,0,0:0:0:0:
278,257,71057,2,0,L|252:195,1,52.5000020027161,8|0,0:0|0:0,0:0:0:0:
213,77,71294,1,0,0:0:0:0:
121,206,71452,1,0,0:0:0:0:
85,69,71610,1,8,0:0:0:0:
241,185,71768,1,0,0:0:0:0:
416,184,71926,1,0,0:0:0:0:
416,184,72005,1,0,0:0:0:0:
416,184,72084,2,0,P|416:250|382:273,1,105.000004005432,8|0,0:0|0:0,0:0:0:0:
191,253,72399,5,0,0:0:0:0:
237,93,72557,2,0,P|193:59|79:148,1,210.000008010865,8|0,0:0|0:0,0:0:0:0:
106,269,73031,1,0,0:0:0:0:
234,313,73189,2,0,B|416:346|505:188|488:59|243:42,1,525.000020027161,8|8,0:0|0:0,0:0:0:0:
115,96,74136,5,0,0:0:0:0:
117,139,74215,1,0,0:0:0:0:
120,198,74294,2,0,P|150:255|206:273,1,105.000004005432,8|0,0:0|0:0,0:0:0:0:
334,255,74768,1,0,0:0:0:0:
204,61,74926,2,0,P|295:94|299:117,1,105.000004005432,8|0,0:0|0:0,0:0:0:0:
316,138,75162,1,0,0:0:0:0:
329,190,75241,2,0,P|327:252|266:304,1,105.000004005432,8|0,0:0|0:0,0:0:0:0:
132,307,75557,1,0,0:0:0:0:
188,173,75715,1,0,0:0:0:0:
101,96,75873,5,8,0:0:0:0:
188,268,76031,1,0,0:0:0:0:
374,76,76189,2,0,L|271:159,1,105.000004005432,8|0,0:0|0:0,0:0:0:0:
387,266,76505,1,0,0:0:0:0:
423,117,76662,1,0,0:0:0:0:
254,180,76820,2,0,P|221:236|246:269,1,105.000004005432,8|0,0:0|0:0,0:0:0:0:
435,312,77136,5,0,0:0:0:0:
381,313,77215,1,0,0:0:0:0:
333,314,77294,1,0,0:0:0:0:
283,309,77373,1,0,0:0:0:0:
235,304,77452,1,0,0:0:0:0:
192,297,77531,1,0,0:0:0:0:
143,289,77610,1,0,0:0:0:0:
100,274,77689,1,0,0:0:0:0:
66,243,77768,1,0,0:0:0:0:
44,196,77847,1,0,0:0:0:0:
50,146,77926,1,8,0:0:0:0:
157,71,78084,5,0,0:0:0:0:
77,60,78241,2,0,P|66:106|68:163,1,105,8|0,0:0|0:0,0:0:0:0:
308,102,79031,1,0,0:0:0:0:
176,224,79189,2,0,L|192:240,2,17.5
334,268,79505,2,0,P|369:242|374:206,1,70,8|0,0:0|0:0,0:0:0:0:
144,128,79978,2,0,L|160:144,4,17.5
304,96,80452,6,0,L|263:113,1,35,8|0,0:0|0:0,0:0:0:0:
208,160,80689,2,0,L|256:176,1,35,8|0,0:0|0:0,0:0:0:0:
272,224,80926,2,0,L|208:240,1,52.5,8|0,0:0|0:0,0:0:0:0:
176,240,81241,2,0,L|144:240,5,17.5
176,192,81715,1,0,0:0:0:0:
103,122,81873,1,0,0:0:0:0:
69,205,82031,2,0,B|114:269|165:288|239:284|276:283,1,210.000008010865,8|0,0:0|0:0,0:0:0:0:
303,278,82505,1,0,0:0:0:0:
362,260,82662,2,0,B|398:202|401:157|378:93|288:48,1,210.000008010865,8|0,0:0|0:0,0:0:0:0:
256,64,83136,2,0,L|288:176,1,105.000004005432
192,48,83452,2,0,B|228:119|209:163|192:192,1,105.000004005432,8|4,0:0|0:0,0:0:0:0:
208,192,83689,1,0,0:0:0:0:
192,240,83768,6,0,P|181:274|120:291,1,105.000004005432,8|0,0:0|0:0,0:0:0:0:
320,304,84084,2,0,P|290:311|263:278,1,70,8|4,0:0|0:0,0:0:0:0:
144,288,84557,6,0,P|207:210|318:261,1,210.000008010865,8|0,0:0|0:0,0:0:0:0:
64,96,85031,2,0,P|96:64|128:64,1,70
253,283,85505,6,0,P|187:261|182:194,1,105.000004005432,8|0,0:0|0:0,0:0:0:0:
212,126,85741,2,0,P|279:142|280:208,1,105.000004005432,8|0,0:0|0:0,0:0:0:0:
235,203,85978,1,0,0:0:0:0:
99,298,87084,6,0,P|81:233|141:188,1,105.000004005432,8|0,0:0|0:0,0:0:0:0:
303,52,87399,2,0,B|347:42|378:70|378:70,1,70,8|0,0:0|0:0,0:0:0:0:
255,206,87873,1,0,0:0:0:0:
255,206,87952,1,0,0:0:0:0:
255,206,88031,1,0,0:0:0:0:
255,206,88110,1,0,0:0:0:0:
255,206,88189,1,8,0:0:0:0:
134,108,88347,1,2,0:0:0:0:
