osu file format v14

[General]
AudioFilename: audio.mp3
AudioLeadIn: 0
PreviewTime: 61113
Countdown: 0
SampleSet: Soft
StackLeniency: 0.4
Mode: 0
LetterboxInBreaks: 0
WidescreenStoryboard: 1

[Editor]
Bookmarks: 5534,7955,10903,20692,21324,25745,30797,35850,40903,48482,53534,61113,65534,68692,76271,78797,83850,89297
DistanceSpacing: 0.8
BeatDivisor: 4
GridSize: 32
TimelineZoom: 2.2

[Metadata]
Title:New Stranger (TV Size)
TitleUnicode:New Stranger (TV Size)
Artist:sora tob sakana
ArtistUnicode:sora tob sakana
Creator:hypercyte
Version:Normal
Source:HI SCORE GIRL
Tags:ハイスコアガール high japanese anime electronic female vocals hypercute sunset bicycle couple extra stage
BeatmapID:3223141
BeatmapSetID:1564596

[Difficulty]
HPDrainRate:3
CircleSize:3.5
OverallDifficulty:5
ApproachRate:6
SliderMultiplier:1.2
SliderTickRate:1

[Events]
//Background and Video events
0,0,"37329615_p0.jpg",0,0
//Break Periods
//Storyboard Layer 0 (Background)
//Storyboard Layer 1 (Fail)
//Storyboard Layer 2 (Pass)
//Storyboard Layer 3 (Foreground)
//Storyboard Layer 4 (Overlay)
//Storyboard Sound Samples

[TimingPoints]
472,315.789473684211,4,2,44,64,1,0
472,-100,4,2,44,64,0,0
787,-100,4,2,44,64,0,0
1577,-100,4,2,44,64,0,0
2050,-100,4,2,44,64,0,0
2524,-100,4,2,44,64,0,0
2998,-100,4,2,0,64,0,0
3314,-100,4,2,0,64,0,0
4419,-100,4,2,0,64,0,0
4735,-100,4,2,0,64,0,0
5050,-100,4,2,0,64,0,0
6629,-100,4,2,0,64,0,0
7103,-100,4,2,0,64,0,0
7814,-100,4,2,0,64,0,0
8050,-100,4,2,0,64,0,0
8366,-100,4,2,0,64,0,0
9156,-100,4,2,0,64,0,0
10893,-100,4,2,44,64,0,0
12314,-100,4,2,44,64,0,0
12629,-100,4,2,44,64,0,0
17050,-100,4,2,44,64,0,0
19577,-100,4,2,44,64,0,0
20682,-100,4,2,44,64,0,0
20998,-100,4,2,44,54,0,0
35840,-100,4,2,44,54,0,0
36945,-100,4,2,44,54,0,0
39472,-100,4,2,44,54,0,0
39945,-100,4,2,44,54,0,0
40893,-100,4,2,44,50,0,0
41103,-100,4,2,44,50,0,0
45314,-100,4,2,44,50,0,0
45945,-100,4,2,44,50,0,0
50998,-100,4,2,44,64,0,0
54629,-100,4,2,44,64,0,0
56050,-100,4,2,44,64,0,1
56682,-100,4,2,44,64,0,0
57156,-100,4,2,44,64,0,0
59682,-100,4,2,44,64,0,0
61103,-100,4,2,44,64,0,1
61893,-100,4,2,44,64,0,0
62208,-100,4,2,44,64,0,0
62682,-100,4,2,44,64,0,0
65208,-100,4,2,44,64,0,0
65524,-100,4,2,44,64,0,1
66156,-100,4,2,44,64,0,1
66787,-100,4,2,44,64,0,1
67419,-100,4,2,44,64,0,1
68603,-100,4,2,44,64,0,0
68682,-100,4,2,44,64,0,1
69472,-100,4,2,44,64,0,0
69787,-100,4,2,44,64,0,0
71208,-100,4,2,44,64,0,0
73735,-100,4,2,44,64,0,1
74366,-100,4,2,44,64,0,0
74682,-100,4,2,44,64,0,0
76261,-100,4,2,44,64,0,1
76735,-100,4,2,44,64,0,0
78787,-100,4,2,44,64,0,1
82419,-100,4,2,44,64,0,1
82735,-100,4,2,44,64,0,1
83050,-100,4,2,44,64,0,1
86524,-100,4,2,44,64,0,0
87472,-100,4,2,44,64,0,0
87787,-100,4,2,44,64,0,0
88261,-100,4,2,44,64,0,0

[Colours]
Combo1 : 221,170,240
Combo2 : 155,221,240
Combo3 : 151,230,186
Combo4 : 233,236,121
Combo5 : 242,201,145
Combo6 : 243,160,120

[HitObjects]
94,226,472,6,0,B|109:169|109:169|175:185,1,120,4|0,0:3|0:0,0:0:0:0:
444,300,1577,2,0,B|402:306|402:306|382:214,1,120,4|4,0:3|0:3,0:0:0:0:
164,137,2524,2,0,B|156:97|156:97|152:92|152:92|144:49,2,90,4|4|4,0:3|0:3|0:3,0:0:0:0:
359,135,4103,1,4,0:3:0:0:
303,213,4418,1,4,0:3:0:0:
355,293,4734,1,4,0:3:0:0:
280,353,5050,2,0,B|238:347|238:347|228:339|228:339|182:331,2,90,4|4|4,0:3|0:3|0:3,0:0:0:0:
92,74,6629,6,0,B|116:126|116:126|110:150|110:150|131:201,1,120,4|4,0:3|0:3,0:0:0:0:
313,220,7577,2,0,B|346:185|346:185|401:211,2,90,4|4|4,0:3|0:3|0:3,0:0:0:0:
41,267,9156,1,8,0:0:0:0:
124,313,9472,1,8,0:0:0:0:
126,132,10893,6,0,L|249:108,1,120,14|2,0:0|0:0,0:0:0:0:
290,99,11366,1,2,0:0:0:0:
357,167,11682,1,8,0:0:0:0:
311,251,11998,1,10,0:0:0:0:
218,225,12314,2,0,B|171:205|126:250|160:261|115:309|62:282,1,180,2|0,0:0|3:0,0:0:0:0:
37,192,13103,6,0,P|64:104|74:66,1,120,10|2,0:0|0:0,0:0:0:0:
73,28,13577,1,8,3:2:0:0:
73,28,13735,1,0,3:0:0:0:
174,129,14208,2,0,B|188:112|188:112|302:84,1,120,8|8,0:0|0:0,0:0:0:0:
381,71,14840,1,2,0:3:0:0:
381,71,14998,2,0,P|422:110|398:174,1,120,2|2,0:3|0:3,0:0:0:0:
349,242,15629,6,0,B|334:230|334:230|253:252|253:252|247:274,1,120,14|2,0:0|0:0,0:0:0:0:
241,316,16103,1,8,0:0:0:0:
241,316,16261,1,0,3:0:0:0:
134,218,16735,2,0,P|145:144|149:77,2,120,8|8|2,0:0|0:0|3:0,0:0:0:0:
174,305,17682,1,0,0:0:0:0:
170,352,17840,1,0,3:0:0:0:
74,361,18156,6,0,P|35:327|50:262,1,120,14|2,0:0|3:0,0:0:0:0:
83,234,18629,2,0,P|133:176|102:127,1,120,12|0,0:0|3:0,0:0:0:0:
82,113,19103,1,14,0:0:0:0:
82,113,19261,1,2,3:0:0:0:
214,56,19735,5,8,0:0:0:0:
288,116,20050,1,8,0:0:0:0:
370,66,20366,1,0,3:0:0:0:
412,87,20524,1,0,3:0:0:0:
458,73,20682,1,12,3:2:0:0:
496,161,20998,6,0,P|499:231|483:293,1,120,2|2,0:0|0:0,0:0:0:0:
344,289,21787,1,8,0:0:0:0:
344,289,21945,2,0,B|287:275|251:297|259:303|216:334|170:315,1,180,2|2,0:0|0:0,0:0:0:0:
126,230,22735,1,10,0:0:0:0:
191,159,23050,1,0,0:0:0:0:
191,159,23208,2,0,P|190:124|103:84,2,120,14|10|2,0:0|0:1|0:0,0:0:0:0:
267,217,24156,1,10,0:0:0:0:
267,217,24314,2,0,P|309:182|363:220,1,120,10|2,0:0|0:0,0:0:0:0:
60,57,25735,1,12,0:0:0:0:
121,130,26050,6,0,P|106:186|91:257,1,120,10|2,0:1|0:0,0:0:0:0:
219,315,26840,1,8,0:0:0:0:
219,315,26998,2,0,P|232:270|359:271,1,180,2|2,0:0|0:0,0:0:0:0:
398,338,27787,1,10,0:0:0:0:
459,264,28103,5,0,0:0:0:0:
459,264,28261,2,0,P|449:212|434:123,2,120,14|2|2,0:0|3:0|0:0,0:0:0:0:
398,338,29208,1,2,3:0:0:0:
398,338,29366,2,0,P|294:321|260:319,2,120,10|10|10,0:0|0:0|0:0,0:0:0:0:
459,264,30314,1,0,3:0:0:0:
428,227,30472,1,2,0:3:0:0:
461,137,30787,1,14,0:0:0:0:
397,65,31103,6,0,B|378:82|378:82|269:61,1,120,2|2,3:0|0:0,0:0:0:0:
145,56,31893,1,8,0:0:0:0:
145,56,32050,2,0,P|113:100|171:134,1,120,2|0,0:0|3:0,0:0:0:0:
200,148,32524,2,0,P|180:205|167:275,1,120,2|10,3:0|0:0,0:0:0:0:
230,337,33156,5,0,0:0:0:0:
230,337,33314,2,0,P|309:315|364:305,2,120,14|2|2,0:0|3:0|0:0,0:0:0:0:
139,368,34261,1,10,0:0:0:0:
139,368,34419,1,10,0:0:0:0:
62,309,34735,1,10,0:0:0:0:
97,220,35050,1,2,3:2:0:0:
34,147,35366,2,0,P|26:63|68:45,1,120,2|0,3:2|0:0,0:0:0:0:
93,37,35840,5,14,0:0:0:0:
244,155,36472,2,0,L|225:216,2,60,2|8|0,0:0|0:0|3:3,0:0:0:0:
283,127,36945,2,0,P|289:56|241:31,1,120,10|10,0:0|0:0,0:0:0:0:
206,37,37419,1,0,3:0:0:0:
139,106,37735,1,0,3:0:0:0:
139,106,37893,1,8,0:0:0:0:
33,203,38366,6,0,P|45:261|60:343,1,120,14|0,0:0|3:0,0:0:0:0:
68,367,38840,1,2,0:0:0:0:
162,349,39156,1,8,0:0:0:0:
210,266,39472,2,0,L|338:300,1,120,2|0,3:0|0:0,0:0:0:0:
372,308,39945,1,2,3:0:0:0:
469,334,40261,1,0,3:0:0:0:
469,334,40419,2,0,P|494:271|446:226,1,120,0|2,3:0|3:2,0:0:0:0:
431,199,40893,6,0,P|468:161|465:115,2,90,14|8|10,0:0|0:0|0:0,0:0:0:0:
342,143,41682,1,2,3:2:0:0:
264,199,41998,2,0,P|184:179|76:169,1,180,10|10,0:0|0:0,0:0:0:0:
43,165,42629,1,2,3:2:0:0:
43,165,42787,1,2,3:2:0:0:
45,68,43103,1,2,3:2:0:0:
138,34,43419,1,8,0:0:0:0:
210,97,43735,6,0,P|274:79|398:77,1,180,0|2,0:0|3:2,0:0:0:0:
464,131,44524,2,0,P|497:191|456:234,1,120,10|10,0:0|0:0,0:0:0:0:
423,233,44998,1,10,0:0:0:0:
338,187,45314,2,0,L|241:202,2,90,2|0|2,3:2|0:0|3:2,0:0:0:0:
369,150,45945,1,8,3:2:0:0:
382,58,46261,5,0,0:0:0:0:
382,58,46419,2,0,P|303:7|273:31,1,120,10|2,0:0|3:2,0:0:0:0:
247,96,47050,2,0,B|226:84|226:84|126:101,1,120,10|10,0:0|0:0,0:0:0:0:
59,225,47840,1,0,3:0:0:0:
104,240,47998,1,0,3:0:0:0:
239,288,48472,6,0,P|280:250|354:260,2,120,12|2|2,0:0|3:2|3:2,0:0:0:0:
152,330,49419,2,0,P|144:274|74:100,1,240,2|10,3:2|3:2,0:0:0:0:
137,29,50366,1,0,3:0:0:0:
181,46,50524,1,0,3:0:0:0:
242,176,50998,6,0,P|272:114|327:137,1,120,14|2,0:0|0:3,0:0:0:0:
355,142,51472,2,0,P|407:122|432:183,1,120,10|2,0:0|0:3,0:0:0:0:
463,208,51945,2,0,P|505:218|486:287,1,120,12|0,0:1|0:0,0:0:0:0:
457,310,52419,2,0,P|420:295|380:303,1,60,10|10,0:0|0:1,0:0:0:0:
357,317,52735,1,8,0:1:0:0:
277,263,53050,1,8,0:0:0:0:
277,263,53208,1,8,0:1:0:0:
183,298,53524,1,12,0:0:0:0:
110,234,53840,5,2,0:0:0:0:
26,281,54156,1,10,0:0:0:0:
24,137,54629,1,10,0:0:0:0:
104,84,54945,1,10,0:0:0:0:
186,134,55261,1,10,0:0:0:0:
417,72,56050,6,0,B|439:92|439:92|422:203,1,120,14|8,0:0|0:1,0:0:0:0:
414,228,56524,1,2,0:0:0:0:
323,196,56840,1,2,3:0:0:0:
254,263,57156,2,0,P|221:248|183:249,1,60,10|0,0:0|0:0,0:0:0:0:
160,277,57472,2,0,P|123:301|101:301,1,60,2|8,0:0|0:1,0:0:0:0:
73,268,57787,1,10,0:1:0:0:
73,171,58103,6,0,P|42:151|33:117,2,60,10|10|10,0:0|0:1|0:0,0:0:0:0:
120,178,58577,1,8,0:0:0:0:
196,119,58893,1,8,0:1:0:0:
191,71,59050,1,2,0:0:0:0:
228,39,59208,2,0,P|305:32|344:75,1,120,2|10,0:0|0:1,0:0:0:0:
337,105,59682,1,8,0:0:0:0:
279,182,59998,1,8,0:0:0:0:
310,272,60314,1,8,0:1:0:0:
122,298,60945,5,0,0:0:0:0:
122,298,61103,2,0,P|132:223|129:163,1,120,14|8,0:0|0:1,0:0:0:0:
122,131,61577,1,2,0:0:0:0:
203,79,61893,1,10,0:0:0:0:
279,136,62208,2,0,B|336:118|376:158|356:169|401:203|456:183,1,180,10|2,0:0|3:2,0:0:0:0:
427,282,62998,6,0,P|379:272|365:282,1,60,2|8,3:2|0:0,0:0:0:0:
337,308,63314,1,10,0:1:0:0:
315,351,63472,2,0,P|252:330|129:315,1,180,14|10,0:0|0:1,0:0:0:0:
93,329,64103,1,10,0:0:0:0:
61,188,64577,1,10,0:1:0:0:
61,188,64735,2,0,B|63:135|127:116|131:148|180:130|178:62,1,180,14|10,0:0|0:1,0:0:0:0:
273,76,65524,6,0,B|351:61|351:61|390:133|390:133|488:113,5,240,10|6|8|12|8|14,0:0|0:3|0:1|0:3|0:1|0:0,0:0:0:0:
501,207,68998,5,8,0:1:0:0:
501,207,69156,2,0,P|465:275|451:322,1,120,10|10,0:1|0:0,0:0:0:0:
357,302,69787,2,0,P|303:278|244:322,1,120,10|8,0:0|0:0,0:0:0:0:
239,351,70261,1,8,0:1:0:0:
155,303,70577,1,8,0:1:0:0:
111,322,70735,1,8,0:0:0:0:
154,184,71208,6,0,P|106:120|27:166,1,180,14|2,0:0|0:0,0:0:0:0:
4,251,71998,1,10,0:0:0:0:
80,307,72314,1,8,0:0:0:0:
172,274,72629,1,10,0:0:0:0:
172,274,72787,2,0,L|244:287,1,60,10|8,0:1|0:1,0:0:0:0:
321,317,73261,5,8,0:0:0:0:
360,289,73419,1,12,0:1:0:0:
405,303,73577,2,0,B|463:288|465:193|409:162|393:210|351:170|337:77|424:57,1,300,14|2,0:0|3:2,0:0:0:0:
325,22,74682,1,10,0:1:0:0:
325,22,74840,2,0,P|242:14|191:13,1,120,14|0,0:0|0:0,0:0:0:0:
162,27,75314,1,10,0:1:0:0:
162,27,75472,1,10,0:1:0:0:
390,101,76261,5,14,0:0:0:0:
420,138,76419,1,2,0:0:0:0:
389,175,76577,2,0,P|350:174|318:189,1,60,10|2,0:1|0:0,0:0:0:0:
371,267,77050,1,10,0:0:0:0:
285,311,77366,2,0,B|260:301|221:324|234:331|200:352|164:341,1,120,14|8,0:0|0:1,0:0:0:0:
134,324,77840,1,2,0:3:0:0:
134,324,77998,2,0,P|65:317|11:333,2,120,10|8|8,0:0|0:1|0:1,0:0:0:0:
173,343,78787,1,12,0:0:0:0:
201,251,79103,6,0,B|195:238|195:238|232:116,1,120,0|10,0:0|0:1,0:0:0:0:
344,49,79893,2,0,P|404:66|413:124,1,120,6|6,0:3|0:3,0:0:0:0:
404,163,80366,1,6,3:0:0:0:
316,138,80682,1,10,0:1:0:0:
316,138,80840,2,0,B|277:146|277:146|270:152|270:152|225:162,2,90,4|4|4,0:3|0:3|0:3,0:0:0:0:
404,163,81629,5,2,3:2:0:0:
425,69,81945,1,0,3:0:0:0:
287,25,82419,1,14,0:0:0:0:
228,100,82735,1,14,0:0:0:0:
298,164,83050,1,14,0:0:0:0:
253,249,83366,2,0,P|167:229|57:226,1,180,8|12,3:2|0:0,0:0:0:0:
28,140,84156,5,0,3:0:0:0:
89,65,84472,1,10,0:1:0:0:
222,119,84945,2,0,P|283:99|360:95,1,120,6|6,0:3|0:3,0:0:0:0:
385,105,85419,1,2,3:2:0:0:
418,195,85735,1,10,0:1:0:0:
418,195,85893,2,0,P|411:252|406:301,2,90,4|4|6,0:3|0:3|0:3,0:0:0:0:
102,78,87472,5,4,3:3:0:0:
141,165,87787,2,0,B|185:149|240:183|220:197|263:220|312:203,1,180,12|4,0:0|0:3,0:0:0:0:
342,169,88419,2,0,P|344:113|380:7,1,150,4|0,0:3|0:0,0:0:0:0:
