osu file format v14

[General]
AudioFilename: audio.mp3
AudioLeadIn: 0
PreviewTime: 61113
Countdown: 0
SampleSet: Soft
StackLeniency: 0.4
Mode: 0
LetterboxInBreaks: 0
WidescreenStoryboard: 1

[Editor]
Bookmarks: 5534,7955,10903,20692,21324,25745,30797,35850,40903,48482,53534,61113,65534,68692,76271,78797,83850,89297
DistanceSpacing: 0.5
BeatDivisor: 8
GridSize: 32
TimelineZoom: 2.2

[Metadata]
Title:New Stranger (TV Size)
TitleUnicode:New Stranger (TV Size)
Artist:sora tob sakana
ArtistUnicode:sora tob sakana
Creator:hypercyte
Version:Insane
Source:HI SCORE GIRL
Tags:ハイスコアガール high japanese anime electronic female vocals hypercute sunset bicycle couple extra stage
BeatmapID:3196241
BeatmapSetID:1564596

[Difficulty]
HPDrainRate:4
CircleSize:4
OverallDifficulty:8
ApproachRate:9
SliderMultiplier:2.04
SliderTickRate:1

[Events]
//Background and Video events
0,0,"37329615_p0.jpg",0,0
//Break Periods
//Storyboard Layer 0 (Background)
//Storyboard Layer 1 (Fail)
//Storyboard Layer 2 (Pass)
//Storyboard Layer 3 (Foreground)
//Storyboard Layer 4 (Overlay)
//Storyboard Sound Samples

[TimingPoints]
472,315.789473684211,4,2,44,64,1,0
472,-76.9230769230769,4,2,44,64,0,0
787,-100,4,2,44,64,0,0
1577,-76.9230769230769,4,2,44,64,0,0
2050,-100,4,2,44,64,0,0
2524,-76.9230769230769,4,2,44,64,0,0
2998,-80,4,2,0,64,0,0
3314,-100,4,2,0,64,0,0
4419,-80,4,2,0,64,0,0
4735,-100,4,2,0,64,0,0
5050,-133.333333333333,4,2,0,64,0,0
6629,-76.9230769230769,4,2,0,64,0,0
7103,-100,4,2,0,64,0,0
7814,-80,4,2,0,64,0,0
8050,-100,4,2,0,64,0,0
8366,-454.545454545455,4,2,0,64,0,0
9156,-69.4444444444444,4,2,0,64,0,0
10893,-100,4,2,44,64,0,0
12314,-90.9090909090909,4,2,44,64,0,0
12629,-100,4,2,44,64,0,0
17050,-90.9090909090909,4,2,44,64,0,0
19577,-100,4,2,44,64,0,0
20682,-133.333333333333,4,2,44,64,0,0
20998,-133.333333333333,4,2,44,54,0,0
35840,-133.333333333333,4,2,44,54,0,0
36945,-133.333333333333,4,2,44,54,0,0
39472,-133.333333333333,4,2,44,54,0,0
39945,-133.333333333333,4,2,44,54,0,0
40893,-166.666666666667,4,2,44,50,0,0
41103,-166.666666666667,4,2,44,50,0,0
45314,-133.333333333333,4,2,44,50,0,0
45945,-153.846153846154,4,2,44,50,0,0
50998,-111.111111111111,4,2,44,64,0,0
54629,-57.1428571428571,4,2,44,64,0,0
56050,-90.9090909090909,4,2,44,64,0,1
56682,-90.9090909090909,4,2,44,64,0,0
57156,-100,4,2,44,64,0,0
59682,-100,4,2,44,64,0,0
61103,-90.9090909090909,4,2,44,64,0,1
61893,-100,4,2,44,64,0,0
62208,-86.9565217391304,4,2,44,64,0,0
62682,-90.9090909090909,4,2,44,64,0,0
65208,-80,4,2,44,64,0,0
65524,-100,4,2,44,64,0,1
66156,-100,4,2,44,64,0,1
66787,-100,4,2,44,64,0,1
67419,-100,4,2,44,64,0,1
68603,-100,4,2,44,64,0,0
68682,-90.9090909090909,4,2,44,64,0,1
69472,-90.9090909090909,4,2,44,64,0,0
69787,-100,4,2,44,64,0,0
71208,-90.9090909090909,4,2,44,64,0,0
73735,-90.9090909090909,4,2,44,64,0,1
74366,-90.9090909090909,4,2,44,64,0,0
74682,-100,4,2,44,64,0,0
76261,-100,4,2,44,64,0,1
76735,-100,4,2,44,64,0,0
78787,-100,4,2,44,64,0,1
82419,-83.3333333333333,4,2,44,64,0,1
82735,-100,4,2,44,64,0,1
83050,-133.333333333333,4,2,44,64,0,1
86524,-100,4,2,44,64,0,0
87472,-59.8802395209581,4,2,44,64,0,0
87787,-100,4,2,44,64,0,0
88261,-133.333333333333,4,2,44,64,0,0

[Colours]
Combo1 : 221,170,240
Combo2 : 155,221,240
Combo3 : 151,230,186
Combo4 : 233,236,121
Combo5 : 242,201,145
Combo6 : 243,160,120

[HitObjects]
52,238,472,6,0,B|57:222|57:222|120:202|120:202|125:203|125:203|174:188,1,132.599993930054,4|0,0:3|0:0,0:0:0:0:
231,124,787,5,0,0:0:0:0:
246,123,866,5,0,0:0:0:0:
260,127,945,5,0,0:0:0:0:
270,138,1024,5,0,0:0:0:0:
273,148,1103,6,0,P|259:168|266:202,3,51,2|2|2|2,0:0|0:0|0:0|0:0,0:0:0:0:
496,98,1577,2,0,B|472:102|472:102|220:23,1,265.199987860108,4|4,0:3|0:3,0:0:0:0:
353,173,2050,5,2,0:0:0:0:
369,173,2129,5,2,0:0:0:0:
382,183,2208,6,0,P|376:215|388:242,2,51,2|2|2,0:0|0:0|0:0,0:0:0:0:
198,211,2524,6,0,B|145:229|145:229|142:235|142:235|72:257,1,132.599993930054,4|0,0:3|0:0,0:0:0:0:
75,211,2761,2,0,B|141:231|141:231|144:237|144:237|197:255,1,132.599993930054,4|0,0:3|0:0,0:0:0:0:
137,314,2998,1,4,0:3:0:0:
258,61,3314,6,0,P|238:73|235:102,2,51,2|2|2,0:0|0:0|0:0,0:0:0:0:
360,69,3629,5,0,0:0:0:0:
371,75,3708,5,0,0:0:0:0:
376,83,3787,6,0,P|374:144|337:159,1,102,0|2,0:0|0:3,0:0:0:0:
121,86,4103,6,0,B|53:97|53:97|68:196,1,153,4|0,0:3|0:0,0:0:0:0:
147,168,4419,6,0,B|202:171|202:171|201:258,1,127.5,4|0,0:3|0:0,0:0:0:0:
53,317,4735,6,0,B|51:267|51:267|111:264|111:264|117:320,1,153,4|0,0:3|0:0,0:0:0:0:
98,381,5050,5,4,0:3:0:0:
32,185,5287,1,4,0:3:0:0:
254,122,5524,1,4,0:3:0:0:
265,135,5840,6,0,P|289:139|307:156,2,38.2500014591218
215,239,6156,5,2,0:0:0:0:
205,232,6235,5,2,0:0:0:0:
202,220,6314,5,2,0:0:0:0:
206,209,6393,5,2,0:0:0:0:
215,202,6472,5,2,0:0:0:0:
369,341,6629,6,0,B|361:327|361:327|422:115|422:115|452:109,1,265.199987860108,4|4,0:3|0:3,0:0:0:0:
383,45,7103,2,0,P|352:31|333:40,4,51,2|2|2|2|2,0:0|0:0|0:0|0:0|0:0,0:0:0:0:
256,114,7577,6,0,B|224:123|224:123|130:99,1,102,4|0,0:3|0:0,0:0:0:0:
82,74,7814,2,0,B|47:129|47:129|117:170,1,127.5,4|0,0:3|0:0,0:0:0:0:
149,29,8050,1,4,0:3:0:0:
153,245,8366,6,2,B|161:241|161:241|157:237|157:237|163:233|163:233|160:230|160:230|165:227|165:227|162:225|162:225|168:220|168:220|163:217|163:217|172:215|172:215|168:210|168:210|174:209|174:209|169:205|169:205|175:203|175:203|174:198|174:198|179:197|179:197|176:195|176:195|183:192|183:192,1,100.980003081665,2|0,0:3|0:0,0:1:0:0:
179,193,9156,6,0,B|218:184|218:184|269:216,1,73.4400017929688,8|0,0:0|0:0,0:0:0:0:
84,300,9472,6,0,B|53:321|53:321|16:308,1,73.4400017929688,8|0,0:0|0:0,0:0:0:0:
268,201,10893,6,0,P|288:129|312:73,2,102,14|2|2,0:0|0:0|0:0,0:0:0:0:
118,267,11366,2,0,P|134:224|209:222,1,102,2|0,0:0|0:0,0:0:0:0:
328,267,11682,2,0,P|361:309|420:309,1,102,8|0,0:0|0:0,0:0:0:0:
490,108,11998,1,10,0:0:0:0:
399,155,12156,1,0,0:0:0:0:
357,18,12314,6,0,B|340:68|340:68|332:73|332:73|316:119,1,112.200003424072,2|0,0:0|0:0,0:0:0:0:
191,210,12629,1,0,3:0:0:0:
169,200,12708,1,0,3:0:0:0:
171,178,12787,1,0,3:0:0:0:
316,120,12945,1,0,0:0:0:0:
116,120,13103,6,0,P|52:104|-3:98,2,102,10|2|2,0:0|0:0|0:0,0:0:0:0:
171,178,13577,1,8,3:2:0:0:
68,270,13735,1,0,3:0:0:0:
147,355,13893,2,0,P|198:358|233:314,1,102,0|0,3:0|0:0,0:0:0:0:
402,142,14208,6,0,P|403:206|408:250,1,102,8|0,0:0|0:0,0:0:0:0:
315,278,14524,2,0,P|310:227|309:176,1,102,8|0,0:0|0:0,0:0:0:0:
153,45,14840,5,2,0:3:0:0:
171,178,14998,1,2,0:3:0:0:
262,87,15156,1,0,0:0:0:0:
96,123,15314,5,2,0:3:0:0:
62,117,15419,5,2,0:3:0:0:
28,112,15524,5,2,0:3:0:0:
1,107,15629,6,0,P|-4:47|52:16,2,102,14|2|2,0:0|0:0|0:0,0:0:0:0:
90,210,16103,1,8,0:0:0:0:
23,306,16261,1,0,3:0:0:0:
23,306,16419,1,0,0:0:0:0:
196,126,16735,6,0,B|206:140|206:140|380:182,1,153,8|0,0:0|0:0,0:0:0:0:
348,174,17050,2,0,P|384:115|350:88,1,112.200003424072,8|0,0:0|0:0,0:0:0:0:
91,12,17366,2,0,P|111:86|121:140,1,112.200003424072,2|0,3:0|0:0,0:0:0:0:
84,285,17682,1,0,0:0:0:0:
88,263,17761,1,0,3:0:0:0:
102,245,17840,1,0,3:0:0:0:
122,236,17919,1,0,3:0:0:0:
144,236,17998,1,0,3:0:0:0:
355,305,18156,5,14,0:0:0:0:
463,240,18314,1,2,3:0:0:0:
348,174,18472,1,2,3:0:0:0:
188,330,18629,5,12,0:0:0:0:
144,236,18787,1,0,3:0:0:0:
245,247,18945,1,0,3:0:0:0:
39,215,19103,5,14,0:0:0:0:
39,215,19261,1,2,3:0:0:0:
267,97,19577,6,0,P|262:33|203:13,2,102,8|8|8,0:0|0:0|0:0,0:0:0:0:
122,167,20050,1,8,0:0:0:0:
179,90,20208,1,8,0:0:0:0:
231,270,20366,1,0,3:0:0:0:
239,249,20445,1,0,3:0:0:0:
256,234,20524,1,0,3:0:0:0:
277,228,20603,1,0,3:0:0:0:
296,232,20682,1,12,3:2:0:0:
466,284,20998,6,0,P|499:238|482:219,1,76.5000029182435,2|0,0:0|0:0,0:0:0:0:
405,202,21314,2,0,P|381:220|394:266,1,76.5000029182435,2|0,0:0|0:0,0:0:0:0:
395,356,21629,1,8,0:1:0:0:
395,356,21787,1,8,0:0:0:0:
272,284,21945,6,0,P|208:294|199:391,1,153.000005836487,2|8,0:0|0:1,0:0:0:0:
93,368,22419,2,0,P|76:293|62:264,1,76.5000029182435,2|0,0:0|0:0,0:0:0:0:
71,104,22735,5,10,0:0:0:0:
5,178,22893,1,8,0:1:0:0:
105,203,23050,1,0,0:0:0:0:
71,104,23208,6,0,P|77:48|90:5,1,76.5000029182435,14|2,0:0|0:0,0:0:0:0:
163,133,23524,2,0,P|169:77|182:34,1,76.5000029182435,10|2,0:1|0:0,0:0:0:0:
321,44,23840,1,2,0:0:0:0:
297,138,23998,1,10,0:0:0:0:
311,50,24156,1,10,0:0:0:0:
425,154,24314,2,0,P|473:141|482:105,1,76.5000029182435,10|0,0:0|0:0,0:0:0:0:
360,248,24629,6,0,P|339:239|318:235,3,38.2500014591218,2|2|2|2,0:0|0:0|0:0|0:0,0:0:0:0:
423,305,24945,2,0,P|444:296|465:292,3,38.2500014591218,2|2|2|2,0:0|0:0|0:0|0:0,0:0:0:0:
361,360,25261,5,10,0:1:0:0:
257,296,25419,1,8,0:1:0:0:
360,248,25577,1,8,0:1:0:0:
116,279,25735,1,12,0:0:0:0:
116,279,26050,6,0,P|93:222|64:221,1,76.5000029182435,10|0,0:1|0:0,0:0:0:0:
239,182,26366,2,0,P|232:231|228:273,1,76.5000029182435,2|8,0:0|0:0,0:0:0:0:
143,106,26682,1,0,3:0:0:0:
143,106,26840,1,8,0:0:0:0:
334,143,26998,6,0,P|393:134|386:43,1,153.000005836487,2|0,0:0|3:0,0:0:0:0:
254,43,27472,2,0,P|245:95|274:113,1,76.5000029182435,2|0,0:0|0:0,0:0:0:0:
383,224,27787,2,0,P|406:277|379:308,1,76.5000029182435,10|0,0:0|3:0,0:0:0:0:
267,309,28103,1,0,0:0:0:0:
171,176,28261,5,14,0:0:0:0:
258,220,28419,1,10,0:0:0:0:
166,156,28577,5,2,3:0:0:0:
258,107,28735,1,2,0:0:0:0:
149,148,28893,6,0,P|137:102|96:69,2,76.5000029182435,2|10|2,0:0|0:0|3:0,0:0:0:0:
27,274,29366,6,0,P|55:222|99:220,1,76.5000029182435,10|0,0:0|0:0,0:0:0:0:
173,277,29682,2,0,P|153:334|123:344,1,76.5000029182435,10|0,0:0|3:0,0:0:0:0:
219,97,29998,5,10,0:0:0:0:
235,182,30156,1,0,0:0:0:0:
222,102,30314,1,0,3:0:0:0:
335,231,30472,1,2,0:3:0:0:
130,39,30787,6,0,P|78:54|81:134,1,114.750004377365,14|0,0:0|0:0,0:0:0:0:
64,115,31103,2,0,P|88:162|92:197,1,76.5000029182435,2|0,3:0|0:0,0:0:0:0:
17,320,31419,2,0,P|23:281|65:263,1,76.5000029182435,2|8,0:0|0:0,0:0:0:0:
199,314,31735,1,0,3:0:0:0:
145,256,31893,1,8,0:0:0:0:
257,120,32050,6,0,P|313:131|315:234,1,153.000005836487,2|0,0:0|3:0,0:0:0:0:
486,234,32524,1,2,3:0:0:0:
488,222,32603,1,0,0:0:0:0:
479,218,32682,1,0,3:0:0:0:
362,297,32840,2,0,P|344:353|372:382,1,76.5000029182435,10|0,0:0|3:0,0:0:0:0:
449,303,33156,1,0,0:0:0:0:
317,140,33314,5,14,0:0:0:0:
407,87,33472,1,10,0:0:0:0:
303,52,33629,5,2,3:0:0:0:
399,102,33787,1,2,0:0:0:0:
242,171,33945,6,0,P|289:156|326:150,2,76.5000029182435,2|10|10,0:0|0:0|0:0,0:0:0:0:
38,41,34419,6,0,B|19:78|19:78|52:118,1,76.5000029182435,10|0,0:0|0:0,0:0:0:0:
115,274,34735,2,0,P|123:205|135:187,1,76.5000029182435,10|2,0:0|3:2,0:0:0:0:
195,62,35050,5,2,3:2:0:0:
207,81,35129,1,2,3:2:0:0:
228,88,35208,1,2,3:2:0:0:
250,90,35287,1,2,3:2:0:0:
271,81,35366,2,0,P|298:46|291:7,2,76.5000029182435,2|8|8,3:2|0:1|0:1,0:0:0:0:
254,285,35840,6,0,P|246:238|237:208,1,76.5000029182435,12|0,0:0|0:0,0:0:0:0:
324,179,36156,2,0,P|334:215|340:253,1,76.5000029182435,0|0,3:0|0:0,0:0:0:0:
133,290,36472,2,0,P|155:194|178:114,1,153.000005836487,2|0,0:0|3:3,0:0:0:0:
435,226,36945,6,0,P|423:262|416:300,1,76.5000029182435,10|0,0:0|0:0,0:0:0:0:
408,383,37261,1,10,0:0:0:0:
445,210,37419,2,0,P|433:172|381:162,1,76.5000029182435,0|0,3:0|3:0,0:0:0:0:
325,138,37735,2,0,P|286:166|289:212,1,76.5000029182435,0|8,3:0|0:0,0:0:0:0:
124,237,38050,1,8,3:0:0:0:
220,278,38208,1,0,0:0:0:0:
53,327,38366,6,0,P|41:261|34:235,2,76.5000029182435,14|0|0,0:0|0:0|3:0,0:0:0:0:
175,162,38840,2,0,P|186:110|216:96,1,76.5000029182435,2|0,0:0|0:0,0:0:0:0:
32,61,39156,2,0,P|65:79|75:115,1,76.5000029182435,8|0,0:0|3:0,0:0:0:0:
204,314,39472,6,0,B|213:290|213:290|345:237,1,153.000005836487,2|0,3:0|0:0,0:0:0:0:
143,248,39945,2,0,P|93:229|99:199,1,76.5000029182435,2|8,3:0|0:0,0:0:0:0:
207,68,40261,5,0,3:0:0:0:
229,63,40340,1,0,3:0:0:0:
250,70,40419,1,0,3:0:0:0:
266,85,40498,1,2,3:2:0:0:
270,107,40577,1,2,3:2:0:0:
263,127,40656,1,2,3:2:0:0:
244,140,40735,1,2,3:2:0:0:
398,237,40893,6,0,P|408:163|420:129,1,91.7999971984864,14|8,0:0|0:0,0:0:0:0:
270,305,41366,2,0,P|222:282|199:288,1,61.1999981323243,10|0,0:0|3:0,0:0:0:0:
142,338,41682,2,0,P|107:360|80:359,1,61.1999981323243,2|0,3:2|0:0,0:0:0:0:
244,140,41998,6,0,B|257:105|238:75|235:84|213:54|221:16,1,122.399996264649,10|8,0:0|0:0,0:0:0:0:
143,106,42472,1,10,0:0:0:0:
72,54,42629,1,2,3:2:0:0:
136,114,42787,1,2,3:2:0:0:
56,154,42945,1,2,3:2:0:0:
142,125,43103,2,0,P|155:164|145:197,1,61.1999981323243,2|8,3:2|3:2,0:0:0:0:
59,342,43419,6,0,P|42:277|29:252,2,91.7999971984864,8|8|8,0:0|0:0|0:0,0:0:0:0:
203,369,44050,1,0,3:0:0:0:
203,369,44208,2,0,P|230:320|283:327,1,91.7999971984864,2|0,3:2|0:0,0:0:0:0:
270,313,44524,2,0,P|256:265|253:225,1,61.1999981323243,10|0,0:0|0:0,0:0:0:0:
279,175,44840,1,10,0:0:0:0:
463,341,44998,1,10,0:0:0:0:
466,332,45314,6,0,B|475:308|475:308|444:245,1,76.5000029182435,2|0,3:2|0:0,0:0:0:0:
440,257,45550,2,0,P|417:208|482:165,1,114.750004377365,0|2,0:0|3:2,0:0:0:0:
491,97,45866,5,0,3:0:0:0:
491,97,45945,2,0,P|476:44|422:36,1,99.4499954475405,8|8,3:2|0:0,0:0:0:0:
321,103,46419,2,0,B|309:92|309:92|185:67,2,132.599993930054,10|2|10,0:0|3:2|0:0,0:0:0:0:
195,225,47366,1,10,0:0:0:0:
157,163,47524,1,0,3:0:0:0:
349,300,47840,5,0,3:0:0:0:
425,239,47998,1,0,3:0:0:0:
425,239,48077,2,0,P|430:193|375:162,1,99.4499954475405,0|8,3:0|0:0,0:0:0:0:
346,322,48472,6,0,B|327:309|327:309|235:331,1,99.4499954475405,12|8,0:0|0:0,0:0:0:0:
239,332,48787,2,0,P|204:305|213:271,1,66.299996965027,2|0,3:2|3:0,0:0:0:0:
21,373,49103,6,0,P|53:278|60:226,1,132.599993930054,2|2,3:2|3:2,0:0:0:0:
42,120,49577,2,0,B|89:171|89:171|121:98,1,132.599993930054,8|8,0:0|0:0,0:0:0:0:
264,235,50050,1,10,3:2:0:0:
264,235,50366,5,0,3:0:0:0:
282,241,50445,1,0,3:0:0:0:
300,233,50524,1,0,3:0:0:0:
312,217,50603,1,0,3:0:0:0:
318,194,50682,2,0,P|305:169|281:162,3,33.1499984825135,8|8|8|8,3:2|3:2|3:2|3:2,0:0:0:0:
386,234,50998,6,0,P|467:225|444:134,1,183.599994396973,14|2,0:0|0:3,0:0:0:0:
272,322,51472,6,0,P|240:229|201:167,1,137.69999579773,10|0,0:0|0:0,0:0:0:0:
226,178,51787,1,2,0:3:0:0:
57,245,51945,6,0,P|94:149|110:64,1,183.599994396973,12|0,0:1|0:0,0:0:0:0:
262,91,52419,5,10,0:0:0:0:
226,178,52577,1,10,0:1:0:0:
331,212,52735,1,8,0:1:0:0:
331,212,52814,1,8,0:1:0:0:
331,212,52893,1,8,0:1:0:0:
365,112,53050,1,8,0:0:0:0:
366,296,53208,2,0,P|341:230|325:202,1,91.7999971984864,8|0,0:1|0:0,0:0:0:0:
149,84,53524,1,12,0:0:0:0:
149,84,53840,5,2,0:0:0:0:
55,169,53998,1,2,0:0:0:0:
33,74,54156,1,10,0:0:0:0:
166,179,54314,1,10,0:0:0:0:
42,81,54472,1,10,0:1:0:0:
292,39,54629,5,10,0:0:0:0:
203,278,54945,1,10,0:0:0:0:
48,89,55261,1,10,0:0:0:0:
151,193,56050,6,0,P|325:168|381:163,1,224.400006848145,14|8,0:0|0:1,0:0:0:0:
418,33,56524,2,0,P|458:69|442:119,1,112.200003424072,2|0,0:0|0:0,0:0:0:0:
356,245,56840,2,0,P|341:295|395:340,1,112.200003424072,2|2,3:0|3:0,0:0:0:0:
454,323,57077,5,2,3:0:0:0:
454,323,57156,2,0,P|462:232|468:193,1,102,10|0,0:0|0:0,0:0:0:0:
345,108,57472,2,0,P|293:114|286:180,1,102,2|8,0:0|0:1,0:0:0:0:
198,283,57787,5,10,0:1:0:0:
198,283,57866,1,8,0:1:0:0:
198,283,57945,1,8,0:1:0:0:
60,173,58103,1,10,0:0:0:0:
194,172,58261,1,10,0:1:0:0:
119,236,58419,1,10,0:0:0:0:
291,345,58577,6,0,P|299:283|317:228,1,102,8|8,0:0|0:0,0:0:0:0:
156,100,58893,2,0,P|163:162|218:163,1,102,8|0,0:1|0:0,0:0:0:0:
400,103,59208,5,2,0:0:0:0:
333,36,59366,1,10,0:0:0:0:
305,121,59524,1,10,0:1:0:0:
413,111,59682,6,0,P|461:125|467:183,1,102,8|0,0:0|0:0,0:0:0:0:
361,231,59998,2,0,P|315:262|315:308,1,102,8|8,0:0|0:1,0:0:0:0:
412,360,60314,5,8,0:1:0:0:
412,360,60393,1,8,0:1:0:0:
412,360,60472,1,8,0:1:0:0:
463,274,60629,1,8,0:0:0:0:
335,156,60787,1,8,0:1:0:0:
335,156,60866,1,8,0:1:0:0:
335,156,60945,1,8,0:1:0:0:
404,11,61103,6,0,P|376:125|359:253,1,224.400006848145,14|8,0:0|0:1,0:0:0:0:
280,57,61577,2,0,P|248:16|186:26,1,112.200003424072,2|0,0:0|0:0,0:0:0:0:
43,204,61893,1,10,0:0:0:0:
49,195,62208,6,0,B|109:178|172:203|148:220|193:253|276:234,1,234.60000447464,10|8,0:0|0:0,0:0:0:0:
64,287,62682,2,0,B|20:320|20:320|80:313,1,112.200003424072,2|2,3:2|3:2,0:0:0:0:
159,313,62919,1,2,3:2:0:0:
159,313,62998,1,2,3:2:0:0:
224,195,63156,1,8,0:0:0:0:
315,293,63314,1,10,0:1:0:0:
266,50,63472,6,0,P|208:89|250:210,1,168.300005136109,14|0,0:0|0:0,0:0:0:0:
224,195,63787,1,0,0:0:0:0:
294,134,63945,1,10,0:1:0:0:
80,103,64103,6,0,P|140:239|161:327,1,224.400006848145,10|0,0:0|0:0,0:0:0:0:
19,184,64577,1,10,0:1:0:0:
75,299,64735,6,0,P|87:227|123:207,1,112.200003424072,14|0,0:0|0:0,0:0:0:0:
272,280,65050,1,10,0:0:0:0:
224,195,65208,1,10,0:1:0:0:
224,195,65524,6,0,P|255:184|267:153,1,68,10|0,0:0|0:0,0:0:0:0:
166,150,65735,2,0,P|141:128|108:132,1,68,10|0,0:0|0:0,0:0:0:0:
153,226,65945,2,0,P|146:258|166:284,1,68,10|0,0:0|0:0,0:0:0:0:
265,276,66156,5,6,0:3:0:0:
212,81,66366,1,4,0:3:0:0:
69,223,66577,1,4,0:3:0:0:
299,166,66787,6,0,B|359:154|359:154|365:147|365:147|444:130,2,136,8|8|8,0:1|2:0|2:0,2:0:0:0:
133,200,67419,6,0,L|66:224,1,68,12|0,0:3|0:0,0:0:0:0:
201,149,67629,2,0,L|212:79,1,68,8|0,0:3|0:0,0:0:0:0:
213,233,67840,2,0,L|267:277,1,68,8|0,0:3|0:0,0:0:0:0:
122,116,68050,5,8,0:1:0:0:
142,284,68261,1,8,0:1:0:0:
283,177,68472,1,8,0:1:0:0:
122,116,68682,6,0,P|131:46|168:30,1,112.200003424072,14|0,0:0|0:0,0:0:0:0:
252,45,68998,1,8,0:1:0:0:
283,177,69156,2,0,P|323:117|370:125,1,112.200003424072,2|0,0:1|0:1,0:0:0:0:
434,273,69472,1,10,0:0:0:0:
472,190,69629,1,8,0:1:0:0:
420,283,69787,6,0,P|378:239|343:248,1,102,10|0,0:0|0:0,0:0:0:0:
280,324,70103,1,8,0:0:0:0:
163,227,70261,2,0,P|177:285|180:330,1,102,8|8,0:1|0:1,0:0:0:0:
111,359,70498,1,8,0:1:0:0:
111,359,70577,2,0,P|51:349|16:386,1,102,8|8,0:1|0:0,0:0:0:0:
42,224,70893,5,4,0:3:0:0:
49,205,70972,1,4,0:3:0:0:
51,185,71050,1,4,0:3:0:0:
48,164,71129,1,4,0:3:0:0:
40,142,71208,6,0,P|20:57|49:31,1,112.200003424072,14|0,0:0|0:0,0:0:0:0:
113,27,71524,1,8,0:1:0:0:
166,138,71682,2,0,P|276:118|432:122,1,224.400006848145,2|10,0:0|0:0,0:0:0:0:
181,247,72314,6,0,P|128:282|139:337,1,112.200003424072,8|0,0:0|0:0,0:0:0:0:
406,291,72629,1,10,0:0:0:0:
341,236,72787,1,10,0:1:0:0:
315,323,72945,1,8,0:1:0:0:
315,323,73024,1,8,0:1:0:0:
315,323,73103,1,8,0:1:0:0:
425,206,73261,6,0,P|410:138|382:96,1,112.200003424072,8|10,0:0|0:1,0:0:0:0:
319,327,73577,1,2,0:0:0:0:
198,262,73735,2,0,B|167:252|167:252|66:277,2,112.200003424072,12|0|2,0:0|0:0|3:2,0:0:0:0:
405,308,74366,1,2,3:2:0:0:
405,308,74524,1,8,0:0:0:0:
298,194,74682,5,10,0:1:0:0:
384,88,74840,2,0,P|328:244|320:283,1,204,14|8,0:0|0:0,0:0:0:0:
217,107,75314,5,10,0:1:0:0:
288,67,75472,1,10,0:1:0:0:
288,67,75550,1,8,0:1:0:0:
288,67,75629,1,8,0:1:0:0:
171,39,75787,1,8,0:1:0:0:
175,199,75945,2,0,P|199:135|221:100,1,102,4|4,0:3|0:3,0:0:0:0:
389,258,76261,5,14,0:0:0:0:
348,183,76419,1,2,0:0:0:0:
435,170,76577,1,10,0:1:0:0:
387,273,76735,2,0,P|351:320|305:305,1,102,2|0,0:0|0:0,0:0:0:0:
197,280,77050,2,0,P|137:294|121:343,1,102,8|8,0:0|0:1,0:0:0:0:
316,30,77366,6,0,B|287:43|287:43|262:219,1,204,14|8,0:0|0:1,0:0:0:0:
198,135,77840,1,2,0:3:0:0:
369,104,77998,2,0,P|419:126|403:179,1,102,10|8,0:0|0:1,0:0:0:0:
328,265,78314,2,0,P|296:212|258:215,1,102,8|8,0:1|0:1,0:0:0:0:
196,128,78629,5,8,0:1:0:0:
196,128,78708,1,8,0:1:0:0:
196,128,78787,2,0,L|27:188,1,153,12|8,0:0|0:0,0:0:0:0:
44,182,79103,2,0,P|15:238|59:272,1,102,0|0,3:0|3:0,0:0:0:0:
127,64,79419,2,0,P|127:8|66:0,1,102,10|0,0:1|0:0,0:0:0:0:
262,271,79893,6,0,B|273:247|273:247|459:198,1,204,6|6,0:3|0:3,0:0:0:0:
306,112,80366,1,6,3:0:0:0:
306,91,80445,1,2,3:0:0:0:
318,74,80524,1,2,3:0:0:0:
336,65,80603,1,2,3:0:0:0:
356,66,80682,1,10,0:1:0:0:
212,53,80840,6,0,P|158:64|96:81,1,102,4|0,0:3|0:0,0:0:0:0:
118,85,81077,2,0,P|167:72|217:62,1,102,4|0,0:3|0:0,0:0:0:0:
293,40,81314,1,4,0:3:0:0:
214,239,81629,6,0,P|228:182|286:181,1,102,2|2,3:2|3:2,0:0:0:0:
356,230,81945,2,0,P|358:282|308:302,1,102,0|0,3:0|3:0,0:0:0:0:
39,143,82419,6,0,B|64:157|64:157|102:269,1,122.399996264649,14|0,0:0|0:0,0:0:0:0:
188,327,82735,2,0,B|176:297|176:297|226:218,1,102,14|0,0:0|0:0,0:0:0:0:
289,130,83050,2,0,B|273:169|273:169|331:196,1,76.5000029182435,14|0,0:0|0:0,0:0:0:0:
375,301,83366,1,8,3:2:0:0:
381,282,83445,1,8,3:2:0:0:
393,267,83524,1,8,3:2:0:0:
410,258,83603,1,8,3:2:0:0:
428,254,83682,1,8,3:2:0:0:
512,346,83840,6,0,P|506:247|508:217,1,114.750004377365,12|8,0:0|0:0,0:0:0:0:
502,213,84156,2,0,P|505:160|482:149,1,76.5000029182435,0|0,3:0|3:0,0:0:0:0:
490,65,84472,2,0,P|434:70|432:87,1,76.5000029182435,10|0,0:1|0:0,0:0:0:0:
271,198,84945,6,0,B|282:171|282:171|236:33,1,153.000005836487,6|6,0:3|0:3,0:0:0:0:
170,119,85419,1,2,3:2:0:0:
170,119,85498,1,2,3:2:0:0:
170,119,85577,1,2,3:2:0:0:
78,52,85735,1,10,0:1:0:0:
170,128,85893,6,0,P|121:157|130:204,1,76.5000029182435,4|0,0:3|0:0,0:0:0:0:
125,186,86129,2,0,P|172:224|163:252,1,76.5000029182435,4|0,0:3|0:0,0:0:0:0:
117,284,86366,1,6,0:3:0:0:
371,269,87472,5,4,3:3:0:0:
371,269,87787,2,0,P|379:168|281:105,1,204,12|0,0:0|0:0,0:0:0:0:
175,263,88261,1,4,0:3:0:0:
145,181,88419,2,0,B|174:171|174:171|290:209|290:209|256:222,1,191.250007295609,4|0,0:3|0:0,0:0:0:0:
