osu file format v14

[General]
AudioFilename: audio.mp3
AudioLeadIn: 0
PreviewTime: 61113
Countdown: 0
SampleSet: Soft
StackLeniency: 0.4
Mode: 0
LetterboxInBreaks: 0
WidescreenStoryboard: 0

[Editor]
Bookmarks: 5534,7955,10903,20692,21324,25745,30797,35850,40903,48482,53534,61113,65534,68692,76271,78797,83850,89297
DistanceSpacing: 0.5
BeatDivisor: 8
GridSize: 32
TimelineZoom: 2.2

[Metadata]
Title:New Stranger (TV Size)
TitleUnicode:New Stranger (TV Size)
Artist:sora tob sakana
ArtistUnicode:sora tob sakana
Creator:hypercyte
Version:Extra Stage
Source:HI SCORE GIRL
Tags:ハイスコアガール high japanese anime electronic female vocals hypercute sunset bicycle couple extra stage
BeatmapID:3195068
BeatmapSetID:1564596

[Difficulty]
HPDrainRate:5
CircleSize:4.4
OverallDifficulty:8.5
ApproachRate:9.2
SliderMultiplier:2.44
SliderTickRate:1

[Events]
//Background and Video events
0,0,"37329615_p0.jpg",0,0
//Break Periods
//Storyboard Layer 0 (Background)
//Storyboard Layer 1 (Fail)
//Storyboard Layer 2 (Pass)
//Storyboard Layer 3 (Foreground)
//Storyboard Layer 4 (Overlay)
//Storyboard Sound Samples

[TimingPoints]
472,315.789473684211,4,2,44,64,1,0
472,-66.6666666666667,4,2,44,64,0,0
787,-100,4,2,44,64,0,0
1577,-66.6666666666667,4,2,44,64,0,0
2050,-100,4,2,44,64,0,0
2524,-66.6666666666667,4,2,44,64,0,0
2998,-80,4,2,0,64,0,0
3314,-66.6666666666667,4,2,0,64,0,0
4419,-80,4,2,0,64,0,0
4735,-100,4,2,0,64,0,0
5050,-133.333333333333,4,2,0,64,0,0
6629,-66.6666666666667,4,2,0,64,0,0
7814,-80,4,2,0,64,0,0
8050,-100,4,2,0,64,0,0
8366,-454.545454545455,4,2,0,64,0,0
9156,-69.4444444444444,4,2,0,64,0,0
10893,-100,4,2,44,64,0,0
12314,-80,4,2,44,64,0,0
12629,-100,4,2,44,64,0,0
17050,-80,4,2,44,64,0,0
20998,-133.333333333333,4,2,44,54,0,0
35840,-100,4,2,44,54,0,0
36945,-125,4,2,44,54,0,0
39472,-100,4,2,44,54,0,0
39945,-80,4,2,44,54,0,0
40893,-100,4,2,44,50,0,0
41103,-133.333333333333,4,2,44,50,0,0
42511,-133.333333333333,4,2,44,5,0,0
42629,-133.333333333333,4,2,44,50,0,0
45314,-83.3333333333333,4,2,44,50,0,0
45945,-117.647058823529,4,2,44,50,0,0
50998,-80,4,2,44,64,0,0
51353,-80,4,2,44,5,0,0
51393,-80,4,2,44,64,0,0
51827,-80,4,2,44,5,0,0
51866,-80,4,2,44,64,0,0
54629,-57.1428571428571,4,2,44,64,0,0
54708,-57.1428571428571,4,2,44,5,0,0
54787,-57.1428571428571,4,2,44,64,0,0
55024,-57.1428571428571,4,2,44,5,0,0
55103,-57.1428571428571,4,2,44,64,0,0
55340,-57.1428571428571,4,2,44,5,0,0
55419,-57.1428571428571,4,2,44,64,0,0
56050,-80,4,2,44,64,0,1
56682,-80,4,2,44,64,0,0
57156,-100,4,2,44,64,0,0
59682,-100,4,2,44,64,0,0
61103,-80,4,2,44,64,0,1
61458,-80,4,2,44,5,0,1
61577,-80,4,2,44,64,0,1
61893,-100,4,2,44,64,0,0
62208,-80,4,2,44,64,0,0
65208,-80,4,2,44,64,0,0
65524,-76.9230769230769,4,2,44,64,0,1
66156,-66.6666666666667,4,2,44,64,0,1
66787,-100,4,2,44,64,0,1
67419,-66.6666666666667,4,2,44,64,0,1
68603,-66.6666666666667,4,2,44,64,0,0
68682,-83.3333333333333,4,2,44,64,0,1
69472,-83.3333333333333,4,2,44,64,0,0
69787,-100,4,2,44,64,0,0
71208,-83.3333333333333,4,2,44,64,0,0
73735,-83.3333333333333,4,2,44,64,0,1
74366,-83.3333333333333,4,2,44,64,0,0
74682,-100,4,2,44,64,0,0
76261,-100,4,2,44,64,0,1
76735,-100,4,2,44,64,0,0
78787,-100,4,2,44,64,0,1
82419,-66.6666666666667,4,2,44,64,0,1
82735,-80,4,2,44,64,0,1
83050,-100,4,2,44,64,0,1
86524,-100,4,2,44,64,0,0
87472,-59.8802395209581,4,2,44,64,0,0
87787,-80,4,2,44,64,0,0
88261,-100,4,2,44,64,0,0
88300,-100,4,2,44,5,0,0
88419,-133.333333333333,4,2,44,64,0,0

[Colours]
Combo1 : 221,170,240
Combo2 : 155,221,240
Combo3 : 151,230,186
Combo4 : 233,236,121
Combo5 : 242,201,145
Combo6 : 243,160,120

[HitObjects]
165,292,472,6,0,B|187:236|187:236|195:228|195:228|212:185|212:185|200:160|200:160|218:111|218:111|232:107|232:107|240:116|240:116|220:172,1,274.500010471344,4|0,0:3|0:0,0:0:0:0:
284,223,787,5,0,0:0:0:0:
302,226,866,1,0,0:0:0:0:
321,216,945,1,0,0:0:0:0:
321,198,1024,1,0,0:0:0:0:
296,166,1103,5,2,0:0:0:0:
254,180,1182,5,2,0:0:0:0:
251,226,1261,5,2,0:0:0:0:
288,248,1340,5,2,0:0:0:0:
443,328,1577,6,0,B|452:300|452:300|399:43,1,274.500010471344,4|0,0:3|0:0,0:0:0:0:
461,23,1893,2,0,B|465:36|465:36|438:119,1,91.5000034904481,4|0,0:3|0:0,0:0:0:0:
364,55,2050,5,2,0:0:0:0:
351,50,2129,5,2,0:0:0:0:
307,60,2208,5,2,0:0:0:0:
290,101,2287,5,2,0:0:0:0:
309,141,2366,5,2,0:0:0:0:
152,230,2524,6,0,B|129:177|129:177|129:161|129:161|113:126|113:126|64:109|64:109|91:170,1,183.000006980896,4|0,0:3|0:0,0:0:0:0:
120,46,2761,2,0,B|131:66|131:66|56:193|56:193|65:226,1,183.000006980896,4|0,0:3|0:0,0:0:0:0:
62,278,2998,2,0,B|55:288|55:288|74:350|74:350|92:288|92:288|86:279,1,152.5,4|0,0:3|0:0,0:0:0:0:
152,230,3314,5,2,0:0:0:0:
197,237,3393,1,2,0:0:0:0:
240,242,3472,1,2,0:0:0:0:
274,248,3550,1,2,0:0:0:0:
252,228,3629,5,0,0:0:0:0:
234,234,3708,1,0,0:0:0:0:
217,240,3787,1,0,0:0:0:0:
353,322,3945,2,0,B|326:358|326:358|341:315,1,91.5000034904481,0|0,1:0|0:0,0:0:0:0:
460,255,4103,6,0,B|417:56|417:56|402:197,1,274.500010471344,4|0,0:3|0:0,0:0:0:0:
337,207,4419,6,0,B|385:58|385:58|409:126,1,228.75,4|0,0:3|0:0,0:0:0:0:
252,228,4735,6,0,B|205:96|205:96|186:149,1,183,4|0,0:3|0:0,0:0:0:0:
93,135,5050,6,0,B|76:121|76:121|115:104|115:104|102:129,1,91.5000034904481,4|0,0:3|0:0,0:0:0:0:
138,204,5287,2,0,B|147:222|147:222|118:210|118:210|130:199,1,45.7500017452241,4|0,0:3|0:0,0:0:0:0:
368,103,5524,5,4,0:3:0:0:
375,113,5840,5,0,0:0:0:0:
389,118,5919,1,0,0:0:0:0:
403,123,5998,1,0,0:0:0:0:
422,129,6077,1,0,0:0:0:0:
414,118,6156,5,2,0:0:0:0:
384,135,6235,5,2,0:0:0:0:
377,180,6314,5,2,0:0:0:0:
415,210,6393,5,2,0:0:0:0:
454,197,6472,5,2,0:0:0:0:
318,339,6629,2,0,B|320:327|320:327|244:54,1,274.500010471344,4|0,0:3|0:0,0:0:0:0:
231,162,6945,2,0,B|242:120|242:120|239:114|239:114|253:57,1,91.5000034904481,4|0,0:3|0:0,0:0:0:0:
152,41,7103,5,2,0:0:0:0:
120,37,7182,5,2,0:0:0:0:
75,57,7261,5,2,0:0:0:0:
118,82,7340,5,2,0:0:0:0:
139,118,7419,5,2,0:0:0:0:
14,300,7577,6,0,B|28:261|28:261|28:249|28:249|50:187|50:187|85:239,1,183.000006980896,4|0,0:3|0:0,0:0:0:0:
176,343,7814,2,0,B|141:348|141:348|133:354|133:354|78:364|78:364|101:316,1,152.5,4|0,0:3|0:0,0:0:0:0:
155,203,8050,2,0,B|172:224|172:224|179:228|179:228|208:261|208:261|166:264,1,122,4|0,0:3|0:0,0:0:0:0:
362,327,8366,6,2,B|364:317|364:317|370:320|370:320|373:312|373:312|377:316|377:316|380:309|380:309|383:312|383:312|387:304|387:304|392:309|392:309|392:298|392:298|399:302|399:302|399:295|399:295|404:300|404:300|405:293|405:293|412:293|412:293|412:286|412:286|415:290|415:290|416:281|416:281,1,120.780003685913,2|0,0:3|0:0,0:1:0:0:
415,287,9156,6,0,B|432:245|432:245|394:221,1,87.8400021445313,8|0,0:0|0:0,0:0:0:0:
112,75,9472,6,0,B|71:111|71:111|127:87,1,87.8400021445313,8|0,0:0|0:0,0:0:0:0:
195,80,9629,5,2,0:0:0:0:
213,160,9787,1,2,0:0:0:0:
298,169,9945,1,2,0:0:0:0:
160,223,10103,5,0,0:0:0:0:
213,160,10261,1,0,0:0:0:0:
165,227,10419,1,0,0:0:0:0:
301,175,10577,6,0,B|328:184|328:184|308:183,1,43.9200010722656,2|0,0:1|0:1,0:0:0:0:
213,160,10735,1,8,0:0:0:0:
363,384,10893,5,14,0:0:0:0:
261,313,11050,1,2,0:0:0:0:
165,227,11208,1,2,0:0:0:0:
259,317,11366,6,0,P|186:304|100:305,1,122,2|0,0:0|0:0,0:0:0:0:
373,195,11682,2,0,P|447:180|509:178,1,122,8|0,0:0|0:0,0:0:0:0:
170,100,11998,2,0,B|189:51|188:4|188:4|193:46|214:92,1,183,10|0,0:0|0:0,0:0:0:0:
210,85,12314,6,0,B|142:75|142:75|132:78|132:78|47:66|47:66|74:43|74:43|90:65,1,228.75,2|0,0:0|0:0,0:0:0:0:
91,116,12629,1,0,3:0:0:0:
88,125,12708,1,0,3:0:0:0:
78,124,12787,1,0,3:0:0:0:
188,343,12945,1,0,0:0:0:0:
188,343,13103,5,10,0:0:0:0:
97,261,13261,1,2,0:0:0:0:
218,210,13419,1,2,0:0:0:0:
101,29,13577,5,8,3:2:0:0:
192,76,13735,1,0,3:0:0:0:
102,35,13893,1,0,3:0:0:0:
271,378,14208,6,0,B|171:349|171:349|245:321,1,183,8|0,0:0|0:0,0:0:0:0:
319,318,14524,2,0,B|391:344|391:344|336:364,1,122,8|0,0:0|0:0,0:0:0:0:
377,40,14840,6,0,L|368:-2,6,30.5,2|2|2|2|2|2|2,0:3|0:3|0:3|0:3|0:3|0:3|0:3,0:0:0:0:
383,115,15208,5,2,0:3:0:0:
307,104,15314,1,2,0:3:0:0:
361,122,15419,1,2,0:3:0:0:
334,101,15524,1,2,0:3:0:0:
301,174,15629,6,0,P|292:258|294:340,2,122,14|2|2,0:0|0:0|0:0,0:0:0:0:
377,40,16103,1,8,0:0:0:0:
180,65,16261,1,0,3:0:0:0:
183,67,16577,1,0,3:0:0:0:
103,107,16735,6,0,B|59:116|28:86|28:86|73:87|108:68,1,122,8|0,0:0|0:0,0:0:0:0:
187,307,17050,6,0,B|226:266|223:193|168:173|168:173|125:176|111:211,1,228.75,8|0,0:0|0:0,0:0:0:0:
102,307,17366,6,0,P|111:240|322:285,1,305,2|0,3:0|0:0,0:0:0:0:
337,302,17761,1,0,3:0:0:0:
369,313,17840,1,0,3:0:0:0:
406,301,17919,1,0,3:0:0:0:
413,266,17998,1,0,3:0:0:0:
142,87,18156,5,14,0:0:0:0:
190,266,18314,1,2,3:0:0:0:
130,79,18472,1,2,3:0:0:0:
340,205,18629,5,12,0:0:0:0:
365,121,18787,1,0,3:0:0:0:
338,217,18945,1,0,3:0:0:0:
237,32,19103,5,14,0:0:0:0:
337,302,19261,1,2,3:0:0:0:
130,79,19577,5,8,0:0:0:0:
170,160,19735,1,8,0:0:0:0:
0,274,19893,5,8,0:0:0:0:
80,170,20050,1,8,0:0:0:0:
184,17,20208,1,8,0:0:0:0:
150,238,20366,5,0,3:0:0:0:
167,203,20445,1,0,3:0:0:0:
199,183,20524,1,0,3:0:0:0:
236,179,20603,1,0,3:0:0:0:
273,187,20682,1,12,3:2:0:0:
460,347,20998,6,0,P|465:301|478:257,1,91.5000034904481,2|0,0:0|0:0,0:0:0:0:
379,332,21314,2,0,P|391:288|397:242,1,91.5000034904481,2|0,0:0|0:0,0:0:0:0:
359,73,21629,1,8,0:1:0:0:
359,73,21787,1,8,0:0:0:0:
183,165,21945,6,0,P|197:107|199:64,1,91.5000034904481,2|8,0:0|0:0,0:0:0:0:
271,37,22261,1,8,0:1:0:0:
280,225,22419,2,0,P|248:253|191:231,1,91.5000034904481,2|0,0:0|0:0,0:0:0:0:
183,165,22735,2,0,P|215:137|272:159,1,91.5000034904481,10|8,0:0|0:1,0:0:0:0:
82,326,23050,1,0,0:0:0:0:
83,196,23208,5,14,0:0:0:0:
14,258,23366,1,2,0:0:0:0:
190,341,23524,5,10,0:1:0:0:
163,252,23682,1,2,0:0:0:0:
342,172,23840,5,2,0:0:0:0:
291,250,23998,1,10,0:0:0:0:
381,304,24156,1,10,0:0:0:0:
431,226,24314,1,10,0:0:0:0:
164,69,24629,5,2,0:0:0:0:
178,71,24708,5,2,0:0:0:0:
187,79,24787,5,2,0:0:0:0:
180,85,24866,5,2,0:0:0:0:
167,86,24945,5,2,0:0:0:0:
158,74,25024,5,2,0:0:0:0:
166,59,25103,5,2,0:0:0:0:
194,57,25182,5,2,0:0:0:0:
211,88,25261,5,2,0:0:0:0:
197,114,25340,5,2,0:0:0:0:
200,149,25419,6,0,B|213:173|213:173|220:145,1,45.7500017452241,8|0,0:1|0:0,0:0:0:0:
270,34,25577,2,0,B|283:10|283:10|290:38,1,45.7500017452241,8|0,0:1|0:0,0:0:0:0:
380,185,25735,5,12,0:0:0:0:
47,229,26050,6,0,B|71:232|71:232|139:205,1,91.5000034904481,10|0,0:1|0:0,0:0:0:0:
85,319,26366,2,0,B|97:299|97:299|165:272,1,91.5000034904481,2|8,0:0|0:0,0:0:0:0:
376,329,26682,1,0,3:0:0:0:
376,329,26840,1,8,0:0:0:0:
289,177,26998,6,0,P|302:106|331:71,1,91.5000034904481,2|8,0:0|0:0,0:0:0:0:
173,89,27314,1,0,3:0:0:0:
293,183,27472,2,0,P|295:244|265:256,1,91.5000034904481,2|0,0:0|0:0,0:0:0:0:
197,231,27787,2,0,P|195:170|225:158,1,91.5000034904481,10|0,0:0|3:0,0:0:0:0:
369,149,28103,1,0,0:0:0:0:
207,335,28261,5,14,0:0:0:0:
274,254,28419,1,10,0:0:0:0:
481,312,28577,5,2,3:0:0:0:
380,253,28735,1,2,0:0:0:0:
417,69,28893,5,2,0:0:0:0:
369,149,29050,1,10,0:0:0:0:
413,76,29208,1,2,3:0:0:0:
123,67,29366,6,0,B|127:86|127:86|209:132,1,91.5000034904481,10|0,0:0|0:0,0:0:0:0:
218,331,29682,2,0,P|201:277|139:266,1,91.5000034904481,10|0,0:0|3:0,0:0:0:0:
29,193,29998,2,0,B|80:199|115:161|98:157|131:118|197:121,1,183.000006980896,10|0,0:0|3:0,0:0:0:0:
44,51,30472,2,0,B|25:67|2:71|2:71|26:74|44:84,1,91.5000034904481,2|0,0:3|0:0,0:0:0:0:
344,114,30787,6,0,L|300:127,1,45.7500017452241,14|0,0:0|0:0,0:0:0:0:
253,60,30945,1,2,0:0:0:0:
314,277,31103,6,0,P|298:236|327:203,1,91.5000034904481,2|0,3:0|0:0,0:0:0:0:
250,340,31419,2,0,P|219:275|182:241,1,91.5000034904481,2|8,0:0|0:0,0:0:0:0:
90,132,31735,1,0,3:0:0:0:
56,199,31893,1,8,0:0:0:0:
95,21,32050,6,0,P|145:62|133:84,1,91.5000034904481,2|8,0:0|0:0,0:0:0:0:
56,199,32366,1,0,3:0:0:0:
140,74,32524,2,0,P|179:50|224:77,1,91.5000034904481,2|0,3:0|3:0,0:0:0:0:
288,158,32840,2,0,P|329:122|379:149,1,91.5000034904481,10|0,0:0|3:0,0:0:0:0:
419,219,33156,1,0,0:0:0:0:
422,19,33314,5,14,0:0:0:0:
361,129,33472,1,10,0:0:0:0:
317,32,33629,1,2,3:0:0:0:
466,113,33787,1,2,0:0:0:0:
158,267,33945,5,2,0:0:0:0:
169,148,34103,1,10,0:0:0:0:
288,158,34261,1,10,0:0:0:0:
20,138,34419,6,0,L|77:141,1,45.7500017452241,10|0,0:0|0:0,0:0:0:0:
265,358,34735,2,0,L|267:291,1,45.7500017452241,10|0,0:0|0:0,0:0:0:0:
303,250,34893,5,2,3:2:0:0:
311,242,34972,5,2,3:2:0:0:
329,244,35050,5,2,3:2:0:0:
340,252,35129,5,2,3:2:0:0:
344,262,35208,5,2,3:2:0:0:
344,276,35287,5,2,3:2:0:0:
364,253,35366,5,2,3:2:0:0:
397,247,35445,5,2,3:2:0:0:
432,262,35524,6,0,P|435:279|428:266,1,45.7500017452241,8|0,0:1|0:0,0:0:0:0:
389,340,35682,2,0,P|386:357|393:344,1,45.7500017452241,8|0,0:1|0:0,0:0:0:0:
371,162,35840,6,0,P|374:107|398:31,3,122,12|0|0|0,0:0|0:0|3:0|0:0,0:0:0:0:
163,124,36472,6,0,B|149:102|149:102|173:49|173:49|190:78|190:78|182:99,1,122,2|8,0:0|0:0,0:0:0:0:
234,151,36787,1,0,3:3:0:0:
55,244,36945,2,0,P|62:211|124:202,1,97.6,10|0,0:0|0:0,0:0:0:0:
99,317,37261,1,10,0:0:0:0:
99,317,37419,2,0,P|148:315|151:267,1,97.6,0|0,3:0|3:0,0:0:0:0:
177,250,37656,1,0,3:0:0:0:
207,245,37735,2,0,P|252:261|254:321,1,97.6,0|8,3:0|0:0,0:0:0:0:
340,69,38050,5,8,3:0:0:0:
234,151,38208,1,0,0:0:0:0:
430,295,38366,6,0,B|426:285|426:285|464:148,1,146.4,14|0,0:0|0:0,0:0:0:0:
452,143,38682,1,0,3:0:0:0:
234,151,38840,2,0,B|223:125|223:125|252:107,1,48.8,2|0,0:0|0:0,0:0:0:0:
100,339,39156,5,8,0:0:0:0:
20,172,39314,1,0,3:0:0:0:
95,335,39472,6,0,P|106:264|153:91,1,244,2|0,3:0|0:0,0:0:0:0:
360,273,39945,2,0,P|355:220|314:200,1,76.25,2|0,3:0|0:0,0:0:0:0:
329,205,40103,1,8,0:0:0:0:
211,310,40261,5,0,3:0:0:0:
208,297,40340,1,0,3:0:0:0:
217,284,40419,1,0,3:0:0:0:
232,285,40498,5,2,3:2:0:0:
245,249,40577,5,2,3:2:0:0:
239,211,40656,5,2,3:2:0:0:
207,189,40735,5,2,3:2:0:0:
168,191,40814,5,2,3:2:0:0:
154,193,40893,6,0,P|133:93|52:51,1,183,14|8,0:0|0:0,0:0:0:0:
360,200,41366,2,0,P|369:162|389:147,1,45.7500017452241,10|0,0:0|0:0,0:0:0:0:
441,145,41524,1,0,3:0:0:0:
299,132,41682,2,0,P|280:85|257:75,1,45.7500017452241,2|0,3:2|0:0,0:0:0:0:
101,367,41998,6,0,P|118:285|167:166,1,183.000006980896,10|8,0:0|0:0,0:0:0:0:
208,130,42472,2,0,P|214:111|213:100,1,22.875000872612,10|0,0:0|0:0,0:0:0:0:
138,106,42629,1,2,3:2:0:0:
226,240,42787,1,2,3:2:0:0:
349,128,42945,1,2,3:2:0:0:
376,136,43024,1,0,3:0:0:0:
386,159,43103,1,2,3:2:0:0:
315,203,43261,1,8,3:2:0:0:
415,25,43419,6,0,P|395:97|385:170,1,137.250005235672,8|8,0:0|0:0,0:0:0:0:
476,242,43735,2,0,B|493:222|476:200|476:200|449:217|461:240,1,91.5000034904481,2|8,0:0|0:0,0:0:0:0:
389,371,44050,1,0,3:0:0:0:
309,350,44208,2,0,P|301:317|344:281,1,91.5000034904481,2|0,3:2|3:0,0:0:0:0:
110,368,44524,6,0,P|129:302|125:215,1,137.250005235672,10|0,0:0|0:0,0:0:0:0:
122,231,44840,1,10,0:0:0:0:
15,175,44998,2,0,B|29:194|32:218|32:218|31:195|46:176,1,91.5000034904481,10|0,0:0|3:0,0:0:0:0:
284,44,45314,6,0,B|302:62|302:62|246:172,1,146.399995532227,2|0,3:2|0:0,0:0:0:0:
210,44,45550,2,0,B|192:62|192:62|248:172,1,146.399995532227,2|0,0:0|0:0,0:0:0:0:
184,242,45787,5,2,3:2:0:0:
153,236,45866,1,0,3:0:0:0:
122,231,45945,2,0,P|100:303|172:349,1,155.550002966881,8|8,3:2|0:0,0:0:0:0:
367,113,46419,6,0,P|345:161|335:211,1,103.700001977921,10|0,0:0|3:0,0:0:0:0:
335,211,46735,2,0,P|300:168|246:186,1,103.700001977921,2|0,3:2|3:0,0:0:0:0:
455,384,47050,6,0,P|444:310|424:214,1,155.550002966881,10|0,0:0|0:0,0:0:0:0:
433,222,47366,2,0,P|455:216|479:242,1,51.8500009889603,10|0,0:0|0:0,0:0:0:0:
364,294,47524,2,0,P|350:298|342:307,6,25.9250004944801,0|0|0|0|0|0|0,3:0|3:0|3:0|3:0|3:0|3:0|3:0,3:0:0:0:
433,222,47840,6,0,P|440:172|384:150,1,103.700001977921,0|0,3:0|3:0,0:0:0:0:
338,99,48077,1,0,3:0:0:0:
328,121,48156,2,0,P|291:137|284:199,1,103.700001977921,0|8,3:0|0:0,0:0:0:0:
57,289,48472,6,0,P|103:176|104:119,1,155.550002966881,12|8,0:0|0:0,0:0:0:0:
17,143,48787,2,0,B|-3:165|10:192|10:192|37:173|28:147,1,103.700001977921,2|0,3:2|3:0,0:0:0:0:
281,194,49103,6,0,P|322:141|280:53,1,155.550002966881,2|0,3:2|0:0,0:0:0:0:
223,73,49419,2,0,P|200:108|248:124,2,103.700001977921,2|8|0,3:2|0:0|3:0,0:0:0:0:
340,134,49893,1,8,0:0:0:0:
233,281,50050,6,0,P|332:259|392:253,1,155.550002966881,10|0,3:2|0:0,0:0:0:0:
435,200,50366,5,0,3:0:0:0:
471,204,50445,1,0,3:0:0:0:
494,235,50524,1,0,3:0:0:0:
486,273,50603,1,0,3:0:0:0:
473,280,50682,5,8,3:2:0:0:
460,275,50761,1,8,3:2:0:0:
450,265,50840,1,8,3:2:0:0:
452,254,50919,1,8,3:2:0:0:
463,246,50998,6,0,P|481:171|365:101,1,228.75,14|0,0:0|0:0,0:0:0:0:
368,100,51314,2,0,P|352:135|363:164,1,38.125,2|0,0:3|0:0,0:0:0:0:
283,323,51472,6,0,P|270:250|213:84,1,228.75,10|0,0:0|0:0,0:0:0:0:
218,104,51787,2,0,P|225:122|231:141,1,38.125,2|0,0:3|0:0,0:0:0:0:
169,269,51945,2,0,P|161:231|150:195,1,76.25,12|0,0:1|0:0,0:0:0:0:
84,34,52103,6,0,P|75:148|60:261,1,228.75,2|0,3:0|0:0,0:0:0:0:
64,265,52419,1,10,0:0:0:0:
0,159,52577,1,10,0:1:0:0:
218,104,52735,5,8,0:1:0:0:
255,116,52814,1,8,0:1:0:0:
260,156,52893,1,8,0:1:0:0:
174,182,53050,1,8,0:0:0:0:
349,323,53208,2,0,P|363:220|380:147,1,152.5,8|0,0:1|0:0,0:0:0:0:
67,28,53524,6,0,P|159:63|166:193,1,228.75,12|0,0:0|0:0,0:0:0:0:
170,186,53840,1,2,0:0:0:0:
71,157,53998,1,2,0:0:0:0:
206,94,54156,1,10,0:0:0:0:
339,30,54314,1,10,0:0:0:0:
213,91,54472,1,10,0:1:0:0:
385,280,54629,6,0,B|382:268|382:268|418:158,1,106.750001018047,10|0,0:0|0:0,0:0:0:0:
283,279,54945,6,0,B|273:270|273:270|240:160,1,106.750001018047,10|0,0:0|0:0,0:0:0:0:
221,345,55261,6,0,B|208:345|208:345|106:291,1,106.750001018047,10|0,0:0|0:0,0:0:0:0:
213,91,55577,5,2,0:0:0:0:
215,96,55735,1,2,0:0:0:0:
217,100,55893,1,2,0:0:0:0:
91,178,56050,6,0,B|99:164|99:164|320:98,1,228.75,14|0,0:0|0:0,0:0:0:0:
305,97,56366,1,8,0:1:0:0:
491,254,56524,2,0,B|487:244|487:244|346:201,1,152.5,2|0,0:0|0:0,0:0:0:0:
249,241,56840,5,2,3:0:0:0:
217,244,56919,5,2,3:0:0:0:
200,270,56998,5,2,3:0:0:0:
207,300,57077,5,2,3:0:0:0:
229,321,57156,6,0,P|211:267|153:263,1,122,10|0,0:0|0:0,0:0:0:0:
29,361,57472,2,0,P|20:306|79:264,1,122,2|8,0:0|0:1,0:0:0:0:
98,95,57787,5,10,0:1:0:0:
128,115,57866,1,8,0:1:0:0:
162,136,57945,1,8,0:1:0:0:
34,151,58103,5,10,0:0:0:0:
222,71,58261,1,10,0:1:0:0:
322,30,58419,1,10,0:0:0:0:
335,279,58577,5,8,0:0:0:0:
259,177,58735,1,8,0:0:0:0:
453,221,58893,1,8,0:1:0:0:
320,369,59050,1,0,0:0:0:0:
378,132,59208,5,2,0:0:0:0:
259,177,59366,1,10,0:0:0:0:
335,279,59524,1,10,0:1:0:0:
81,214,59682,6,0,B|49:216|10:181|10:181|44:219,1,122,8|0,0:0|0:0,0:0:0:0:
148,254,59998,2,0,B|165:280|155:331|155:331|171:283,1,122,8|8,0:0|0:1,0:0:0:0:
191,109,60314,5,8,0:1:0:0:
142,122,60393,1,8,0:1:0:0:
150,175,60472,1,8,0:1:0:0:
152,39,60629,1,8,0:0:0:0:
150,175,60787,5,8,0:1:0:0:
158,122,60866,1,8,0:1:0:0:
109,109,60945,1,8,0:1:0:0:
451,129,61103,6,0,P|338:148|227:177,1,228.75,14|0,0:0|0:0,0:0:0:0:
228,183,61419,2,0,P|256:185|272:199,1,38.125,8|0,0:1|0:0,0:0:0:0:
454,123,61577,2,0,P|407:107|388:71,1,76.25,2|0,0:0|0:0,0:0:0:0:
69,279,61893,6,0,B|93:246|81:192|81:192|93:245|134:265,1,183,10|0,0:0|0:0,0:0:0:0:
77,284,62208,2,0,B|145:249|230:295|204:304|298:359|367:328,1,305,10|8,0:0|0:0,0:0:0:0:
168,190,62682,5,2,3:2:0:0:
175,152,62761,5,2,3:2:0:0:
213,148,62840,5,2,3:2:0:0:
229,182,62919,5,2,3:2:0:0:
202,208,62998,5,2,3:2:0:0:
122,93,63156,1,8,0:0:0:0:
368,150,63314,6,0,B|388:152|407:149|407:149|386:154|372:173,1,76.25,10|0,0:1|0:0,0:0:0:0:
318,49,63472,2,0,B|276:84|300:127|344:146|370:125|410:124|433:106|488:122|506:139|504:187|483:202,1,305,14|0,0:0|0:0,0:0:0:0:
83,264,63945,6,0,B|78:216|78:216|93:242,1,76.25,10|0,0:1|0:0,0:0:0:0:
114,335,64103,2,0,P|124:240|170:31,1,305,10|0,0:0|0:0,0:0:0:0:
359,292,64577,6,0,P|378:311|356:296,1,76.25,10|0,0:1|0:0,0:0:0:0:
286,323,64735,2,0,B|303:260|373:243|450:263|450:263|435:197|368:158|298:178,1,381.25,14|0,0:0|0:0,0:0:0:0:
263,124,65208,2,0,P|305:154|304:183,1,76.25,10|0,0:1|0:0,0:0:0:0:
128,221,65445,5,8,0:1:0:0:
133,225,65524,2,0,B|156:232|183:223|183:223|157:231|139:267,1,105.733328493246,10|0,0:0|0:0,0:0:0:0:
263,124,65735,2,0,B|244:140|238:168|238:168|244:142|222:108,1,105.733328493246,10|0,0:0|0:0,0:0:0:0:
281,284,65945,2,0,B|276:260|254:240|254:240|274:259|314:256,1,105.733328493246,10|0,0:0|0:0,0:0:0:0:
150,144,66156,6,0,B|119:133|119:133|118:103|118:103|146:113|146:113|150:143,1,122.000004653931,6|0,0:3|0:0,0:0:0:0:
206,306,66366,2,0,B|211:337|211:337|186:353|186:353|181:324|181:324|205:305,1,122.000004653931,4|0,0:3|0:0,0:0:0:0:
321,178,66577,2,0,B|345:157|345:157|371:170|371:170|348:190|348:190|320:178,1,122.000004653931,4|0,0:3|0:0,0:0:0:0:
179,226,66787,6,0,P|153:228|177:223,1,81.3333333333333,8|0,0:1|2:0,2:0:0:0:
232,169,66998,2,0,P|242:145|235:168,1,81.3333333333333,8|0,2:0|2:0,2:0:0:0:
258,241,67208,2,0,P|272:261|256:244,1,81.3333333333333,8|0,2:0|2:0,2:0:0:0:
132,142,67419,6,0,B|102:89|102:89|151:125,1,122.000004653931,12|0,0:3|0:0,0:0:0:0:
206,317,67629,2,0,B|175:369|175:369|182:305,1,122.000004653931,8|0,0:3|0:0,0:0:0:0:
325,162,67840,2,0,B|385:162|385:162|326:188,1,122.000004653931,8|0,0:3|0:0,0:0:0:0:
156,226,68050,6,0,B|127:227|127:227|102:223|87:247|115:259|132:242|132:242|155:227,1,122.000004653931,8|0,0:1|0:0,0:0:0:0:
277,257,68261,2,0,B|292:281|292:281|301:305|329:306|326:276|302:269|302:269|278:257,1,122.000004653931,8|0,0:1|0:0,0:0:0:0:
240,138,68472,2,0,B|253:112|253:112|269:92|256:67|231:85|238:109|238:109|239:136,1,122.000004653931,8|0,0:1|0:0,0:0:0:0:
206,317,68682,6,0,P|196:231|122:71,1,219.59999329834,14|0,0:0|0:0,0:0:0:0:
150,100,68998,1,8,0:1:0:0:
352,59,69156,5,10,0:1:0:0:
388,83,69235,5,8,0:1:0:0:
378,125,69314,5,8,0:1:0:0:
334,127,69393,5,8,0:1:0:0:
318,85,69472,5,10,0:1:0:0:
494,112,69629,1,8,0:1:0:0:
253,165,69787,2,0,B|242:190|205:206|205:206|247:194|282:203,1,122,10|0,0:0|0:0,0:0:0:0:
445,218,70103,1,8,0:0:0:0:
372,339,70261,5,8,0:1:0:0:
381,317,70340,5,8,0:1:0:0:
376,286,70419,5,8,0:1:0:0:
403,312,70498,5,8,0:1:0:0:
422,315,70577,5,8,0:1:0:0:
347,208,70735,1,8,0:0:0:0:
115,306,70893,5,4,0:3:0:0:
130,266,70972,1,4,0:3:0:0:
147,227,71050,1,4,0:3:0:0:
39,341,71208,6,0,P|33:266|-16:170,1,146.399995532227,14|0,0:0|0:0,0:0:0:0:
41,351,71524,1,8,0:1:0:0:
94,155,71682,6,0,P|102:75|121:-4,1,146.399995532227,2|0,0:0|0:0,0:0:0:0:
273,268,71998,2,0,P|333:332|417:289,1,146.399995532227,10|8,0:0|0:1,0:0:0:0:
408,248,72235,1,0,0:0:0:0:
400,237,72314,2,0,B|373:165|373:165|356:253,1,146.399995532227,8|0,0:0|0:0,0:0:0:0:
86,249,72629,5,10,0:0:0:0:
240,100,72787,1,10,0:1:0:0:
219,197,72945,5,8,0:1:0:0:
177,183,73024,1,8,0:1:0:0:
135,168,73103,1,8,0:1:0:0:
298,163,73261,1,8,0:0:0:0:
86,249,73419,6,0,B|50:264|50:264|95:267,1,73.1999977661134,10|0,0:1|0:0,0:0:0:0:
166,271,73577,2,0,B|202:286|202:286|157:289,1,73.1999977661134,10|0,0:0|0:0,0:0:0:0:
87,31,73735,6,0,P|122:104|135:172,1,146.399995532227,12|0,0:0|0:0,0:0:0:0:
335,281,74050,5,2,3:2:0:0:
346,238,74129,5,2,3:2:0:0:
389,235,74208,5,2,3:2:0:0:
409,273,74287,5,2,3:2:0:0:
378,305,74366,5,2,3:2:0:0:
298,163,74524,1,8,0:0:0:0:
165,271,74682,6,0,P|160:249|170:268,1,61,10|0,0:1|0:0,0:0:0:0:
106,183,74840,2,0,P|106:97|226:13,1,244,14|0,0:0|0:0,0:0:0:0:
444,205,75314,5,10,0:1:0:0:
298,163,75472,1,10,0:1:0:0:
311,117,75550,1,8,0:1:0:0:
364,112,75629,1,8,0:1:0:0:
487,274,75787,1,8,0:1:0:0:
280,351,75945,5,4,0:3:0:0:
262,312,76024,5,4,0:3:0:0:
293,282,76103,5,4,0:3:0:0:
331,301,76182,5,4,0:3:0:0:
327,343,76261,5,14,0:0:0:0:
213,213,76419,1,2,0:0:0:0:
332,351,76577,1,10,0:1:0:0:
444,205,76735,6,0,P|453:134|445:74,1,122,2|0,0:0|0:0,0:0:0:0:
209,92,77050,2,0,P|203:152|212:212,1,122,8|8,0:0|0:1,0:0:0:0:
442,286,77366,6,0,P|413:200|322:196,1,183,14|0,0:0|0:0,0:0:0:0:
325,205,77682,2,0,P|292:234|300:252,1,61,8|0,0:1|0:0,0:0:0:0:
361,274,77840,1,2,0:3:0:0:
212,212,77998,1,10,0:0:0:0:
254,23,78156,5,8,0:1:0:0:
230,20,78235,1,8,0:1:0:0:
208,26,78314,1,8,0:1:0:0:
196,46,78393,1,8,0:1:0:0:
203,67,78472,1,8,0:1:0:0:
222,85,78550,1,8,0:1:0:0:
230,112,78629,1,8,0:1:0:0:
215,135,78708,1,8,0:1:0:0:
187,140,78787,6,0,P|106:146|8:178,1,183,12|8,0:0|0:0,0:0:0:0:
60,237,79103,2,0,P|100:245|123:262,3,61,0|0|0|0,3:0|3:0|3:0|3:0,0:0:0:0:
198,321,79419,6,0,P|238:261|288:270,1,122,10|0,0:1|0:0,0:0:0:0:
280,265,79656,2,0,P|276:227|245:217,1,61,2|0,0:0|0:0,0:0:0:0:
442,354,79893,6,0,B|427:332|427:332|468:177,1,183,6|0,0:3|0:0,0:0:0:0:
407,71,80208,2,0,B|397:88|397:88|416:132,1,61,6|0,0:3|0:0,0:0:0:0:
383,198,80366,5,6,3:0:0:0:
357,210,80445,5,2,3:0:0:0:
326,191,80524,5,2,3:0:0:0:
325,151,80603,5,2,3:0:0:0:
315,153,80682,6,0,P|310:127|281:103,1,61,10|0,0:1|0:0,0:0:0:0:
207,54,80840,6,0,B|192:68|192:68|88:97,1,122,4|0,0:3|0:0,0:0:0:0:
94,95,81077,2,0,B|109:81|109:81|213:52,1,122,4|0,0:3|0:0,0:0:0:0:
185,153,81314,2,0,B|202:160|202:160|199:205|199:205|176:169|176:169|183:150,1,122,4|0,0:3|0:0,0:0:0:0:
62,336,81629,5,2,3:2:0:0:
72,294,81708,5,2,3:2:0:0:
110,275,81787,5,2,3:2:0:0:
152,274,81866,5,2,3:2:0:0:
189,296,81945,5,0,3:0:0:0:
171,301,82024,1,0,3:0:0:0:
161,316,82103,1,0,3:0:0:0:
160,334,82182,1,0,3:0:0:0:
171,347,82261,1,0,3:0:0:0:
421,290,82419,6,0,P|442:200|300:119,1,274.500010471344,14|0,0:0|0:0,0:0:0:0:
305,117,82735,6,0,P|283:197|393:260,1,228.75,14|0,0:0|0:0,0:0:0:0:
393,259,83050,6,0,P|402:192|308:163,1,183,14|0,0:0|0:0,0:0:0:0:
293,187,83366,5,8,3:2:0:0:
266,201,83445,1,8,3:2:0:0:
235,196,83524,1,8,3:2:0:0:
216,171,83603,1,8,3:2:0:0:
220,140,83682,1,8,3:2:0:0:
62,286,83840,6,0,P|89:156|94:96,1,183,12|8,0:0|0:0,0:0:0:0:
48,288,84156,2,0,P|42:327|60:346,3,61,0|0|0|0,3:0|3:0|3:0|3:0,0:0:0:0:
145,350,84472,6,0,P|173:297|239:306,1,122,10|0,0:1|0:0,0:0:0:0:
228,298,84708,2,0,P|242:268|276:266,1,61,2|0,0:0|0:0,0:0:0:0:
484,237,84945,6,0,B|468:254|468:254|337:224|337:224|329:193,1,183,6|0,0:3|0:0,0:0:0:0:
212,163,85261,2,0,B|225:173|225:173|257:164|257:164|261:148,1,61,6|0,0:3|0:0,0:0:0:0:
321,104,85419,5,2,3:2:0:0:
343,82,85498,5,2,3:2:0:0:
373,86,85577,5,2,3:2:0:0:
390,110,85656,5,2,3:2:0:0:
397,106,85735,6,0,P|404:76|430:57,1,61,10|0,0:1|0:0,0:0:0:0:
330,199,85893,6,0,B|316:214|316:214|287:318,1,122,4|0,0:3|0:0,0:0:0:0:
289,312,86130,2,0,B|303:297|303:297|332:193,1,122,4|0,0:3|0:0,0:0:0:0:
321,103,86367,2,0,B|303:95|303:95|306:50|306:50|329:86|329:86|322:105,1,122,6|0,0:3|0:0,0:0:0:0:
161,303,87472,6,0,B|191:222|191:222|185:207,1,101.869996813454,4|0,3:3|0:0,0:0:0:0:
153,293,87787,6,0,B|130:302|121:302|101:296|90:273|90:250|102:229|123:217|153:224|179:236|213:250|241:283|300:300|340:280|351:248|341:194|292:194|271:227,1,381.25,12|0,0:0|0:0,0:0:0:0:
204,163,88261,6,0,B|214:177|214:177|216:156,1,30.5,4|0,0:3|0:0,0:0:0:0:
282,24,88419,2,0,B|282:140|282:140|315:31,1,228.75000872612,4|0,0:3|0:0,0:0:0:0:
