osu file format v14

[General]
AudioFilename: audio.mp3
AudioLeadIn: 0
PreviewTime: 61113
Countdown: 0
SampleSet: Soft
StackLeniency: 0.4
Mode: 0
LetterboxInBreaks: 0
WidescreenStoryboard: 1

[Editor]
Bookmarks: 5534,7955,10903,20692,21324,25745,30797,35850,40903,48482,53534,61113,65534,68692,76271,78797,83850,89297
DistanceSpacing: 0.9
BeatDivisor: 4
GridSize: 32
TimelineZoom: 2.2

[Metadata]
Title:New Stranger (TV Size)
TitleUnicode:New Stranger (TV Size)
Artist:sora tob sakana
ArtistUnicode:sora tob sakana
Creator:hypercyte
Version:Easy
Source:HI SCORE GIRL
Tags:ハイスコアガール high japanese anime electronic female vocals hypercute sunset bicycle couple extra stage
BeatmapID:3237046
BeatmapSetID:1564596

[Difficulty]
HPDrainRate:2
CircleSize:3
OverallDifficulty:3
ApproachRate:4
SliderMultiplier:1
SliderTickRate:1

[Events]
//Background and Video events
0,0,"37329615_p0.jpg",0,0
//Break Periods
//Storyboard Layer 0 (Background)
//Storyboard Layer 1 (Fail)
//Storyboard Layer 2 (Pass)
//Storyboard Layer 3 (Foreground)
//Storyboard Layer 4 (Overlay)
//Storyboard Sound Samples

[TimingPoints]
472,315.789473684211,4,2,44,64,1,0
472,-100,4,2,44,64,0,0
787,-100,4,2,44,64,0,0
1577,-100,4,2,44,64,0,0
2050,-100,4,2,44,64,0,0
2524,-100,4,2,44,64,0,0
2998,-100,4,2,0,64,0,0
3314,-100,4,2,0,64,0,0
4419,-100,4,2,0,64,0,0
4735,-100,4,2,0,64,0,0
5050,-100,4,2,0,64,0,0
6629,-100,4,2,0,64,0,0
7103,-100,4,2,0,64,0,0
7814,-100,4,2,0,64,0,0
8050,-100,4,2,0,64,0,0
8366,-100,4,2,0,64,0,0
9156,-100,4,2,0,64,0,0
10893,-100,4,2,44,64,0,0
12314,-100,4,2,44,64,0,0
12629,-100,4,2,44,64,0,0
17050,-100,4,2,44,64,0,0
19577,-100,4,2,44,64,0,0
20682,-100,4,2,44,64,0,0
20998,-100,4,2,44,54,0,0
35840,-100,4,2,44,54,0,0
36945,-100,4,2,44,54,0,0
39472,-100,4,2,44,54,0,0
39945,-100,4,2,44,54,0,0
40893,-100,4,2,44,50,0,0
41103,-100,4,2,44,50,0,0
45314,-100,4,2,44,50,0,0
45945,-100,4,2,44,50,0,0
50998,-100,4,2,44,64,0,0
54629,-100,4,2,44,64,0,0
56050,-100,4,2,44,64,0,1
56682,-100,4,2,44,64,0,0
57156,-100,4,2,44,64,0,0
59682,-100,4,2,44,64,0,0
61103,-100,4,2,44,64,0,1
61893,-100,4,2,44,64,0,0
62208,-100,4,2,44,64,0,0
62682,-100,4,2,44,64,0,0
65208,-100,4,2,44,64,0,0
65524,-100,4,2,44,64,0,1
66156,-100,4,2,44,64,0,1
66787,-100,4,2,44,64,0,1
67419,-100,4,2,44,64,0,1
68603,-100,4,2,44,64,0,0
68682,-100,4,2,44,64,0,1
69472,-100,4,2,44,64,0,0
69787,-100,4,2,44,64,0,0
71208,-100,4,2,44,64,0,0
73735,-100,4,2,44,64,0,1
74366,-100,4,2,44,64,0,0
74682,-100,4,2,44,64,0,0
76261,-100,4,2,44,64,0,1
76735,-100,4,2,44,64,0,0
78787,-100,4,2,44,64,0,1
82419,-100,4,2,44,64,0,1
82735,-100,4,2,44,64,0,1
83050,-100,4,2,44,64,0,1
86524,-100,4,2,44,64,0,0
87472,-100,4,2,44,64,0,0
87787,-100,4,2,44,64,0,0
88261,-100,4,2,44,64,0,0

[Colours]
Combo1 : 221,170,240
Combo2 : 155,221,240
Combo3 : 151,230,186
Combo4 : 233,236,121
Combo5 : 242,201,145
Combo6 : 243,160,120

[HitObjects]
183,195,472,5,4,0:3:0:0:
486,109,1577,1,4,0:3:0:0:
447,27,1893,1,4,0:3:0:0:
271,65,2524,2,0,B|199:94|199:94|165:16,1,150,4|4,0:3|0:3,0:0:0:0:
22,306,4103,1,4,0:3:0:0:
87,244,4419,1,4,0:3:0:0:
173,220,4735,1,4,0:3:0:0:
262,228,5050,2,0,B|338:245|338:245|323:318,1,150,4|4,0:3|0:3,0:0:0:0:
83,111,6629,5,4,0:3:0:0:
161,66,6945,1,4,0:3:0:0:
318,153,7577,2,0,B|388:129|388:129|364:57,1,150,4|4,0:3|0:3,0:0:0:0:
106,239,9156,1,8,0:0:0:0:
146,320,9472,1,8,0:0:0:0:
96,85,10893,6,0,P|170:45|233:89,1,150,14|2,0:0|0:0,0:0:0:0:
242,160,11682,1,8,0:0:0:0:
198,238,11998,1,10,0:0:0:0:
277,279,12314,2,0,P|351:266|449:256,1,150,2|0,0:0|3:0,0:0:0:0:
468,178,13103,5,10,0:0:0:0:
309,92,13735,1,0,3:0:0:0:
204,177,14208,2,0,P|130:173|91:173,1,100,8|8,0:0|0:0,0:0:0:0:
107,308,14998,1,2,0:3:0:0:
197,308,15314,1,2,0:3:0:0:
286,311,15629,5,14,0:0:0:0:
466,311,16261,1,0,3:0:0:0:
435,179,16735,2,0,P|440:111|437:69,1,100,8|8,0:0|0:0,0:0:0:0:
365,25,17366,2,0,P|297:30|209:21,1,150,2|0,3:0|3:0,0:0:0:0:
132,56,18156,5,14,0:0:0:0:
190,177,18629,1,12,0:0:0:0:
108,284,19103,1,14,0:0:0:0:
277,345,19735,2,0,P|314:315|374:307,2,100,8|8|0,0:0|0:0|3:0,0:0:0:0:
218,276,20682,1,12,3:2:0:0:
161,206,20998,6,0,P|172:135|178:85,1,100,2|2,0:0|0:0,0:0:0:0:
339,31,21945,2,0,P|392:45|403:136,1,150,2|2,0:0|0:0,0:0:0:0:
329,175,22735,1,10,0:0:0:0:
204,122,23208,1,14,0:0:0:0:
120,155,23524,1,10,0:1:0:0:
35,186,23840,2,0,P|2:140|32:56,1,150,2|10,0:0|0:0,0:0:0:0:
113,24,24629,1,2,0:0:0:0:
350,231,25735,1,12,0:0:0:0:
296,159,26050,6,0,P|309:112|311:57,1,100,10|2,0:1|0:0,0:0:0:0:
490,41,26998,2,0,P|497:125|481:212,1,150,2|2,0:0|0:0,0:0:0:0:
417,246,27787,1,10,0:0:0:0:
282,255,28261,1,14,0:0:0:0:
200,292,28577,1,2,3:0:0:0:
119,250,28893,1,2,0:0:0:0:
192,136,29366,2,0,P|255:140|301:126,1,100,10|10,0:0|0:0,0:0:0:0:
361,75,29998,2,0,P|414:98|405:194,1,150,10|2,0:0|0:3,0:0:0:0:
353,244,30787,1,14,0:0:0:0:
268,211,31103,6,0,P|212:214|164:224,1,100,2|2,3:0|0:0,0:0:0:0:
45,353,32050,2,0,P|112:341|204:341,1,150,2|2,0:0|3:0,0:0:0:0:
280,364,32840,1,10,0:0:0:0:
374,267,33314,1,14,0:0:0:0:
463,277,33629,1,2,3:0:0:0:
506,197,33945,2,0,P|498:124|482:40,1,150,2|10,0:0|0:0,0:0:0:0:
401,12,34735,1,10,0:0:0:0:
339,77,35050,1,2,3:2:0:0:
253,47,35366,2,0,P|175:65|169:133,1,150,2|14,3:2|0:0,0:0:0:0:
296,248,36472,5,2,0:0:0:0:
171,298,36945,2,0,P|102:269|14:258,2,150,10|0|8,0:0|3:0|0:0,0:0:0:0:
297,346,38366,1,14,0:0:0:0:
412,276,38840,1,2,0:0:0:0:
350,210,39156,1,8,0:0:0:0:
414,147,39472,2,0,P|425:88|460:-4,2,150,2|2|0,3:0|3:0|3:0,0:0:0:0:
295,82,40893,6,0,P|219:68|180:131,1,150,14|10,0:0|0:0,0:0:0:0:
234,192,41682,1,2,3:2:0:0:
187,269,41998,2,0,P|138:242|36:236,1,150,10|10,0:0|0:0,0:0:0:0:
13,149,42787,1,2,3:2:0:0:
71,80,43103,1,2,3:2:0:0:
233,157,43735,6,0,B|279:171|321:148|298:141|337:121|390:131,1,150,0|2,0:0|3:2,0:0:0:0:
463,147,44524,2,0,P|520:91|476:44,1,150,10|10,0:0|0:0,0:0:0:0:
405,5,45314,2,0,B|349:9|349:9|329:24|329:24|266:23|266:23|258:20|258:20|206:20,1,200,2|8,3:2|3:2,0:0:0:0:
91,83,46419,5,10,0:0:0:0:
49,163,46735,1,2,3:2:0:0:
112,226,47050,2,0,P|185:216|268:216,1,150,10|0,0:0|3:0,0:0:0:0:
343,252,47840,1,0,3:0:0:0:
478,132,48472,5,12,0:0:0:0:
325,37,49103,2,0,B|311:51|311:51|226:64,1,100,2|2,3:2|3:2,0:0:0:0:
67,137,50050,1,10,3:2:0:0:
87,224,50366,1,0,3:0:0:0:
266,242,50998,6,0,P|326:259|369:351,2,150,14|10|12,0:0|0:0|0:1,0:0:0:0:
158,323,52419,2,0,P|135:348|63:351,1,100,10|8,0:0|0:1,0:0:0:0:
17,231,53208,1,8,0:1:0:0:
69,157,53524,1,12,0:0:0:0:
123,85,53840,6,0,L|226:104,1,100,2|10,0:0|0:0,0:0:0:0:
325,189,54629,1,10,0:0:0:0:
398,137,54945,1,10,0:0:0:0:
463,199,55261,1,10,0:0:0:0:
257,290,56050,6,0,P|192:271|95:254,1,150,14|2,0:0|0:0,0:0:0:0:
53,186,56840,1,2,3:0:0:0:
82,100,57156,1,10,0:0:0:0:
170,85,57472,1,2,0:0:0:0:
221,158,57787,1,10,0:1:0:0:
403,25,58577,6,0,P|403:83|409:137,1,100,8|8,0:0|0:1,0:0:0:0:
479,179,59208,2,0,P|485:238|479:342,1,150,2|8,0:0|0:0,0:0:0:0:
391,336,59998,1,8,0:0:0:0:
327,272,60314,1,8,0:1:0:0:
381,53,61103,6,0,B|333:43|304:62|314:73|281:92|223:80,1,150,14|2,0:0|0:0,0:0:0:0:
163,133,61893,1,10,0:0:0:0:
227,195,62208,2,0,B|275:185|304:204|294:215|327:234|385:222,1,150,10|2,0:0|3:2,0:0:0:0:
440,280,62998,1,2,3:2:0:0:
325,350,63472,6,0,B|225:341|225:341|118:359,2,200,14|10|14,0:0|0:0|0:0,0:0:0:0:
440,280,65208,1,10,0:1:0:0:
365,228,65524,5,10,0:0:0:0:
219,123,66156,1,6,0:3:0:0:
382,47,66787,1,8,0:1:0:0:
365,228,67419,5,12,0:3:0:0:
219,123,68051,1,8,0:1:0:0:
382,47,68682,6,0,B|460:67|460:67|409:128,1,150,14|10,0:0|0:1,0:0:0:0:
359,191,69472,1,10,0:0:0:0:
271,170,69787,2,0,P|156:209|127:235,1,150,10|8,0:0|0:1,0:0:0:0:
52,191,70577,1,8,0:1:0:0:
9,365,71208,6,0,P|46:338|155:340,1,150,14|2,0:0|0:0,0:0:0:0:
235,355,71998,1,10,0:0:0:0:
291,285,72314,1,8,0:0:0:0:
370,329,72629,2,0,P|436:315|442:274,1,100,10|8,0:0|0:1,0:0:0:0:
442,155,73419,5,10,0:1:0:0:
453,65,73735,2,0,B|399:15|328:42|294:113|355:146|275:213|202:211|172:155,1,350,12|14,0:0|0:0,0:0:0:0:
124,99,75156,2,0,P|123:55|216:57,1,150,2|8,0:0|0:1,0:0:0:0:
269,215,76261,5,14,0:0:0:0:
365,120,76735,2,0,P|430:146|472:157,1,100,2|8,0:0|0:0,0:0:0:0:
485,239,77366,2,0,B|462:334|462:334|346:307,1,200,14|10,0:0|0:0,0:0:0:0:
286,262,78314,1,8,0:1:0:0:
201,305,78629,1,8,0:1:0:0:
130,191,79103,6,0,P|81:188|28:212,1,100,2|10,0:0|0:1,0:0:0:0:
54,340,79893,1,6,0:3:0:0:
140,362,80208,1,6,0:3:0:0:
201,305,80524,1,2,3:0:0:0:
287,329,80840,2,0,B|337:309|337:309|386:319|386:319|441:296,1,150,4|4,0:3|0:3,0:0:0:0:
487,232,81629,6,0,P|489:186|443:138,1,100,2|2,3:2|3:2,0:0:0:0:
325,113,82419,1,14,0:0:0:0:
237,133,82735,1,14,0:0:0:0:
188,208,83050,1,14,0:0:0:0:
191,298,83366,2,0,P|268:306|284:376,1,150,8|12,3:2|0:0,0:0:0:0:
376,367,84156,6,0,P|378:313|392:259,1,100,2|10,3:2|0:1,0:0:0:0:
479,168,84945,1,6,0:3:0:0:
405,116,85261,1,6,0:3:0:0:
332,62,85577,1,2,3:2:0:0:
266,123,85893,2,0,B|218:135|218:135|171:119|171:119|106:131,1,150,4|6,0:3|0:3,0:0:0:0:
398,277,87472,5,4,3:3:0:0:
330,218,87787,1,12,0:0:0:0:
231,309,88261,2,0,B|180:326|137:280|163:272|122:236|72:252,1,175,4|0,0:3|0:0,0:0:0:0:
