osu file format v14

[General]
AudioFilename: vaporcore.mp3
AudioLeadIn: 0
PreviewTime: 118930
Countdown: 0
SampleSet: Soft
StackLeniency: 0.7
Mode: 0
LetterboxInBreaks: 0
WidescreenStoryboard: 1

[Editor]
Bookmarks: 23014,65680,119013,133847
DistanceSpacing: 1
BeatDivisor: 4
GridSize: 32
TimelineZoom: 3.299999

[Metadata]
Title:.vaporcore
TitleUnicode:.vaporcore
Artist:soowamisu
ArtistUnicode:soowamisu
Creator:Kyouren
Version:.nytro x kyouren's easy
Source:
Tags:int2net​.​sm5​.​207 vaporwave vaporcore vapor breakcore kittyadventure gokugohan12468 electronic instrumental nytrocide_ nytro ganyumymommy cat collab collaboration SWMSU internet int to net in featured artist fa mappers' guild mpg
BeatmapID:4205169
BeatmapSetID:1999116

[Difficulty]
HPDrainRate:2
CircleSize:3
OverallDifficulty:2
ApproachRate:3
SliderMultiplier:0.9
SliderTickRate:1

[Events]
//Background and Video events
0,0,"cat.jpg",0,0
//Break Periods
//Storyboard Layer 0 (Background)
//Storyboard Layer 1 (Fail)
//Storyboard Layer 2 (Pass)
//Storyboard Layer 3 (Foreground)
//Storyboard Layer 4 (Overlay)
//Storyboard Sound Samples

[TimingPoints]
23014,333.333333333333,4,2,1,50,1,0
23014,-100,4,2,1,50,0,0
44347,-100,4,2,1,35,0,0
45680,-100,4,2,1,60,0,0
65680,-100,4,2,1,50,0,0
119013,-100,4,2,1,35,0,0
121597,-100,4,2,1,5,0,0
121680,-100,4,2,1,35,0,0
124263,-100,4,2,1,5,0,0
124347,-100,4,2,1,35,0,0
125097,-100,4,2,1,5,0,0
125180,-100,4,2,1,35,0,0
126347,-100,4,2,1,5,0,0
133847,-100,4,2,1,5,0,0

[Colours]
Combo1 : 128,255,255
Combo2 : 192,192,192
Combo3 : 140,140,140
Combo4 : 255,255,128
Combo5 : 128,255,128

[HitObjects]
482,85,23014,6,0,L|461:181,1,90,6|10,0:0|0:0,0:0:0:0:
380,225,23680,2,0,L|399:273,2,45,2|10|2,0:0|0:0|0:0,0:0:0:0:
296,171,24347,2,0,L|204:145,2,90,4|10|10,3:0|0:0|0:0,0:0:0:0:
249,363,25680,5,4,3:0:0:0:
177,294,26013,1,10,0:0:0:0:
84,330,26347,2,0,L|70:372,2,45,2|10|2,0:0|0:0|0:0,0:0:0:0:
20,253,27014,2,0,B|32:208|56:223|69:179,1,90,4|10,3:0|0:0,0:0:0:0:
28,89,27680,1,10,0:0:0:0:
220,135,28347,53,4,3:0:0:0:
287,63,28680,2,0,B|351:78|351:78|354:82|354:82|434:100,2,135,10|10|4,0:0|0:0|3:0,0:0:0:0:
210,0,30014,2,0,P|167:12|153:57,1,90,10|10,0:0|0:0,0:0:0:0:
248,224,31014,5,4,3:0:0:0:
331,278,31347,2,0,P|340:328|258:356,2,135,10|10|4,0:0|0:0|3:0,0:0:0:0:
404,210,32680,1,10,0:0:0:0:
361,120,33014,1,2,0:0:0:0:
168,164,33680,54,0,P|121:158|106:115,1,90,0|10,1:0|0:0,0:0:0:0:
162,41,34347,2,0,L|146:-3,2,45,2|10|2,0:0|0:0|0:0,0:0:0:0:
260,54,35014,2,0,P|305:22|348:9,2,90,4|10|10,3:0|0:0|0:0,0:0:0:0:
286,250,36347,5,4,3:0:0:0:
379,282,36680,1,10,0:0:0:0:
441,205,37014,2,0,L|492:191,2,45,2|10|2,0:0|0:0|0:0,0:0:0:0:
384,124,37680,2,0,B|411:88|411:88|392:42,1,90,4|10,3:0|0:0,0:0:0:0:
305,2,38347,1,10,0:0:0:0:
128,91,39014,37,4,3:0:0:0:
111,188,39347,2,0,B|90:178|90:178|-22:211,2,135,10|10|4,0:0|0:0|3:0,0:0:0:0:
148,279,40680,2,0,B|124:294|124:294|104:365,1,90,10|10,0:0|0:0,0:0:0:0:
297,297,41680,37,4,3:0:0:0:
388,259,42014,2,0,B|438:267|438:267|468:357,2,135,10|10|4,0:0|0:0|3:0,0:0:0:0:
346,169,43347,1,10,0:0:0:0:
419,103,43680,1,2,0:0:0:0:
273,0,44347,22,0,B|201:18|234:67|161:87,2,135,2|2|2,0:0|0:0|0:0,0:0:0:0:
370,20,45680,2,0,L|425:3,2,45,4|2|10,3:0|0:0|0:0,0:0:0:0:
327,109,46347,1,10,0:0:0:0:
253,292,47014,37,4,3:0:0:0:
161,255,47347,2,0,P|103:283|114:354,2,135,10|10|4,0:0|0:0|3:0,0:0:0:0:
209,169,48680,2,0,L|187:75,1,90,8|10,0:0|0:0,0:0:0:0:
369,0,49680,5,4,3:0:0:0:
449,58,50014,2,0,B|492:50|492:50|515:151,2,135,10|10|4,0:0|0:0|3:0,0:0:0:0:
383,132,51347,2,0,L|404:225,1,90,10|10,0:0|0:0,0:0:0:0:
263,361,52347,5,4,3:0:0:0:
181,304,52680,2,0,L|30:341,2,135,10|10|4,0:0|0:0|3:0,0:0:0:0:
200,206,54014,1,10,0:0:0:0:
117,150,54347,2,0,L|63:141,2,45,2|2|2,0:0|0:0|0:0,0:0:0:0:
174,69,55014,38,0,P|169:23|82:13,2,135,4|2|2,3:0|0:0|0:0,0:0:0:0:
253,127,56347,2,0,L|307:118,2,45,4|2|10,3:0|0:0|0:0,0:0:0:0:
197,209,57014,1,10,0:0:0:0:
318,364,57680,5,4,3:0:0:0:
400,308,58014,2,0,B|480:328|428:362|522:389,2,135,10|10|4,0:0|0:0|3:0,0:0:0:0:
346,225,59347,2,0,P|359:177|411:165,1,90,8|10,0:0|0:0,0:0:0:0:
258,17,60347,5,4,3:0:0:0:
186,84,60680,2,0,B|206:180|206:180|258:208,2,135,10|10|4,0:0|0:0|3:0,0:0:0:0:
111,17,62013,2,0,L|23:36,1,90,8|8,0:0|0:0,0:0:0:0:
1,233,63013,37,4,3:0:0:0:
98,252,63347,2,0,L|129:388,2,135,10|10|4,0:0|0:0|3:0,0:0:0:0:
152,169,64680,1,10,0:0:0:0:
244,205,65013,2,0,L|228:273,2,45,10|2|2,0:0|0:0|0:0,0:0:0:0:
306,127,65680,6,0,P|350:135|395:135,2,90,6|6|10,3:0|3:0|0:0,0:0:0:0:
242,62,66680,2,0,L|197:70,1,45,0|0,3:0|3:0,0:0:0:0:
116,29,67180,2,0,P|52:35|28:95,1,135,4|6,3:0|3:0,0:0:0:0:
71,173,68013,1,2,0:0:0:0:
12,241,68347,6,0,P|48:266|77:301,1,90,4|4,3:0|3:0,0:0:0:0:
148,356,69013,1,10,0:0:0:0:
232,325,69347,2,0,L|277:331,1,45,0|0,3:0|3:0,0:0:0:0:
361,360,69847,2,0,P|421:335|442:272,1,135,4|2,3:0|0:0,0:0:0:0:
392,197,70680,1,2,0:0:0:0:
457,135,71013,38,0,P|462:90|470:46,1,90,6|4,3:0|3:0,0:0:0:0:
387,10,71680,1,10,0:0:0:0:
310,57,72013,2,0,L|265:64,1,45,2|2,0:0|3:0,0:0:0:0:
180,32,72513,2,0,P|114:24|62:64,1,135,6|4,3:0|3:0,0:0:0:0:
89,241,73680,6,0,P|45:251|1:260,2,90,6|6|8,3:0|3:0|0:0,0:0:0:0:
151,305,74680,2,0,L|195:313,1,45,2|2,0:0|0:0,0:0:0:0:
280,282,75180,2,0,P|300:218|282:154,1,135,4|4,3:0|3:0,0:0:0:0:
234,80,76013,1,2,0:0:0:0:
303,22,76347,6,0,L|392:32,1,90,4|6,3:0|3:0,0:0:0:0:
464,85,77013,1,8,0:0:0:0:
454,174,77347,2,0,L|461:218,1,45,2|2,0:0|0:0,0:0:0:0:
477,307,77847,2,0,B|404:296|415:328|343:319,1,135,4|6,3:0|3:0,0:0:0:0:
266,365,78680,1,2,0:0:0:0:
178,343,79013,38,0,P|133:350|89:356,2,90,4|4|8,3:0|3:0|0:0,0:0:0:0:
182,252,80013,2,0,L|175:207,1,45,2|2,0:0|0:0,0:0:0:0:
98,159,80513,2,0,P|61:104|77:41,1,135,4|4,3:0|3:0,0:0:0:0:
165,55,81347,1,2,0:0:0:0:
249,23,81680,6,0,P|293:31|337:36,1,90,4|4,3:0|3:0,0:0:0:0:
419,75,82347,1,8,0:0:0:0:
472,147,82680,2,0,L|477:191,1,45,2|2,0:0|0:0,0:0:0:0:
484,281,83180,2,0,P|418:272|360:306,1,135,4|4,3:0|3:0,0:0:0:0:
180,299,84347,6,0,P|135:307|91:316,2,90,4|6|10,3:0|3:0|0:0,0:0:0:0:
244,235,85347,2,0,L|249:190,1,45,2|2,0:0|0:0,0:0:0:0:
238,100,85847,2,0,P|180:67|114:75,1,135,4|6,3:0|3:0,0:0:0:0:
26,92,86680,1,2,0:0:0:0:
51,178,87013,38,0,P|56:222|59:267,1,90,6|6,3:0|3:0,0:0:0:0:
104,348,87680,1,10,0:0:0:0:
193,337,88013,2,0,L|237:343,1,45,2|2,0:0|0:0,0:0:0:0:
325,324,88513,2,0,P|390:334|446:299,1,135,4|4,3:0|3:0,0:0:0:0:
432,209,89347,1,2,0:0:0:0:
483,135,89680,6,0,P|490:90|499:46,1,90,6|6,3:0|3:0,0:0:0:0:
416,9,90347,1,8,0:0:0:0:
336,51,90680,2,0,L|291:57,1,45,2|2,0:0|0:0,0:0:0:0:
202,39,91180,2,0,P|136:28|82:65,1,135,4|4,3:0|3:0,0:0:0:0:
34,238,92347,6,0,P|28:282|22:327,2,90,6|6|10,3:0|3:0|0:0,0:0:0:0:
119,209,93347,2,0,L|162:220,1,45,2|2,0:0|0:0,0:0:0:0:
227,282,93847,2,0,P|289:259|355:270,1,135,4|4,3:0|3:0,0:0:0:0:
427,323,94680,1,2,0:0:0:0:
490,259,95013,6,0,P|491:214|496:169,1,90,4|6,3:0|3:0,0:0:0:0:
475,80,95680,1,8,0:0:0:0:
387,100,96013,2,0,L|342:103,1,45,2|2,0:0|0:0,0:0:0:0:
265,56,96513,2,0,P|200:41|138:65,1,135,4|4,3:0|3:0,0:0:0:0:
51,92,97347,1,2,0:0:0:0:
82,176,97680,6,0,L|72:265,2,90,4|4|8,3:0|3:0|0:0,0:0:0:0:
170,157,98680,2,0,L|211:175,1,45,2|2,0:0|0:0,0:0:0:0:
299,155,99180,2,0,P|325:216|313:281,1,135,4|4,3:0|3:0,0:0:0:0:
384,336,100013,1,2,0:0:0:0:
463,294,100347,38,0,L|473:204,1,90,4|4,3:0|3:0,0:0:0:0:
501,119,101013,1,8,0:0:0:0:
421,77,101347,2,0,L|376:84,1,45,2|2,0:0|0:0,0:0:0:0:
306,27,101847,2,0,B|231:35|256:61|179:69,1,135,4|4,3:0|3:0,0:0:0:0:
97,33,102680,1,2,0:0:0:0:
29,92,103013,38,0,P|38:136|45:180,1,90,4|4,3:0|3:0,0:0:0:0:
14,265,103680,1,10,0:0:0:0:
83,322,104013,2,0,L|127:314,1,45,2|2,0:0|0:0,0:0:0:0:
190,249,104513,2,0,P|254:260|292:314,1,135,4|6,3:0|3:0,0:0:0:0:
370,359,105347,1,2,0:0:0:0:
450,318,105680,6,0,P|478:283|480:239,1,90,4|4,3:0|3:0,0:0:0:0:
420,172,106347,1,10,0:0:0:0:
474,100,106680,2,0,L|476:55,1,45,2|2,0:0|0:0,0:0:0:0:
396,14,107180,2,0,P|331:33|264:30,1,135,4|4,3:0|3:0,0:0:0:0:
86,59,108347,22,0,P|50:31|7:18,2,90,4|4|8,3:0|3:0|0:0,0:0:0:0:
70,147,109347,2,0,L|73:191,1,45,2|2,0:0|0:0,0:0:0:0:
11,257,109847,2,0,P|47:311|112:319,1,135,4|4,3:0|3:0,0:0:0:0:
193,357,110680,1,2,0:0:0:0:
275,315,111013,6,0,P|319:321|364:326,1,90,4|4,3:0|3:0,0:0:0:0:
447,361,111680,1,8,0:0:0:0:
496,285,112013,2,0,L|492:240,1,45,2|2,0:0|0:0,0:0:0:0:
425,180,112513,2,0,P|440:115|421:51,1,135,4|4,3:0|3:0,0:0:0:0:
339,13,113347,1,2,0:0:0:0:
268,68,113680,54,0,P|275:112|279:157,1,90,4|4,3:0|3:0,0:0:0:0:
217,222,114347,1,10,0:0:0:0:
279,286,114680,2,0,L|270:330,1,45,2|2,0:0|0:0,0:0:0:0:
352,368,115180,2,0,B|421:359|398:336|479:327,1,135,4|6,3:0|3:0,0:0:0:0:
485,146,116347,6,0,P|507:107|512:62,2,90,4|4|10,3:0|3:0|0:0,0:0:0:0:
402,109,117347,2,0,L|357:103,1,45,2|2,0:0|0:0,0:0:0:0:
315,23,117847,2,0,L|180:38,1,135,4|4,3:0|3:0,0:0:0:0:
157,125,118680,1,2,0:0:0:0:
62,98,119013,54,0,B|144:64|144:64|205:130|205:130|183:218|183:218|262:260|262:260|316:184|316:184|401:212|401:212|425:298|425:298|520:276,2,720,2|2|2,0:0|0:0|0:0,0:0:0:0:
256,192,126347,12,0,133847,0:0:0:0:
