osu file format v14

[General]
AudioFilename: vaporcore.mp3
AudioLeadIn: 0
PreviewTime: 118930
Countdown: 0
SampleSet: Soft
StackLeniency: 0.7
Mode: 0
LetterboxInBreaks: 0
WidescreenStoryboard: 1

[Editor]
DistanceSpacing: 1.1
BeatDivisor: 4
GridSize: 32
TimelineZoom: 3.299999

[Metadata]
Title:.vaporcore
TitleUnicode:.vaporcore
Artist:soowamisu
ArtistUnicode:soowamisu
Creator:Kyouren
Version:.normal
Source:
Tags:int2net​.​sm5​.​207 vaporwave vaporcore vapor breakcore kittyadventure gokugohan12468 electronic instrumental nytrocide_ nytro ganyumymommy cat collab collaboration SWMSU internet int to net in featured artist fa mappers' guild mpg
BeatmapID:4164059
BeatmapSetID:1999116

[Difficulty]
HPDrainRate:4
CircleSize:3
OverallDifficulty:4
ApproachRate:5.5
SliderMultiplier:1
SliderTickRate:1

[Events]
//Background and Video events
0,0,"cat.jpg",0,0
//Break Periods
2,119347,125180
//Storyboard Layer 0 (Background)
//Storyboard Layer 1 (Fail)
//Storyboard Layer 2 (Pass)
//Storyboard Layer 3 (Foreground)
//Storyboard Layer 4 (Overlay)
//Storyboard Sound Samples

[TimingPoints]
23014,333.333333333333,4,2,1,50,1,0
44347,-111.111111111111,4,2,1,35,0,0
45680,-100,4,2,1,60,0,0
65680,-125,4,2,1,50,0,0
119013,-125,4,2,1,35,0,0
121597,-125,4,2,1,5,0,0
121680,-125,4,2,1,35,0,0
124263,-125,4,2,1,5,0,0
124347,-125,4,2,1,35,0,0
125097,-125,4,2,1,5,0,0
125180,-125,4,2,1,35,0,0
130013,-125,4,2,1,5,0,0
133847,-125,4,2,1,5,0,0

[Colours]
Combo1 : 128,255,255
Combo2 : 192,192,192
Combo3 : 140,140,140
Combo4 : 255,255,128
Combo5 : 128,255,128

[HitObjects]
15,15,23014,6,0,P|52:46|101:53,1,100,6|10,0:0|0:0,0:0:0:0:
197,25,23680,1,2,0:0:0:0:
197,25,23847,2,0,L|246:34,1,50,10|2,0:0|0:0,0:0:0:0:
345,19,24347,2,0,L|353:118,1,100,4|10,3:0|0:0,0:0:0:0:
439,169,25014,2,0,L|431:268,1,100,10|2,0:0|0:0,0:0:0:0:
392,300,25514,1,10,0:0:0:0:
392,300,25680,6,0,P|349:274|300:275,1,100,4|10,3:0|0:0,0:0:0:0:
222,338,26347,1,2,0:0:0:0:
222,338,26514,2,0,L|157:346,1,50,10|2,0:0|0:0,0:0:0:0:
85,294,27014,2,0,B|63:253|63:253|88:205,1,100,4|10,3:0|0:0,0:0:0:0:
149,126,27680,2,0,L|247:145,1,100,10|2,0:0|0:0,0:0:0:0:
294,128,28180,1,10,0:0:0:0:
294,128,28347,54,0,L|301:227,1,100,4|10,3:0|0:0,0:0:0:0:
374,296,29014,1,2,0:0:0:0:
374,296,29180,2,0,L|423:305,1,50,10|10,0:0|0:0,0:0:0:0:
467,281,29514,1,2,0:0:0:0:
467,281,29680,2,0,P|484:234|471:187,1,100,4|10,3:0|0:0,0:0:0:0:
504,92,30347,2,0,P|481:48|436:27,1,100,10|2,0:0|0:0,0:0:0:0:
389,45,30847,1,10,0:0:0:0:
389,45,31014,6,0,L|340:34,1,50,4|2,3:0|3:2,0:0:0:0:
295,10,31347,1,10,0:0:0:0:
223,141,31847,1,10,0:0:0:0:
223,141,32014,2,0,L|174:152,1,50,10|2,0:0|0:0,0:0:0:0:
130,127,32347,2,0,P|88:153|77:200,1,100,4|10,3:0|0:0,0:0:0:0:
141,278,33014,1,2,0:0:0:0:
141,278,33180,2,0,L|152:327,1,50,2|2,0:0|0:0,0:0:0:0:
193,355,33514,1,10,0:0:0:0:
193,355,33680,54,0,B|246:344|233:326|284:316,1,100,0|10,1:0|0:0,0:0:0:0:
329,226,34347,1,2,0:0:0:0:
329,226,34514,2,0,L|323:176,1,50,10|2,0:0|0:0,0:0:0:0:
279,153,34847,1,2,0:0:0:0:
279,153,35014,2,0,L|289:53,1,100,4|10,3:0|0:0,0:0:0:0:
376,5,35680,2,0,L|475:15,1,100,10|2,0:0|0:0,0:0:0:0:
501,58,36180,1,10,0:0:0:0:
501,58,36347,6,0,L|490:157,1,100,4|10,3:0|0:0,0:0:0:0:
432,239,37014,1,2,0:0:0:0:
432,239,37180,2,0,L|426:288,1,50,10|2,0:0|0:0,0:0:0:0:
385,317,37514,1,2,0:0:0:0:
385,317,37680,2,0,B|332:306|345:288|294:278,1,100,4|10,3:0|0:0,0:0:0:0:
199,311,38347,2,0,B|148:321|161:339|108:350,1,100,10|2,0:0|0:0,0:0:0:0:
65,323,38847,1,10,0:0:0:0:
65,323,39014,38,0,P|62:273|56:223,1,100,4|10,3:0|0:0,0:0:0:0:
97,132,39680,1,2,0:0:0:0:
97,132,39847,2,0,L|91:82,1,50,10|10,0:0|0:0,0:0:0:0:
125,46,40180,1,2,0:0:0:0:
125,46,40347,2,0,P|174:43|217:67,1,100,4|10,3:0|0:0,0:0:0:0:
306,113,41014,2,0,L|405:101,1,100,10|2,0:0|0:0,0:0:0:0:
443,68,41514,1,10,0:0:0:0:
443,68,41680,38,0,P|472:107|472:156,1,100,4|10,3:0|0:0,0:0:0:0:
403,229,42347,1,2,0:0:0:0:
403,229,42514,2,0,L|409:278,1,50,10|10,0:0|0:0,0:0:0:0:
379,318,42847,1,2,0:0:0:0:
379,318,43014,2,0,B|331:327|338:303|279:315,1,100,4|10,3:0|0:0,0:0:0:0:
224,231,43680,2,0,B|215:183|239:190|226:131,1,100,2|2,0:0|0:0,0:0:0:0:
261,96,44180,1,10,0:0:0:0:
261,96,44347,6,0,P|324:75|389:90,2,134.999995880127,2|2|2,0:0|0:0|0:0,0:0:0:0:
174,45,45680,38,0,P|129:64|80:74,1,100,4|10,3:0|0:0,0:0:0:0:
34,163,46347,2,0,P|54:208|51:258,1,100,10|2,0:0|0:0,0:0:0:0:
85,294,46847,1,10,0:0:0:0:
85,294,47014,1,4,3:0:0:0:
169,347,47347,2,0,P|218:348|259:321,1,100,10|2,0:0|0:0,0:0:0:0:
305,338,47847,2,0,P|309:288|316:238,1,100,10|2,0:0|0:0,0:0:0:0:
361,218,48347,5,4,3:0:0:0:
420,137,48680,2,0,L|414:87,1,50,8|2,0:0|0:0,0:0:0:0:
372,58,49014,2,0,L|322:51,1,50,10|2,0:0|0:0,0:0:0:0:
275,68,49347,1,2,0:0:0:0:
181,31,49680,6,0,P|142:61|92:65,1,100,4|10,3:0|0:0,0:0:0:0:
16,130,50347,1,2,0:0:0:0:
80,206,50680,1,2,0:0:0:0:
5,271,51014,2,0,P|36:309|62:352,1,100,4|10,3:0|0:0,0:0:0:0:
158,324,51680,2,0,L|207:332,1,50,10|2,0:0|0:0,0:0:0:0:
249,304,52014,1,2,0:0:0:0:
261,204,52347,38,0,L|257:154,1,50,4|4,3:0|3:0,0:0:0:0:
220,120,52680,2,0,P|252:83|301:74,1,100,10|2,0:0|0:0,0:0:0:0:
340,43,53180,2,0,L|439:56,1,100,10|2,0:0|0:0,0:0:0:0:
485,37,53680,2,0,L|496:136,1,100,4|10,3:0|0:0,0:0:0:0:
443,221,54347,1,2,0:0:0:0:
443,221,54514,2,0,L|448:270,1,50,2|2,0:0|0:0,0:0:0:0:
426,315,54847,1,10,0:0:0:0:
426,315,55014,6,0,L|326:328,1,100,4|10,3:0|0:0,0:0:0:0:
287,359,55514,1,2,0:0:0:0:
287,359,55680,2,0,P|247:329|198:326,1,100,2|2,0:0|0:0,0:0:0:0:
102,358,56347,1,4,3:0:0:0:
102,358,56514,2,0,P|99:308|93:258,1,100,2|0,0:0|0:0,0:0:0:0:
50,231,57014,2,0,P|51:206|54:180,1,50,10|2,0:0|0:0,0:0:0:0:
23,141,57347,2,0,P|22:116|19:90,1,50,2|2,0:0|0:0,0:0:0:0:
49,51,57680,5,4,3:0:0:0:
142,86,58014,2,0,B|164:96|164:96|239:87,1,100,10|2,0:0|0:0,0:0:0:0:
269,47,58514,2,0,P|311:71|360:67,1,100,10|2,0:0|0:0,0:0:0:0:
403,41,59014,2,0,L|412:140,1,100,4|8,3:0|0:0,0:0:0:0:
449,174,59514,1,2,0:0:0:0:
449,174,59680,1,10,0:0:0:0:
464,272,60014,1,2,0:0:0:0:
404,352,60347,38,0,B|392:346|392:346|306:335,1,100,4|10,3:0|0:0,0:0:0:0:
243,257,61014,1,2,0:0:0:0:
158,310,61347,1,2,0:0:0:0:
69,264,61680,2,0,B|73:257|73:257|54:166,1,100,4|8,3:0|0:0,0:0:0:0:
6,78,62347,2,0,P|6:53|13:29,1,50,8|2,0:0|0:0,0:0:0:0:
60,11,62680,2,0,P|84:14|107:24,1,50,2|2,0:0|0:0,0:0:0:0:
143,59,63013,6,0,L|193:52,1,50,4|4,3:0|3:0,0:0:0:0:
234,24,63347,2,0,P|274:52|323:49,1,100,10|2,0:0|0:0,0:0:0:0:
369,29,63847,2,0,L|375:128,1,100,10|2,0:0|0:0,0:0:0:0:
415,158,64347,1,4,3:0:0:0:
487,226,64680,2,0,L|481:275,1,50,10|2,0:0|0:0,0:0:0:0:
493,324,65013,2,0,P|448:302|398:304,1,100,10|2,0:0|0:0,0:0:0:0:
359,335,65513,1,10,0:0:0:0:
359,335,65680,6,0,L|279:324,1,80,6|6,3:0|3:0,0:0:0:0:
232,249,66347,1,10,0:0:0:0:
291,184,66680,2,0,L|331:189,2,40,0|0|0,3:0|3:0|0:0,0:0:0:0:
274,143,67180,1,4,3:0:0:0:
274,143,67347,2,0,L|269:103,1,40,6|8,3:0|0:0,0:0:0:0:
254,61,67680,2,0,B|241:58|241:58|176:75,1,80,6|2,3:0|0:0,0:0:0:0:
106,21,68347,38,0,P|73:41|61:79,1,80,4|4,3:0|3:0,0:0:0:0:
7,148,69013,1,10,0:0:0:0:
92,188,69347,1,0,3:0:0:0:
92,188,69513,1,0,3:0:0:0:
27,256,69847,2,0,L|33:296,1,40,4|4,3:0|3:0,0:0:0:0:
67,323,70180,1,10,0:0:0:0:
67,323,70347,2,0,P|106:326|146:331,1,80,2|2,0:0|0:0,0:0:0:0:
231,356,71013,6,0,L|240:276,1,80,6|4,3:0|3:0,0:0:0:0:
313,227,71680,2,0,L|304:147,1,80,10|2,0:0|0:0,0:0:0:0:
326,109,72180,1,2,3:0:0:0:
407,75,72513,1,6,3:0:0:0:
407,75,72680,2,0,L|445:86,1,40,4|8,3:0|0:0,0:0:0:0:
477,116,73013,2,0,L|468:196,1,80,4|2,3:0|0:0,0:0:0:0:
474,283,73680,6,0,P|434:278|397:293,1,80,6|6,3:0|3:0,0:0:0:0:
323,341,74347,1,8,0:0:0:0:
253,286,74680,1,2,0:0:0:0:
253,286,74847,1,2,0:0:0:0:
176,329,75180,2,0,L|180:369,2,40,4|4|8,3:0|3:0|0:0,0:0:0:0:
137,308,75680,2,0,P|134:268|130:228,1,80,4|2,3:0|0:0,0:0:0:0:
48,193,76347,38,0,P|36:153|45:114,1,80,4|6,3:0|3:0,0:0:0:0:
90,41,77013,1,8,0:0:0:0:
160,106,77347,1,2,0:0:0:0:
160,106,77513,1,2,0:0:0:0:
239,66,77847,2,0,L|282:72,1,40,4|4,3:0|3:0,0:0:0:0:
317,50,78180,1,8,0:0:0:0:
317,50,78347,2,0,P|356:51|396:55,1,80,6|2,3:0|0:0,0:0:0:0:
484,53,79013,6,0,P|479:92|478:132,1,80,4|4,3:0|3:0,0:0:0:0:
412,191,79680,2,0,P|407:230|406:270,1,80,8|2,0:0|0:0,0:0:0:0:
434,303,80180,1,2,0:0:0:0:
378,370,80513,1,4,3:0:0:0:
378,370,80680,2,0,L|338:376,1,40,4|8,3:0|0:0,0:0:0:0:
299,356,81013,1,4,3:0:0:0:
248,283,81347,2,0,L|254:243,1,40,2|2,0:0|0:0,0:0:0:0:
278,206,81680,6,0,L|264:127,1,80,4|4,3:0|3:0,0:0:0:0:
233,44,82347,1,8,0:0:0:0:
145,44,82680,1,2,0:0:0:0:
145,44,82847,1,2,0:0:0:0:
88,111,83180,1,4,3:0:0:0:
88,111,83347,2,0,L|83:150,1,40,4|8,3:0|0:0,0:0:0:0:
46,175,83680,1,4,3:0:0:0:
62,261,84013,1,2,0:0:0:0:
139,303,84347,38,0,P|177:313|217:315,1,80,4|6,3:0|3:0,0:0:0:0:
295,355,85013,2,0,P|329:335|359:308,1,80,10|2,0:0|0:0,0:0:0:0:
380,270,85513,1,2,0:0:0:0:
464,243,85847,1,4,3:0:0:0:
464,243,86013,2,0,L|469:203,1,40,4|10,3:0|0:0,0:0:0:0:
445,165,86347,2,0,B|459:130|459:130|445:89,1,80,6|2,3:0|0:0,0:0:0:0:
373,39,87013,6,0,L|293:50,1,80,6|6,3:0|3:0,0:0:0:0:
212,15,87680,1,10,0:0:0:0:
144,71,88013,1,2,0:0:0:0:
144,71,88180,1,2,0:0:0:0:
195,142,88513,2,0,L|234:149,2,40,4|4|8,3:0|3:0|0:0,0:0:0:0:
162,172,89013,1,4,3:0:0:0:
117,248,89347,1,2,0:0:0:0:
187,300,89680,6,0,L|266:295,1,80,6|6,3:0|3:0,0:0:0:0:
347,330,90347,2,0,P|372:299|376:260,1,80,8|2,0:0|0:0,0:0:0:0:
414,239,90847,1,2,0:0:0:0:
486,188,91180,2,0,L|489:148,1,40,4|4,3:0|3:0,0:0:0:0:
452,123,91513,1,10,0:0:0:0:
452,123,91680,2,0,B|466:88|466:88|452:47,1,80,4|2,3:0|0:0,0:0:0:0:
368,20,92347,38,0,L|288:30,1,80,6|6,3:0|3:0,0:0:0:0:
235,102,93013,1,10,0:0:0:0:
235,193,93347,1,2,0:0:0:0:
235,193,93513,1,2,0:0:0:0:
230,281,93847,1,4,3:0:0:0:
230,281,94013,2,0,L|226:320,1,40,4|8,3:0|0:0,0:0:0:0:
191,347,94347,2,0,L|112:363,1,80,4|2,3:0|0:0,0:0:0:0:
37,316,95013,38,0,P|28:277|41:239,1,80,4|6,3:0|3:0,0:0:0:0:
7,158,95680,2,0,P|28:124|64:107,1,80,8|2,0:0|0:0,0:0:0:0:
85,68,96180,1,2,0:0:0:0:
174,47,96513,1,4,3:0:0:0:
174,47,96680,2,0,L|213:53,1,40,4|8,3:0|0:0,0:0:0:0:
251,32,97013,2,0,L|329:45,1,80,4|2,3:0|0:0,0:0:0:0:
393,107,97680,6,0,L|406:185,1,80,4|4,3:0|3:0,0:0:0:0:
486,222,98347,2,0,L|472:300,1,80,8|2,0:0|0:0,0:0:0:0:
448,337,98847,1,2,0:0:0:0:
364,309,99180,2,0,L|324:316,1,40,4|4,3:0|3:0,0:0:0:0:
297,350,99513,1,8,0:0:0:0:
297,350,99680,2,0,L|218:336,1,80,4|2,3:0|0:0,0:0:0:0:
135,366,100347,38,0,P|95:359|64:334,1,80,4|4,3:0|3:0,0:0:0:0:
93,251,101013,1,8,0:0:0:0:
32,187,101347,1,2,0:0:0:0:
32,187,101513,1,2,0:0:0:0:
88,119,101847,1,4,3:0:0:0:
88,119,102013,2,0,L|92:79,1,40,4|8,3:0|0:0,0:0:0:0:
130,55,102347,1,4,3:0:0:0:
217,59,102680,1,2,0:0:0:0:
243,142,103013,38,0,L|246:221,1,80,4|4,3:0|3:0,0:0:0:0:
308,285,103680,2,0,P|347:290|385:279,1,80,10|2,0:0|0:0,0:0:0:0:
418,251,104180,1,2,0:0:0:0:
461,174,104513,2,0,P|465:154|462:134,1,40,4|4,3:0|3:0,0:0:0:0:
451,91,104847,1,10,0:0:0:0:
451,91,105013,2,0,P|429:57|395:37,1,80,6|2,3:0|0:0,0:0:0:0:
310,13,105680,6,0,L|230:21,1,80,4|4,3:0|3:0,0:0:0:0:
167,83,106347,1,10,0:0:0:0:
92,36,106680,1,2,0:0:0:0:
92,36,106847,1,2,0:0:0:0:
43,109,107180,2,0,L|4:103,2,40,4|6|8,3:0|3:0|0:0,0:0:0:0:
65,146,107680,1,4,3:0:0:0:
25,224,108013,1,2,0:0:0:0:
57,306,108347,22,0,P|94:318|134:315,1,80,4|4,3:0|3:0,0:0:0:0:
214,278,109013,2,0,P|253:274|291:286,1,80,8|2,0:0|0:0,0:0:0:0:
324,314,109513,1,2,0:0:0:0:
409,293,109847,2,0,L|417:253,1,40,4|4,3:0|3:0,0:0:0:0:
453,229,110180,1,8,0:0:0:0:
453,229,110347,2,0,L|436:149,1,80,4|2,3:0|0:0,0:0:0:0:
483,76,111013,6,0,L|415:31,1,80,4|4,3:0|3:0,0:0:0:0:
331,7,111680,2,0,L|251:23,1,80,8|2,0:0|0:0,0:0:0:0:
233,62,112180,1,2,0:0:0:0:
150,31,112513,1,4,3:0:0:0:
150,31,112680,2,0,L|110:39,1,40,4|10,3:0|0:0,0:0:0:0:
67,30,113013,2,0,L|50:109,1,80,4|2,3:0|0:0,0:0:0:0:
115,167,113680,54,0,P|135:201|134:240,1,80,4|4,3:0|3:0,0:0:0:0:
133,328,114347,1,10,0:0:0:0:
55,368,114680,1,2,0:0:0:0:
55,368,114847,1,2,0:0:0:0:
2,290,115180,2,0,L|8:250,1,40,4|4,3:0|3:0,0:0:0:0:
7,206,115513,1,10,0:0:0:0:
7,206,115680,1,6,3:0:0:0:
17,118,116013,1,2,0:0:0:0:
96,79,116347,6,0,B|133:64|133:64|171:73,1,80,4|4,3:0|3:0,0:0:0:0:
251,111,117013,2,0,B|289:101|289:101|326:116,1,80,10|2,0:0|0:0,0:0:0:0:
364,93,117513,1,2,0:0:0:0:
434,155,117847,1,4,3:0:0:0:
434,155,118013,2,0,L|438:194,1,40,4|8,3:0|0:0,0:0:0:0:
416,233,118347,1,4,3:0:0:0:
341,279,118680,1,2,0:0:0:0:
263,237,119013,53,2,0:0:0:0:
256,192,126347,12,0,129680,0:0:0:0:
256,192,130013,12,0,133847,0:0:0:0:
