osu file format v14

[General]
AudioFilename: vaporcore.mp3
AudioLeadIn: 0
PreviewTime: 118930
Countdown: 0
SampleSet: Soft
StackLeniency: 0.7
Mode: 0
LetterboxInBreaks: 0
WidescreenStoryboard: 1

[Editor]
DistanceSpacing: 1
BeatDivisor: 4
GridSize: 32
TimelineZoom: 3.299999

[Metadata]
Title:.vaporcore
TitleUnicode:.vaporcore
Artist:soowamisu
ArtistUnicode:soowamisu
Creator:Kyouren
Version:.meow
Source:
Tags:int2net​.​sm5​.​207 vaporwave vaporcore vapor breakcore kittyadventure gokugohan12468 electronic instrumental nytrocide_ nytro ganyumymommy cat collab collaboration SWMSU internet int to net in featured artist fa mappers' guild mpg
BeatmapID:4155858
BeatmapSetID:1999116

[Difficulty]
HPDrainRate:5
CircleSize:4
OverallDifficulty:8
ApproachRate:9
SliderMultiplier:1.6
SliderTickRate:1

[Events]
//Background and Video events
0,0,"cat.jpg",0,0
//Break Periods
//Storyboard Layer 0 (Background)
//Storyboard Layer 1 (Fail)
//Storyboard Layer 2 (Pass)
//Storyboard Layer 3 (Foreground)
//Storyboard Layer 4 (Overlay)
//Storyboard Sound Samples

[TimingPoints]
23014,333.333333333333,4,2,1,50,1,0
44347,-200,4,2,1,35,0,0
45680,-100,4,2,1,60,0,0
65680,-133.333333333333,4,2,1,50,0,0
119013,-647.249190938511,4,2,1,35,0,0
121597,-647.249190938511,4,2,1,5,0,0
121680,-740.740740740741,4,2,1,35,0,0
124263,-740.740740740741,4,2,1,5,0,0
124347,-714.285714285714,4,2,1,35,0,0
125097,-714.285714285714,4,2,1,5,0,0
125180,-666.666666666667,4,2,1,35,0,0
130263,-666.666666666667,4,2,1,5,0,0
133847,-666.666666666667,4,2,1,5,0,0

[Colours]
Combo1 : 128,255,255
Combo2 : 192,192,192
Combo3 : 140,140,140
Combo4 : 255,255,128
Combo5 : 128,255,128

[HitObjects]
25,75,23014,5,6,0:0:0:0:
70,5,23180,1,2,0:0:0:0:
140,55,23347,1,10,0:0:0:0:
215,10,23514,1,2,0:0:0:0:
224,11,23597,1,0,0:0:0:0:
234,13,23680,1,2,0:0:0:0:
244,15,23764,1,0,0:0:0:0:
254,17,23847,1,10,0:0:0:0:
325,65,24014,2,0,L|364:57,3,40,2|2|2|2,0:0|0:0|0:0|0:0,0:0:0:0:
380,40,24347,5,4,3:0:0:0:
460,75,24514,1,2,0:0:0:0:
445,160,24680,1,10,0:0:0:0:
362,177,24847,1,2,0:0:0:0:
362,177,24930,1,0,0:0:0:0:
362,177,25013,1,10,0:0:0:0:
305,240,25180,53,2,0:0:0:0:
303,249,25263,1,0,0:0:0:0:
302,259,25347,1,2,0:0:0:0:
300,269,25430,1,0,0:0:0:0:
299,279,25513,1,10,0:0:0:0:
245,350,25680,5,4,3:0:0:0:
160,355,25847,1,2,0:0:0:0:
100,295,26013,1,10,0:0:0:0:
105,210,26180,1,2,0:0:0:0:
103,197,26263,1,0,0:0:0:0:
101,184,26347,1,2,0:0:0:0:
160,120,26513,53,10,0:0:0:0:
25,155,26680,1,2,0:0:0:0:
26,145,26763,1,0,0:0:0:0:
27,135,26847,1,2,0:0:0:0:
29,125,26930,1,0,0:0:0:0:
30,115,27013,1,4,3:0:0:0:
100,55,27180,5,2,0:0:0:0:
160,120,27347,1,10,0:0:0:0:
232,67,27513,1,2,0:0:0:0:
232,67,27597,1,0,0:0:0:0:
232,67,27680,1,10,0:0:0:0:
315,100,27847,2,0,L|354:94,4,40,2|2|2|2|10,0:0|0:0|0:0|0:0|0:0,0:0:0:0:
415,35,28347,53,4,3:0:0:0:
424,36,28430,1,4,3:0:0:0:
434,37,28513,1,4,3:0:0:0:
444,39,28597,1,0,0:0:0:0:
454,40,28680,2,0,L|473:35,4,20,10|10|10|10|10,0:0|0:0|0:0|0:0|0:0,0:0:0:0:
315,100,29013,5,2,0:0:0:0:
380,175,29180,2,0,L|399:170,4,20,10|10|10|10|10,0:0|0:0|0:0|0:0|0:0,0:0:0:0:
497,253,29514,1,2,0:0:0:0:
500,265,29597,1,2,0:0:0:0:
502,276,29680,53,4,3:0:0:0:
445,350,29847,1,2,0:0:0:0:
360,320,30013,1,10,0:0:0:0:
290,370,30180,5,2,0:0:0:0:
280,365,30263,1,2,0:0:0:0:
270,360,30347,1,10,0:0:0:0:
185,370,30513,53,2,0:0:0:0:
182,360,30597,1,0,0:0:0:0:
179,350,30680,1,2,0:0:0:0:
177,341,30763,1,0,0:0:0:0:
174,331,30847,1,10,0:0:0:0:
90,330,31013,5,4,3:0:0:0:
92,320,31097,1,4,3:0:0:0:
95,310,31180,1,2,3:2:0:0:
97,301,31263,1,0,3:0:0:0:
99,291,31347,2,0,L|79:286,4,20,10|10|10|10|10,0:0|0:0|0:0|0:0|0:0,0:0:0:0:
20,220,31680,53,2,0:0:0:0:
100,185,31847,2,0,L|119:180,4,20,10|10|10|10|10,0:0|0:0|0:0|0:0|0:0,0:0:0:0:
208,82,32180,1,2,0:0:0:0:
194,66,32264,1,2,0:0:0:0:
214,51,32347,5,4,3:0:0:0:
298,37,32513,1,4,3:0:0:0:
382,23,32680,2,0,L|401:18,4,20,10|10|10|10|10,0:0|0:0|0:0|0:0|0:0,0:0:0:0:
475,60,33013,53,2,0:0:0:0:
473,69,33097,1,0,0:0:0:0:
471,79,33180,1,2,0:0:0:0:
469,89,33263,1,0,0:0:0:0:
467,99,33347,1,2,0:0:0:0:
445,180,33513,6,0,L|440:199,4,20,10|10|10|2|0,0:0|0:0|0:0|0:0|1:0,0:0:0:0:
490,270,33847,1,2,0:0:0:0:
440,340,34013,1,10,0:0:0:0:
360,320,34180,1,2,0:0:0:0:
347,323,34263,1,2,0:0:0:0:
334,326,34347,1,2,0:0:0:0:
260,275,34513,1,10,0:0:0:0:
185,320,34680,2,0,L|176:359,3,40,2|0|2|0,0:0|0:0|0:0|0:0,0:0:0:0:
155,370,35013,53,4,3:0:0:0:
70,360,35180,1,2,0:0:0:0:
40,280,35347,1,10,0:0:0:0:
95,210,35513,5,2,0:0:0:0:
110,205,35597,1,2,0:0:0:0:
125,200,35680,1,10,0:0:0:0:
30,145,35847,53,2,0:0:0:0:
25,125,35930,1,0,0:0:0:0:
20,106,36013,1,2,0:0:0:0:
15,86,36097,1,0,0:0:0:0:
11,67,36180,1,10,0:0:0:0:
80,10,36347,5,4,3:0:0:0:
165,25,36513,1,4,3:0:0:0:
185,110,36680,1,10,0:0:0:0:
260,160,36847,1,2,0:0:0:0:
285,160,36930,1,2,0:0:0:0:
305,150,37013,1,2,0:0:0:0:
365,85,37180,1,10,0:0:0:0:
315,10,37347,2,0,L|276:0,3,40,2|0|2|0,0:0|0:0|0:0|0:0,0:0:0:0:
250,10,37680,37,4,3:0:0:0:
165,25,37847,1,2,0:0:0:0:
80,40,38013,1,10,0:0:0:0:
25,105,38180,2,0,B|25:111|25:111|14:143,2,40,2|2|10,0:0|0:0|0:0,0:0:0:0:
105,120,38513,37,2,0:0:0:0:
108,129,38597,1,0,0:0:0:0:
111,138,38680,1,2,0:0:0:0:
113,148,38763,1,0,0:0:0:0:
115,158,38847,1,10,0:0:0:0:
70,235,39013,6,0,L|31:247,2,40,4|4|4,3:0|3:0|3:0,0:0:0:0:
95,250,39263,1,4,3:0:0:0:
110,275,39347,2,0,L|130:280,4,20,10|10|10|10|10,0:0|0:0|0:0|0:0|0:0,0:0:0:0:
245,215,39680,1,2,0:0:0:0:
355,355,39847,22,0,L|335:350,4,20,10|10|10|10|10,0:0|0:0|0:0|0:0|0:0,0:0:0:0:
359,271,40180,1,2,0:0:0:0:
364,266,40263,1,2,0:0:0:0:
370,260,40347,5,4,3:0:0:0:
380,180,40513,1,4,3:0:0:0:
340,105,40680,1,10,0:0:0:0:
400,40,40847,38,0,L|410:2,2,40,2|2|10,0:0|0:0|0:0,0:0:0:0:
265,65,41180,2,0,L|226:76,4,40,2|0|2|0|10,0:0|0:0|0:0|0:0|0:0,0:0:0:0:
135,15,41680,37,4,3:0:0:0:
137,24,41763,1,4,3:0:0:0:
140,34,41847,1,4,3:0:0:0:
143,43,41930,1,4,3:0:0:0:
146,53,42013,2,0,L|126:48,4,20,10|10|10|10|10,0:0|0:0|0:0|0:0|0:0,0:0:0:0:
45,80,42347,21,2,0:0:0:0:
100,150,42513,2,0,L|120:145,4,20,10|10|10|10|10,0:0|0:0|0:0|0:0|0:0,0:0:0:0:
222,172,42847,1,2,0:0:0:0:
213,165,42930,1,2,0:0:0:0:
205,160,43013,37,4,3:0:0:0:
195,250,43180,1,2,0:0:0:0:
110,260,43347,2,0,L|90:255,4,20,10|10|10|10|10,0:0|0:0|0:0|0:0|0:0,0:0:0:0:
160,330,43680,1,2,0:0:0:0:
162,339,43763,1,0,0:0:0:0:
164,349,43847,1,2,0:0:0:0:
167,359,43930,1,0,0:0:0:0:
169,368,44013,1,2,0:0:0:0:
305,195,44180,6,0,L|300:215,2,20,10|10|10,0:0|0:0|0:0,0:0:0:0:
315,190,44347,6,0,P|348:211|385:226,1,80,2|0,0:0|0:0,0:0:0:0:
272,118,44847,2,0,P|236:135|205:160,1,80,2|0,0:0|0:0,0:0:0:0:
355,115,45347,2,0,P|356:95|353:75,1,40,2|0,0:0|0:0,0:0:0:0:
500,10,45680,38,0,P|504:49|510:89,1,80,4|2,3:0|0:0,0:0:0:0:
445,150,46013,1,10,0:0:0:0:
505,260,46180,1,2,0:0:0:0:
485,270,46263,1,2,0:0:0:0:
465,280,46347,1,10,0:0:0:0:
400,350,46513,5,2,0:0:0:0:
368,326,46597,1,0,0:0:0:0:
330,311,46680,1,2,0:0:0:0:
291,308,46763,1,0,0:0:0:0:
251,316,46847,1,10,0:0:0:0:
170,370,47013,6,0,L|90:358,1,80,4|0,3:0|0:0,0:0:0:0:
15,260,47347,1,10,0:0:0:0:
170,180,47513,1,2,0:0:0:0:
167,193,47597,1,2,0:0:0:0:
164,206,47680,1,2,0:0:0:0:
10,110,47847,1,10,0:0:0:0:
130,55,48013,2,0,L|172:63,3,40,2|0|2|0,0:0|0:0|0:0|0:0,0:0:0:0:
240,20,48347,38,0,B|343:28|290:64|387:72,1,160,4|8,3:0|0:0,0:0:0:0:
495,215,48847,1,2,0:0:0:0:
340,240,49013,1,10,0:0:0:0:
405,155,49180,2,0,L|410:194,1,40,2|0,0:0|0:0,0:0:0:0:
425,275,49347,1,2,0:0:0:0:
427,284,49430,1,0,0:0:0:0:
428,294,49513,1,2,0:0:0:0:
430,304,49597,1,0,0:0:0:0:
431,314,49680,5,4,3:0:0:0:
340,240,49847,1,2,0:0:0:0:
250,350,50014,2,0,L|230:344,4,20,10|2|2|0|0,0:0|0:0|0:0|0:0|0:0,0:0:0:0:
95,295,50347,1,2,0:0:0:0:
215,215,50514,2,0,L|235:209,4,20,10|2|2|2|2,0:0|0:0|0:0|0:0|0:0,0:0:0:0:
130,190,50847,1,2,0:0:0:0:
185,40,51013,6,0,P|122:87|43:83,1,160,4|10,3:0|0:0,0:0:0:0:
130,190,51513,1,4,3:0:0:0:
310,90,51680,1,10,0:0:0:0:
400,180,51847,1,2,0:0:0:0:
409,182,51930,1,0,0:0:0:0:
419,184,52013,1,2,0:0:0:0:
429,187,52097,1,0,0:0:0:0:
438,189,52180,1,2,0:0:0:0:
262,312,52347,37,4,3:0:0:0:
262,312,52430,1,4,3:0:0:0:
262,312,52513,1,4,3:0:0:0:
330,360,52680,2,0,L|349:357,4,20,10|2|2|2|2,0:0|0:0|0:0|0:0|0:0,0:0:0:0:
479,304,53013,5,2,0:0:0:0:
479,304,53097,2,0,L|475:264,1,40,2|10,0:0|0:0,0:0:0:0:
438,189,53263,2,0,L|442:169,1,20,2|2,0:0|0:0,0:0:0:0:
460,160,53347,2,0,L|456:120,2,40,2|2|2,0:0|0:0|0:0,0:0:0:0:
360,30,53680,6,0,P|312:65|253:67,1,120,4|0,3:0|0:0,0:0:0:0:
180,35,54013,2,0,L|160:31,4,20,10|2|2|2|2,0:0|0:0|0:0|0:0|0:0,0:0:0:0:
255,190,54347,1,2,0:0:0:0:
245,191,54430,1,0,0:0:0:0:
235,193,54513,1,2,0:0:0:0:
225,195,54597,1,0,0:0:0:0:
215,197,54680,1,2,0:0:0:0:
75,160,54847,2,0,L|55:156,2,20,10|2|2,0:0|0:0|0:0,0:0:0:0:
85,165,55013,38,0,B|100:254|60:240|78:323,1,160,4|10,3:0|0:0,0:0:0:0:
254,373,55513,1,2,0:0:0:0:
258,369,55597,1,2,0:0:0:0:
263,364,55680,1,2,0:0:0:0:
165,350,55847,1,10,0:0:0:0:
350,375,56013,5,2,0:0:0:0:
369,340,56097,1,0,0:0:0:0:
375,301,56180,1,2,0:0:0:0:
367,262,56263,1,0,0:0:0:0:
346,228,56347,1,4,3:0:0:0:
465,225,56513,2,0,L|474:145,1,80,2|10,0:0|0:0,0:0:0:0:
485,65,57014,5,10,0:0:0:0:
474,145,57180,1,2,0:0:0:0:
472,165,57263,1,0,0:0:0:0:
469,185,57347,1,2,0:0:0:0:
467,205,57430,1,0,0:0:0:0:
465,225,57513,1,2,0:0:0:0:
415,15,57680,38,0,P|354:65|276:62,1,160,4|10,3:0|0:0,0:0:0:0:
205,20,58180,2,0,L|165:14,2,40,2|2|2,0:0|0:0|0:0,0:0:0:0:
255,190,58513,1,10,0:0:0:0:
235,192,58597,1,0,0:0:0:0:
215,195,58680,1,2,0:0:0:0:
195,198,58763,1,0,0:0:0:0:
175,200,58847,1,2,0:0:0:0:
340,280,59013,6,0,B|428:294|392:333|481:348,1,160,4|8,3:0|0:0,0:0:0:0:
270,330,59514,2,0,L|231:342,2,40,2|2|10,0:0|0:0|0:0,0:0:0:0:
340,280,59847,1,2,0:0:0:0:
341,260,59930,1,0,0:0:0:0:
343,240,60013,1,2,0:0:0:0:
345,220,60097,1,0,0:0:0:0:
347,200,60180,1,2,0:0:0:0:
175,200,60347,6,0,L|185:80,1,120,4|0,3:0|0:0,0:0:0:0:
130,20,60680,2,0,L|109:10,4,20,10|2|2|2|2,0:0|0:0|0:0|0:0|0:0,0:0:0:0:
184,80,61013,1,2,0:0:0:0:
85,115,61180,2,0,L|66:123,4,20,10|2|2|2|2,0:0|0:0|0:0|0:0|0:0,0:0:0:0:
255,150,61513,1,2,0:0:0:0:
385,70,61680,38,0,P|434:101|493:94,1,120,4|0,3:0|0:0,0:0:0:0:
500,90,62013,2,0,L|508:10,1,80,8|4,0:0|3:0,0:0:0:0:
347,200,62347,2,0,L|355:279,1,80,8|2,0:0|0:0,0:0:0:0:
355,279,62597,1,0,0:0:0:0:
355,279,62680,1,2,0:0:0:0:
355,279,62763,1,0,0:0:0:0:
355,279,62847,1,2,0:0:0:0:
180,375,63013,5,4,3:0:0:0:
145,345,63097,1,4,3:0:0:0:
165,300,63180,1,4,3:0:0:0:
250,285,63347,6,0,L|270:289,4,20,10|2|2|2|2,0:0|0:0|0:0|0:0|0:0,0:0:0:0:
95,235,63680,1,2,0:0:0:0:
165,145,63847,2,0,L|185:141,4,20,10|2|2|2|2,0:0|0:0|0:0|0:0|0:0,0:0:0:0:
85,105,64180,1,2,0:0:0:0:
255,15,64347,38,0,B|259:20|259:20|270:93,1,80,4|0,3:0|0:0,0:0:0:0:
175,55,64680,2,0,L|155:51,4,20,10|2|2|2|2,0:0|0:0|0:0|0:0|0:0,0:0:0:0:
356,104,65013,1,10,0:0:0:0:
356,130,65097,1,0,0:0:0:0:
347,155,65180,1,2,0:0:0:0:
330,176,65263,1,0,0:0:0:0:
307,189,65347,1,2,0:0:0:0:
281,194,65430,1,0,0:0:0:0:
255,190,65513,2,0,L|235:186,2,20,10|2|2,0:0|0:0|0:0,0:0:0:0:
260,175,65680,6,0,L|270:234,1,60.0000022888184,6|0,3:0|0:0,0:0:0:0:
160,255,66013,2,0,L|150:195,1,60.0000022888184,6|0,3:0|0:0,0:0:0:0:
345,270,66347,2,0,L|330:358,1,90.0000034332277,10|0,0:0|0:0,0:0:0:0:
340,370,66680,2,0,L|369:365,2,30.0000011444092,0|2|0,3:0|0:0|3:0,0:0:0:0:
160,255,67180,5,4,3:0:0:0:
80,160,67347,1,6,3:0:0:0:
160,255,67513,1,8,0:0:0:0:
260,175,67680,2,0,P|268:146|268:116,1,60.0000022888184,6|0,3:0|0:0,0:0:0:0:
185,135,68013,1,2,0:0:0:0:
310,40,68180,38,0,L|302:10,1,30.0000011444092,0|0,3:0|3:0,0:0:0:0:
315,45,68347,2,0,L|373:58,1,60.0000022888184,4|0,3:0|0:0,0:0:0:0:
268,116,68680,2,0,L|326:129,1,60.0000022888184,4|2,3:0|0:0,0:0:0:0:
480,20,69013,2,0,P|453:72|462:131,1,120.000004577637,10|0,0:0|3:0,0:0:0:0:
510,200,69513,1,0,3:0:0:0:
507,210,69680,1,0,3:0:0:0:
330,330,69847,5,4,3:0:0:0:
304,254,70013,1,4,3:0:0:0:
465,330,70180,1,10,0:0:0:0:
304,254,70347,2,0,L|247:270,1,60.0000022888184,2|2,0:0|0:0,0:0:0:0:
395,185,70680,1,2,0:0:0:0:
255,25,71013,6,0,B|191:33|203:51|140:59,2,120.000004577637,6|4|10,3:0|3:0|0:0,0:0:0:0:
310,85,71847,1,2,0:0:0:0:
385,45,72013,1,2,0:0:0:0:
460,100,72180,2,0,L|488:90,1,30.0000011444092,2|2,3:0|3:0,0:0:0:0:
455,105,72347,38,0,L|447:164,1,60.0000022888184,2|6,0:0|3:0,0:0:0:0:
310,85,72680,1,4,3:0:0:0:
230,210,72847,1,8,0:0:0:0:
89,159,73013,1,4,3:0:0:0:
89,159,73347,2,0,L|94:218,1,60.0000022888184,2|2,0:0|0:0,0:0:0:0:
35,275,73597,1,2,0:0:0:0:
30,280,73680,6,0,P|69:322|128:324,2,120.000004577637,6|6|8,3:0|3:0|0:0,0:0:0:0:
230,210,74680,1,2,0:0:0:0:
230,210,74847,2,0,L|223:269,1,60.0000022888184,2|0,0:0|0:0,0:0:0:0:
285,325,75180,5,4,3:0:0:0:
390,310,75347,1,4,3:0:0:0:
495,295,75513,1,8,0:0:0:0:
394,314,75680,1,4,3:0:0:0:
500,160,76013,2,0,B|491:159|491:159|441:143,1,60.0000022888184,2|2,0:0|0:0,0:0:0:0:
425,60,76263,1,2,0:0:0:0:
430,65,76347,38,0,P|405:117|349:129,2,120.000004577637,4|6|8,3:0|3:0|0:0,0:0:0:0:
259,19,77347,1,2,0:0:0:0:
259,19,77513,2,0,L|252:79,1,60.0000022888184,2|0,0:0|0:0,0:0:0:0:
164,194,77847,5,4,3:0:0:0:
145,110,78013,1,4,3:0:0:0:
164,194,78180,1,8,0:0:0:0:
320,130,78347,2,0,L|306:249,1,120.000004577637,6|2,3:0|0:0,0:0:0:0:
177,347,78847,5,2,0:0:0:0:
177,347,78930,1,2,0:0:0:0:
177,347,79013,2,0,B|111:338|137:316|65:308,2,120.000004577637,4|4|8,3:0|3:0|0:0,0:0:0:0:
310,253,80013,1,2,0:0:0:0:
310,253,80180,2,0,L|317:313,1,60.0000022888184,2|0,0:0|0:0,0:0:0:0:
374,184,80513,37,4,3:0:0:0:
220,250,80680,1,4,3:0:0:0:
374,184,80847,1,8,0:0:0:0:
320,10,81013,2,0,L|306:129,1,120.000004577637,4|2,3:0|0:0,0:0:0:0:
229,24,81513,2,0,L|233:53,1,30.0000011444092,2|2,0:0|0:0,0:0:0:0:
233,53,81680,6,0,L|173:46,1,60.0000022888184,4|0,3:0|0:0,0:0:0:0:
95,5,82013,2,0,P|73:43|80:87,1,90.0000034332277,4|0,3:0|0:0,0:0:0:0:
95,95,82347,2,0,L|98:124,1,30.0000011444092,8|0,0:0|0:0,0:0:0:0:
259,194,82680,1,2,0:0:0:0:
259,194,82847,2,0,L|251:253,1,60.0000022888184,2|0,0:0|0:0,0:0:0:0:
295,335,83180,5,4,3:0:0:0:
194,324,83347,1,4,3:0:0:0:
85,305,83513,1,8,0:0:0:0:
194,324,83680,1,4,3:0:0:0:
5,190,84013,2,0,B|14:193|14:193|63:181,1,60.0000022888184,2|2,0:0|0:0,0:0:0:0:
90,105,84263,1,2,0:0:0:0:
100,100,84347,38,0,B|171:108|154:120|216:127,1,120.000004577637,4|6,3:0|3:0,0:0:0:0:
279,74,84763,1,2,0:0:0:0:
279,74,84847,1,2,0:0:0:0:
370,190,85013,2,0,P|416:154|474:161,1,120.000004577637,10|2,0:0|0:0,0:0:0:0:
474,161,85513,1,2,0:0:0:0:
269,349,85847,5,4,3:0:0:0:
180,300,86014,1,4,3:0:0:0:
269,349,86180,1,10,0:0:0:0:
339,279,86347,1,6,3:0:0:0:
339,279,86680,2,0,L|397:291,1,60.0000022888184,2|2,0:0|0:0,0:0:0:0:
480,295,86930,1,2,0:0:0:0:
485,290,87013,6,0,L|489:260,2,30.0000011444092,6|2|2,3:0|0:0|0:0,0:0:0:0:
270,230,87347,2,0,P|304:202|348:195,1,90.0000034332277,6|0,3:0|0:0,0:0:0:0:
355,190,87680,2,0,L|366:131,1,60.0000022888184,10|0,0:0|0:0,0:0:0:0:
230,50,88013,2,0,L|218:108,1,60.0000022888184,2|2,0:0|0:0,0:0:0:0:
14,199,88513,37,4,3:0:0:0:
14,199,88680,1,4,3:0:0:0:
135,280,88847,1,8,0:0:0:0:
270,230,89013,2,0,P|286:287|270:344,1,120.000004577637,4|2,3:0|0:0,0:0:0:0:
417,262,89513,5,2,0:0:0:0:
417,262,89597,1,2,0:0:0:0:
417,262,89680,2,0,L|501:277,1,60.0000022888184,6|2,3:0|0:0,0:0:0:0:
350,170,90013,2,0,P|337:127|351:85,1,90.0000034332277,6|0,3:0|0:0,0:0:0:0:
365,80,90347,2,0,B|431:91|415:109|477:120,1,120.000004577637,8|2,0:0|0:0,0:0:0:0:
290,20,90847,2,0,L|231:32,1,60.0000022888184,2|0,0:0|0:0,0:0:0:0:
10,165,91180,5,4,3:0:0:0:
70,100,91347,1,4,3:0:0:0:
210,185,91513,1,10,0:0:0:0:
365,80,91680,1,4,3:0:0:0:
365,80,92013,2,0,L|356:139,1,60.0000022888184,2|2,0:0|0:0,0:0:0:0:
399,214,92263,1,2,0:0:0:0:
399,214,92347,38,0,P|456:199|509:223,2,120.000004577637,6|6|10,3:0|3:0|0:0,0:0:0:0:
259,329,93347,1,2,0:0:0:0:
259,329,93513,1,2,0:0:0:0:
100,220,93847,5,4,3:0:0:0:
125,140,94013,1,4,3:0:0:0:
15,240,94180,1,8,0:0:0:0:
155,285,94347,1,4,3:0:0:0:
100,220,94680,1,2,0:0:0:0:
255,85,95013,22,0,B|323:95|303:113|367:123,1,120.000004577637,4|6,3:0|3:0,0:0:0:0:
190,20,95680,2,0,P|136:35|137:91,1,120.000004577637,8|2,0:0|0:0,0:0:0:0:
187,163,96180,2,0,B|144:170|144:170|124:190|124:190|76:197,1,120.000004577637,2|4,0:0|3:0,0:0:0:0:
185,250,96680,1,4,3:0:0:0:
75,315,96847,1,8,0:0:0:0:
210,370,97013,2,0,P|254:331|312:337,1,120.000004577637,4|2,3:0|0:0,0:0:0:0:
465,375,97513,5,2,0:0:0:0:
455,370,97597,1,2,0:0:0:0:
445,365,97680,2,0,L|455:245,2,120.000004577637,4|4|8,3:0|3:0|0:0,0:0:0:0:
369,199,98680,1,2,0:0:0:0:
369,199,98847,2,0,B|343:146|343:146|373:93,1,120.000004577637,2|4,0:0|3:0,0:0:0:0:
255,25,99347,1,4,3:0:0:0:
160,115,99513,1,8,0:0:0:0:
85,70,99680,2,0,L|19:82,2,60.0000022888184,4|2|2,3:0|0:0|0:0,0:0:0:0:
255,195,100180,37,2,0:0:0:0:
254,201,100263,1,2,0:0:0:0:
253,207,100347,2,0,L|236:325,1,120.000004577637,4|4,3:0|3:0,0:0:0:0:
373,92,101013,2,0,L|390:210,1,120.000004577637,8|2,0:0|0:0,0:0:0:0:
455,80,101513,2,0,L|472:198,1,120.000004577637,2|4,0:0|3:0,0:0:0:0:
373,92,102013,1,4,3:0:0:0:
255,195,102180,1,8,0:0:0:0:
200,55,102347,2,0,P|153:91|94:94,1,120.000004577637,4|2,3:0|0:0,0:0:0:0:
15,190,102847,37,2,0:0:0:0:
20,195,102930,1,2,0:0:0:0:
25,200,103013,2,0,L|31:259,1,60.0000022888184,4|2,3:0|0:0,0:0:0:0:
190,370,103347,2,0,P|175:327|186:284,1,90.0000034332277,4|0,3:0|0:0,0:0:0:0:
195,280,103680,2,0,P|152:320|93:324,1,120.000004577637,10|2,0:0|0:0,0:0:0:0:
31,259,104180,2,0,P|26:229|34:200,1,60.0000022888184,2|2,0:0|0:0,0:0:0:0:
284,264,104513,5,4,3:0:0:0:
284,264,104680,1,4,3:0:0:0:
405,190,104847,1,10,0:0:0:0:
470,240,105013,2,0,P|459:298|455:358,1,120.000004577637,6|2,3:0|0:0,0:0:0:0:
310,170,105513,21,0,0:0:0:0:
308,162,105597,1,0,0:0:0:0:
306,154,105680,2,0,L|316:94,1,60.0000022888184,4|2,3:0|0:0,0:0:0:0:
205,0,106013,2,0,P|190:42|199:85,1,90.0000034332277,4|0,3:0|0:0,0:0:0:0:
205,95,106347,2,0,L|175:102,1,30.0000011444092,10|0,0:0|0:0,0:0:0:0:
34,19,106597,1,2,0:0:0:0:
34,19,106680,2,0,L|26:78,2,60.0000022888184,2|2|2,0:0|0:0|0:0,0:0:0:0:
9,174,107180,5,4,3:0:0:0:
154,204,107347,1,6,3:0:0:0:
9,174,107513,1,8,0:0:0:0:
154,204,107680,2,0,L|169:323,1,120.000004577637,4|2,3:0|0:0,0:0:0:0:
272,142,108180,53,0,0:0:0:0:
272,142,108263,1,0,0:0:0:0:
272,142,108347,2,0,L|257:261,2,120.000004577637,4|4|8,3:0|3:0|0:0,0:0:0:0:
384,354,109347,1,2,0:0:0:0:
384,354,109513,1,2,0:0:0:0:
410,190,109847,5,4,3:0:0:0:
385,110,110013,1,4,3:0:0:0:
495,210,110180,1,8,0:0:0:0:
355,255,110347,1,4,3:0:0:0:
410,190,110680,1,2,0:0:0:0:
510,340,110847,53,2,0:0:0:0:
505,345,110930,1,2,0:0:0:0:
499,348,111013,2,0,B|462:345|441:335|441:335|416:349|384:353,1,120.000004577637,4|4,3:0|3:0,0:0:0:0:
255,190,111680,2,0,B|263:197|263:197|275:305,1,120.000004577637,8|2,0:0|0:0,0:0:0:0:
205,350,112180,1,2,0:0:0:0:
24,194,112513,5,4,3:0:0:0:
100,220,112680,1,4,3:0:0:0:
24,194,112847,1,10,0:0:0:0:
198,172,113013,2,0,P|226:181|255:189,1,60.0000022888184,4|2,3:0|0:0,0:0:0:0:
325,145,113263,1,2,0:0:0:0:
321,139,113347,2,0,L|333:80,1,60.0000022888184,2|2,0:0|0:0,0:0:0:0:
510,190,113680,54,0,P|452:199|425:250,2,120.000004577637,4|4|10,3:0|3:0|0:0,0:0:0:0:
344,329,114680,1,2,0:0:0:0:
344,329,114847,2,0,L|285:315,1,60.0000022888184,2|2,0:0|0:0,0:0:0:0:
225,260,115180,5,4,3:0:0:0:
129,359,115347,1,4,3:0:0:0:
20,280,115513,1,10,0:0:0:0:
129,359,115680,2,0,L|125:329,2,30.0000011444092,6|2|2,3:0|0:0|0:0,0:0:0:0:
225,260,116013,2,0,L|217:200,1,60.0000022888184,2|2,0:0|0:0,0:0:0:0:
150,150,116263,1,2,0:0:0:0:
145,145,116347,54,0,P|130:87|144:29,2,120.000004577637,4|4|10,3:0|3:0|0:0,0:0:0:0:
259,9,117347,1,2,0:0:0:0:
259,9,117513,1,2,0:0:0:0:
369,194,117847,5,4,3:0:0:0:
385,105,118013,1,4,3:0:0:0:
369,194,118180,1,8,0:0:0:0:
500,135,118347,1,4,3:0:0:0:
259,194,118680,53,2,0:0:0:0:
275,285,118847,1,2,0:0:0:0:
259,194,119013,6,0,B|274:193|284:187|284:187|275:209|240:220|202:204|189:170|187:144|206:116,1,191.57999538122,2|0,0:0|0:0,0:0:0:0:
255,45,121680,54,0,P|181:82|98:83,1,167.400004086914,2|0,0:0|0:0,0:0:0:0:
20,55,124347,6,0,L|16:105,1,50.4000006152344,2|0,0:0|0:0,0:0:0:0:
0,200,125180,54,0,P|168:206|215:367,1,359.999989013672,2|2,0:0|0:0,0:0:0:0:
256,192,130263,12,0,133847,0:0:0:0:
