osu file format v14

[General]
AudioFilename: audio.mp3
AudioLeadIn: 0
PreviewTime: -1
Countdown: 0
SampleSet: None
StackLeniency: 0.7
Mode: 0
LetterboxInBreaks: 0
EpilepsyWarning: 1
WidescreenStoryboard: 1

[Editor]
DistanceSpacing: 1.2
BeatDivisor: 16
GridSize: 16
TimelineZoom: 1

[Metadata]
Title:5 second car commercial
TitleUnicode:5 second car commercial
Artist:some black guy
ArtistUnicode:some black guy
Creator:dragonworm
Version:triangle part 5
Source:
Tags:
BeatmapID:1930014
BeatmapSetID:924078

[Difficulty]
HPDrainRate:10
CircleSize:7
OverallDifficulty:10
ApproachRate:10
SliderMultiplier:2.99999990463257
SliderTickRate:4

[Events]
//Background and Video events
//Break Periods
//Storyboard Layer 0 (Background)
//Storyboard Layer 1 (Fail)
//Storyboard Layer 2 (Pass)
//Storyboard Layer 3 (Foreground)
//Storyboard Sound Samples

[TimingPoints]
0,352.941176470588,4,2,0,100,1,0

[HitObjects]
336,304,0,1,0,0:0:0:0:
336,256,22,1,0,0:0:0:0:
378,279,44,1,0,0:0:0:0:
335,304,66,1,0,0:0:0:0:
336,256,88,1,0,0:0:0:0:
378,279,110,1,0,0:0:0:0:
335,304,132,1,0,0:0:0:0:
336,256,154,1,0,0:0:0:0:
378,279,176,1,0,0:0:0:0:
335,303,198,1,0,0:0:0:0:
336,256,220,1,0,0:0:0:0:
378,279,242,1,0,0:0:0:0:
335,303,264,1,0,0:0:0:0:
336,256,286,1,0,0:0:0:0:
378,279,308,1,0,0:0:0:0:
335,303,330,1,0,0:0:0:0:
336,256,352,1,0,0:0:0:0:
378,279,374,1,0,0:0:0:0:
335,303,397,1,0,0:0:0:0:
336,256,419,1,0,0:0:0:0:
378,279,441,1,0,0:0:0:0:
383,319,463,1,0,0:0:0:0:
384,272,485,1,0,0:0:0:0:
426,295,507,1,0,0:0:0:0:
383,319,529,1,0,0:0:0:0:
384,272,551,1,0,0:0:0:0:
416,320,573,1,0,0:0:0:0:
373,344,595,1,0,0:0:0:0:
374,297,617,1,0,0:0:0:0:
416,320,639,1,0,0:0:0:0:
374,345,661,1,0,0:0:0:0:
374,297,683,1,0,0:0:0:0:
416,320,705,1,0,0:0:0:0:
373,345,727,1,0,0:0:0:0:
374,297,749,1,0,0:0:0:0:
416,320,771,1,0,0:0:0:0:
373,345,793,1,0,0:0:0:0:
374,297,815,1,0,0:0:0:0:
416,320,837,1,0,0:0:0:0:
373,344,859,1,0,0:0:0:0:
374,297,881,1,0,0:0:0:0:
416,320,903,1,0,0:0:0:0:
373,344,925,1,0,0:0:0:0:
374,297,947,1,0,0:0:0:0:
416,320,969,1,0,0:0:0:0:
373,344,991,1,0,0:0:0:0:
374,297,1013,1,0,0:0:0:0:
416,320,1035,1,0,0:0:0:0:
373,344,1058,1,0,0:0:0:0:
374,297,1080,1,0,0:0:0:0:
416,320,1102,1,0,0:0:0:0:
373,344,1124,1,0,0:0:0:0:
374,297,1146,1,0,0:0:0:0:
416,320,1168,1,0,0:0:0:0:
373,344,1190,1,0,0:0:0:0:
374,297,1212,1,0,0:0:0:0:
416,320,1234,1,0,0:0:0:0:
383,319,1256,1,0,0:0:0:0:
384,272,1278,1,0,0:0:0:0:
426,295,1300,1,0,0:0:0:0:
384,320,1301,1,0,0:0:0:0:
384,272,1323,1,0,0:0:0:0:
426,295,1345,1,0,0:0:0:0:
383,320,1367,1,0,0:0:0:0:
384,272,1389,1,0,0:0:0:0:
426,295,1411,1,0,0:0:0:0:
383,320,1433,1,0,0:0:0:0:
384,272,1455,1,0,0:0:0:0:
426,295,1477,1,0,0:0:0:0:
383,319,1499,1,0,0:0:0:0:
384,272,1521,1,0,0:0:0:0:
426,295,1543,1,0,0:0:0:0:
383,319,1565,1,0,0:0:0:0:
384,272,1587,1,0,0:0:0:0:
426,295,1609,1,0,0:0:0:0:
383,319,1631,1,0,0:0:0:0:
384,272,1653,1,0,0:0:0:0:
426,295,1675,1,0,0:0:0:0:
383,319,1698,1,0,0:0:0:0:
384,272,1720,1,0,0:0:0:0:
426,295,1742,1,0,0:0:0:0:
383,319,1764,1,0,0:0:0:0:
384,272,1786,1,0,0:0:0:0:
426,295,1808,1,0,0:0:0:0:
383,319,1830,1,0,0:0:0:0:
384,272,1852,1,0,0:0:0:0:
426,295,1874,1,0,0:0:0:0:
383,319,1896,1,0,0:0:0:0:
384,272,1918,1,0,0:0:0:0:
426,295,1940,1,0,0:0:0:0:
384,320,1941,1,0,0:0:0:0:
384,272,1963,1,0,0:0:0:0:
426,295,1985,1,0,0:0:0:0:
383,320,2007,1,0,0:0:0:0:
384,272,2029,1,0,0:0:0:0:
426,295,2051,1,0,0:0:0:0:
383,320,2073,1,0,0:0:0:0:
384,272,2095,1,0,0:0:0:0:
426,295,2117,1,0,0:0:0:0:
383,319,2139,1,0,0:0:0:0:
384,272,2161,1,0,0:0:0:0:
426,295,2183,1,0,0:0:0:0:
383,319,2205,1,0,0:0:0:0:
384,272,2227,1,0,0:0:0:0:
426,295,2249,1,0,0:0:0:0:
383,319,2271,1,0,0:0:0:0:
384,272,2293,1,0,0:0:0:0:
426,295,2315,1,0,0:0:0:0:
383,319,2338,1,0,0:0:0:0:
384,272,2360,1,0,0:0:0:0:
426,295,2382,1,0,0:0:0:0:
383,319,2404,1,0,0:0:0:0:
384,272,2426,1,0,0:0:0:0:
426,295,2448,1,0,0:0:0:0:
383,319,2470,1,0,0:0:0:0:
384,272,2492,1,0,0:0:0:0:
426,295,2514,1,0,0:0:0:0:
383,319,2536,1,0,0:0:0:0:
384,272,2558,1,0,0:0:0:0:
426,295,2580,1,0,0:0:0:0:
384,320,2602,1,0,0:0:0:0:
384,272,2624,1,0,0:0:0:0:
426,295,2646,1,0,0:0:0:0:
383,320,2668,1,0,0:0:0:0:
384,272,2690,1,0,0:0:0:0:
426,295,2712,1,0,0:0:0:0:
383,320,2734,1,0,0:0:0:0:
384,272,2756,1,0,0:0:0:0:
426,295,2778,1,0,0:0:0:0:
383,319,2800,1,0,0:0:0:0:
384,272,2822,1,0,0:0:0:0:
426,295,2844,1,0,0:0:0:0:
383,319,2866,1,0,0:0:0:0:
384,272,2888,1,0,0:0:0:0:
426,295,2910,1,0,0:0:0:0:
383,319,2932,1,0,0:0:0:0:
384,272,2954,1,0,0:0:0:0:
426,295,2976,1,0,0:0:0:0:
383,319,2999,1,0,0:0:0:0:
384,272,3021,1,0,0:0:0:0:
426,295,3043,1,0,0:0:0:0:
383,319,3065,1,0,0:0:0:0:
384,272,3087,1,0,0:0:0:0:
426,295,3109,1,0,0:0:0:0:
383,319,3131,1,0,0:0:0:0:
384,272,3153,1,0,0:0:0:0:
426,295,3175,1,0,0:0:0:0:
383,319,3197,1,0,0:0:0:0:
384,272,3219,1,0,0:0:0:0:
426,295,3241,1,0,0:0:0:0:
384,320,3242,1,0,0:0:0:0:
384,272,3264,1,0,0:0:0:0:
426,295,3286,1,0,0:0:0:0:
383,320,3308,1,0,0:0:0:0:
384,272,3330,1,0,0:0:0:0:
426,295,3352,1,0,0:0:0:0:
383,320,3374,1,0,0:0:0:0:
384,272,3396,1,0,0:0:0:0:
426,295,3418,1,0,0:0:0:0:
383,319,3440,1,0,0:0:0:0:
384,272,3462,1,0,0:0:0:0:
426,295,3484,1,0,0:0:0:0:
383,319,3506,1,0,0:0:0:0:
384,272,3528,1,0,0:0:0:0:
426,295,3550,1,0,0:0:0:0:
383,319,3572,1,0,0:0:0:0:
384,272,3594,1,0,0:0:0:0:
426,295,3616,1,0,0:0:0:0:
383,319,3639,1,0,0:0:0:0:
384,272,3661,1,0,0:0:0:0:
426,295,3683,1,0,0:0:0:0:
383,319,3705,1,0,0:0:0:0:
384,272,3727,1,0,0:0:0:0:
426,295,3749,1,0,0:0:0:0:
383,319,3771,1,0,0:0:0:0:
384,272,3793,1,0,0:0:0:0:
426,295,3815,1,0,0:0:0:0:
383,319,3837,1,0,0:0:0:0:
384,272,3859,1,0,0:0:0:0:
426,295,3881,1,0,0:0:0:0:
384,320,3882,1,0,0:0:0:0:
384,272,3904,1,0,0:0:0:0:
426,295,3926,1,0,0:0:0:0:
383,320,3948,1,0,0:0:0:0:
384,272,3970,1,0,0:0:0:0:
426,295,3992,1,0,0:0:0:0:
383,320,4014,1,0,0:0:0:0:
384,272,4036,1,0,0:0:0:0:
426,295,4058,1,0,0:0:0:0:
383,319,4080,1,0,0:0:0:0:
384,272,4102,1,0,0:0:0:0:
426,295,4124,1,0,0:0:0:0:
383,319,4146,1,0,0:0:0:0:
384,272,4168,1,0,0:0:0:0:
426,295,4190,1,0,0:0:0:0:
383,319,4212,1,0,0:0:0:0:
384,272,4234,1,0,0:0:0:0:
426,295,4256,1,0,0:0:0:0:
383,319,4279,1,0,0:0:0:0:
384,272,4301,1,0,0:0:0:0:
426,295,4323,1,0,0:0:0:0:
383,319,4345,1,0,0:0:0:0:
384,272,4367,1,0,0:0:0:0:
426,295,4389,1,0,0:0:0:0:
383,319,4411,1,0,0:0:0:0:
384,272,4433,1,0,0:0:0:0:
426,295,4455,1,0,0:0:0:0:
383,319,4477,1,0,0:0:0:0:
384,272,4499,1,0,0:0:0:0:
426,295,4521,1,0,0:0:0:0:
384,320,4522,1,0,0:0:0:0:
384,272,4544,1,0,0:0:0:0:
426,295,4566,1,0,0:0:0:0:
383,320,4588,1,0,0:0:0:0:
384,272,4610,1,0,0:0:0:0:
426,295,4632,1,0,0:0:0:0:
383,320,4654,1,0,0:0:0:0:
384,272,4676,1,0,0:0:0:0:
426,295,4698,1,0,0:0:0:0:
383,319,4720,1,0,0:0:0:0:
384,272,4742,1,0,0:0:0:0:
426,295,4764,1,0,0:0:0:0:
383,319,4786,1,0,0:0:0:0:
384,272,4808,1,0,0:0:0:0:
384,320,4830,1,0,0:0:0:0:
384,272,4852,1,0,0:0:0:0:
426,295,4874,1,0,0:0:0:0:
383,320,4896,1,0,0:0:0:0:
384,272,4918,1,0,0:0:0:0:
383,319,4919,1,0,0:0:0:0:
426,295,4940,1,0,0:0:0:0:
384,272,4941,1,0,0:0:0:0:
383,320,4962,1,0,0:0:0:0:
426,295,4963,1,0,0:0:0:0:
384,272,4984,1,0,0:0:0:0:
