osu file format v14

[General]
AudioFilename: audio.mp3
AudioLeadIn: 0
PreviewTime: -1
Countdown: 0
SampleSet: None
StackLeniency: 0.7
Mode: 0
LetterboxInBreaks: 0
EpilepsyWarning: 1
WidescreenStoryboard: 1

[Editor]
DistanceSpacing: 1.2
BeatDivisor: 16
GridSize: 16
TimelineZoom: 1

[Metadata]
Title:5 second car commercial
TitleUnicode:5 second car commercial
Artist:some black guy
ArtistUnicode:some black guy
Creator:dragonworm
Version:osu!spinner
Source:
Tags:
BeatmapID:1930009
BeatmapSetID:924078

[Difficulty]
HPDrainRate:4
CircleSize:4
OverallDifficulty:0
ApproachRate:10
SliderMultiplier:2.99999990463257
SliderTickRate:4

[Events]
//Background and Video events
//Break Periods
//Storyboard Layer 0 (Background)
//Storyboard Layer 1 (Fail)
//Storyboard Layer 2 (Pass)
//Storyboard Layer 3 (Foreground)
//Storyboard Sound Samples

[TimingPoints]
0,352.941176470588,4,2,0,100,1,0

[HitObjects]
256,192,0,12,0,22,0:0:0:0:
256,192,44,12,0,66,0:0:0:0:
256,192,88,12,0,110,0:0:0:0:
256,192,132,12,0,154,0:0:0:0:
256,192,176,12,0,198,0:0:0:0:
256,192,220,12,0,242,0:0:0:0:
256,192,264,12,0,286,0:0:0:0:
256,192,308,12,0,330,0:0:0:0:
256,192,352,12,0,374,0:0:0:0:
256,192,397,12,0,419,0:0:0:0:
256,192,441,12,0,463,0:0:0:0:
256,192,485,12,0,507,0:0:0:0:
256,192,529,12,0,551,0:0:0:0:
256,192,573,12,0,595,0:0:0:0:
256,192,617,12,0,639,0:0:0:0:
256,192,661,12,0,683,0:0:0:0:
256,192,705,12,0,727,0:0:0:0:
256,192,749,12,0,772,0:0:0:0:
256,192,794,12,0,816,0:0:0:0:
256,192,838,12,0,860,0:0:0:0:
256,192,882,12,0,904,0:0:0:0:
256,192,926,12,0,948,0:0:0:0:
256,192,948,12,0,992,0:0:0:0:
256,192,1014,12,0,1036,0:0:0:0:
256,192,1058,12,0,1080,0:0:0:0:
256,192,1102,12,0,1124,0:0:0:0:
256,192,1147,12,0,1169,0:0:0:0:
256,192,1191,12,0,1213,0:0:0:0:
256,192,1235,12,0,1257,0:0:0:0:
256,192,1279,12,0,1301,0:0:0:0:
256,192,1301,12,0,1323,0:0:0:0:
256,192,1345,12,0,1367,0:0:0:0:
256,192,1389,12,0,1411,0:0:0:0:
256,192,1433,12,0,1455,0:0:0:0:
256,192,1477,12,0,1499,0:0:0:0:
256,192,1521,12,0,1543,0:0:0:0:
256,192,1565,12,0,1587,0:0:0:0:
256,192,1609,12,0,1631,0:0:0:0:
256,192,1653,12,0,1675,0:0:0:0:
256,192,1697,12,0,1719,0:0:0:0:
256,192,1741,12,0,1763,0:0:0:0:
256,192,1785,12,0,1807,0:0:0:0:
256,192,1830,12,0,1852,0:0:0:0:
256,192,1874,12,0,1896,0:0:0:0:
256,192,1918,12,0,1940,0:0:0:0:
256,192,1962,12,0,1984,0:0:0:0:
256,192,2006,12,0,2028,0:0:0:0:
256,192,2050,12,0,2072,0:0:0:0:
256,192,2094,12,0,2116,0:0:0:0:
256,192,2138,12,0,2160,0:0:0:0:
256,192,2182,12,0,2205,0:0:0:0:
256,192,2227,12,0,2249,0:0:0:0:
256,192,2271,12,0,2293,0:0:0:0:
256,192,2315,12,0,2337,0:0:0:0:
256,192,2359,12,0,2381,0:0:0:0:
256,192,2381,12,0,2425,0:0:0:0:
256,192,2447,12,0,2469,0:0:0:0:
256,192,2491,12,0,2513,0:0:0:0:
256,192,2535,12,0,2557,0:0:0:0:
256,192,2580,12,0,2602,0:0:0:0:
256,192,2624,12,0,2646,0:0:0:0:
256,192,2668,12,0,2690,0:0:0:0:
256,192,2712,12,0,2734,0:0:0:0:
256,192,2734,12,0,2756,0:0:0:0:
256,192,2778,12,0,2800,0:0:0:0:
256,192,2822,12,0,2844,0:0:0:0:
256,192,2845,12,0,2867,0:0:0:0:
256,192,2889,12,0,2911,0:0:0:0:
256,192,2933,12,0,2955,0:0:0:0:
256,192,2977,12,0,2999,0:0:0:0:
256,192,3021,12,0,3043,0:0:0:0:
256,192,3065,12,0,3087,0:0:0:0:
256,192,3109,12,0,3131,0:0:0:0:
256,192,3153,12,0,3175,0:0:0:0:
256,192,3197,12,0,3219,0:0:0:0:
256,192,3242,12,0,3264,0:0:0:0:
256,192,3286,12,0,3308,0:0:0:0:
256,192,3330,12,0,3352,0:0:0:0:
256,192,3374,12,0,3396,0:0:0:0:
256,192,3418,12,0,3440,0:0:0:0:
256,192,3462,12,0,3484,0:0:0:0:
256,192,3506,12,0,3528,0:0:0:0:
256,192,3550,12,0,3572,0:0:0:0:
256,192,3594,12,0,3617,0:0:0:0:
256,192,3639,12,0,3661,0:0:0:0:
256,192,3683,12,0,3705,0:0:0:0:
256,192,3727,12,0,3749,0:0:0:0:
256,192,3771,12,0,3793,0:0:0:0:
256,192,3793,12,0,3837,0:0:0:0:
256,192,3859,12,0,3881,0:0:0:0:
256,192,3903,12,0,3925,0:0:0:0:
256,192,3947,12,0,3969,0:0:0:0:
256,192,3992,12,0,4014,0:0:0:0:
256,192,4036,12,0,4058,0:0:0:0:
256,192,4080,12,0,4102,0:0:0:0:
256,192,4124,12,0,4146,0:0:0:0:
256,192,4146,12,0,4168,0:0:0:0:
256,192,4190,12,0,4212,0:0:0:0:
256,192,4234,12,0,4256,0:0:0:0:
