osu file format v14

[General]
AudioFilename: Final Fantasy VII - Prelude_2.1.mp3
AudioLeadIn: 0
PreviewTime: 0
Countdown: 0
SampleSet: None
StackLeniency: 0.7
Mode: 3
LetterboxInBreaks: 0
SpecialStyle: 0
WidescreenStoryboard: 0

[Editor]
DistanceSpacing: 0.8
BeatDivisor: 2
GridSize: 32
TimelineZoom: 1

[Metadata]
Title:final fantasy prelude
TitleUnicode:final fantasy prelude
Artist:some asian dude
ArtistUnicode:some asian dude
Creator:rosepetal
Version:ruby x2.1
Source:
Tags:
BeatmapID:1581263
BeatmapSetID:751012

[Difficulty]
HPDrainRate:7
CircleSize:4
OverallDifficulty:7
ApproachRate:5
SliderMultiplier:1.4
SliderTickRate:1

[Events]
//Background and Video events
//Break Periods
//Storyboard Layer 0 (Background)
//Storyboard Layer 1 (Fail)
//Storyboard Layer 2 (Pass)
//Storyboard Layer 3 (Foreground)
//Storyboard Sound Samples

[TimingPoints]
119,178.571428571429,4,1,0,100,1,0

[HitObjects]
64,192,565,5,0,0:0:0:0:
192,192,610,1,0,0:0:0:0:
320,192,654,1,0,0:0:0:0:
448,192,699,1,0,0:0:0:0:
64,192,744,1,0,0:0:0:0:
192,192,788,1,0,0:0:0:0:
448,192,833,1,0,0:0:0:0:
320,192,878,1,0,0:0:0:0:
192,192,922,1,0,0:0:0:0:
64,192,967,1,0,0:0:0:0:
448,192,1011,1,0,0:0:0:0:
320,192,1056,1,0,0:0:0:0:
64,192,1101,1,0,0:0:0:0:
192,192,1145,1,0,0:0:0:0:
320,192,1190,1,0,0:0:0:0:
64,192,1235,1,0,0:0:0:0:
448,192,1280,1,0,0:0:0:0:
320,192,1324,1,0,0:0:0:0:
192,192,1369,1,0,0:0:0:0:
448,192,1413,1,0,0:0:0:0:
64,192,1458,1,0,0:0:0:0:
192,192,1502,1,0,0:0:0:0:
320,192,1547,1,0,0:0:0:0:
448,192,1592,1,0,0:0:0:0:
64,192,1637,1,0,0:0:0:0:
192,192,1681,1,0,0:0:0:0:
320,192,1726,1,0,0:0:0:0:
64,192,1770,1,0,0:0:0:0:
448,192,1815,1,0,0:0:0:0:
320,192,1860,1,0,0:0:0:0:
192,192,1904,1,0,0:0:0:0:
64,192,1949,1,0,0:0:0:0:
448,192,1994,1,0,0:0:0:0:
320,192,2038,1,0,0:0:0:0:
192,192,2083,1,0,0:0:0:0:
448,192,2128,1,0,0:0:0:0:
320,192,2172,1,0,0:0:0:0:
192,192,2217,1,0,0:0:0:0:
64,192,2261,1,0,0:0:0:0:
320,192,2306,1,0,0:0:0:0:
192,192,2351,1,0,0:0:0:0:
64,192,2395,1,0,0:0:0:0:
448,192,2440,1,0,0:0:0:0:
320,192,2485,1,0,0:0:0:0:
64,192,2530,1,0,0:0:0:0:
192,192,2574,1,0,0:0:0:0:
320,192,2619,1,0,0:0:0:0:
448,192,2663,1,0,0:0:0:0:
192,192,2708,1,0,0:0:0:0:
320,192,2752,1,0,0:0:0:0:
448,192,2797,1,0,0:0:0:0:
64,192,2842,1,0,0:0:0:0:
192,192,2887,1,0,0:0:0:0:
448,192,2931,1,0,0:0:0:0:
320,192,2976,1,0,0:0:0:0:
192,192,3020,1,0,0:0:0:0:
64,192,3065,1,0,0:0:0:0:
448,192,3110,1,0,0:0:0:0:
320,192,3154,1,0,0:0:0:0:
64,192,3199,1,0,0:0:0:0:
192,192,3244,1,0,0:0:0:0:
320,192,3288,1,0,0:0:0:0:
448,192,3333,1,0,0:0:0:0:
64,192,3378,1,0,0:0:0:0:
192,192,3422,1,0,0:0:0:0:
448,192,3467,1,0,0:0:0:0:
320,192,3511,1,0,0:0:0:0:
192,192,3556,1,0,0:0:0:0:
64,192,3601,1,0,0:0:0:0:
448,192,3645,1,0,0:0:0:0:
320,192,3690,1,0,0:0:0:0:
64,192,3735,1,0,0:0:0:0:
192,192,3780,1,0,0:0:0:0:
320,192,3824,1,0,0:0:0:0:
448,192,3869,1,0,0:0:0:0:
64,192,3913,1,0,0:0:0:0:
192,192,3958,1,0,0:0:0:0:
448,192,4002,1,0,0:0:0:0:
320,192,4047,1,0,0:0:0:0:
192,192,4092,1,0,0:0:0:0:
448,192,4137,1,0,0:0:0:0:
64,192,4181,1,0,0:0:0:0:
192,192,4226,1,0,0:0:0:0:
320,192,4270,1,0,0:0:0:0:
64,192,4315,1,0,0:0:0:0:
448,192,4360,1,0,0:0:0:0:
320,192,4404,1,0,0:0:0:0:
192,192,4449,1,0,0:0:0:0:
64,192,4494,1,0,0:0:0:0:
448,192,4538,1,0,0:0:0:0:
320,192,4583,1,0,0:0:0:0:
192,192,4628,1,0,0:0:0:0:
448,192,4672,1,0,0:0:0:0:
64,192,4717,1,0,0:0:0:0:
192,192,4761,1,0,0:0:0:0:
320,192,4806,1,0,0:0:0:0:
448,192,4851,1,0,0:0:0:0:
64,192,4895,1,0,0:0:0:0:
192,192,4940,1,0,0:0:0:0:
320,192,4985,1,0,0:0:0:0:
64,192,5030,1,0,0:0:0:0:
192,192,5074,1,0,0:0:0:0:
320,192,5119,1,0,0:0:0:0:
448,192,5163,1,0,0:0:0:0:
192,192,5208,1,0,0:0:0:0:
320,192,5252,1,0,0:0:0:0:
448,192,5297,1,0,0:0:0:0:
64,192,5342,1,0,0:0:0:0:
192,192,5387,1,0,0:0:0:0:
448,192,5431,1,0,0:0:0:0:
320,192,5476,1,0,0:0:0:0:
192,192,5520,1,0,0:0:0:0:
64,192,5565,1,0,0:0:0:0:
320,192,5610,1,0,0:0:0:0:
192,192,5654,1,0,0:0:0:0:
64,192,5699,1,0,0:0:0:0:
448,192,5744,1,0,0:0:0:0:
320,192,5788,1,0,0:0:0:0:
64,192,5833,1,0,0:0:0:0:
192,192,5878,1,0,0:0:0:0:
320,192,5922,1,0,0:0:0:0:
448,192,5967,1,0,0:0:0:0:
64,192,6011,1,0,0:0:0:0:
192,192,6056,1,0,0:0:0:0:
448,192,6101,1,0,0:0:0:0:
320,192,6145,1,0,0:0:0:0:
192,192,6190,1,0,0:0:0:0:
64,192,6235,1,0,0:0:0:0:
448,192,6280,1,0,0:0:0:0:
320,192,6324,1,0,0:0:0:0:
64,192,6369,1,0,0:0:0:0:
192,192,6413,1,0,0:0:0:0:
320,192,6458,1,0,0:0:0:0:
448,192,6502,1,0,0:0:0:0:
64,192,6547,1,0,0:0:0:0:
192,192,6592,1,0,0:0:0:0:
448,192,6637,1,0,0:0:0:0:
320,192,6681,1,0,0:0:0:0:
192,192,6726,1,0,0:0:0:0:
64,192,6770,1,0,0:0:0:0:
448,192,6815,1,0,0:0:0:0:
320,192,6860,1,0,0:0:0:0:
64,192,6904,1,0,0:0:0:0:
192,192,6949,1,0,0:0:0:0:
320,192,6994,1,0,0:0:0:0:
64,192,7038,1,0,0:0:0:0:
448,192,7083,1,0,0:0:0:0:
320,192,7128,1,0,0:0:0:0:
192,192,7172,1,0,0:0:0:0:
448,192,7217,1,0,0:0:0:0:
64,192,7261,1,0,0:0:0:0:
192,192,7306,1,0,0:0:0:0:
320,192,7351,1,0,0:0:0:0:
448,192,7395,1,0,0:0:0:0:
64,192,7440,1,0,0:0:0:0:
192,192,7485,1,0,0:0:0:0:
320,192,7530,1,0,0:0:0:0:
64,192,7574,1,0,0:0:0:0:
448,192,7619,1,0,0:0:0:0:
320,192,7663,1,0,0:0:0:0:
192,192,7708,1,0,0:0:0:0:
64,192,7752,1,0,0:0:0:0:
448,192,7797,1,0,0:0:0:0:
320,192,7842,1,0,0:0:0:0:
192,192,7887,1,0,0:0:0:0:
448,192,7931,1,0,0:0:0:0:
320,192,7976,1,0,0:0:0:0:
192,192,8020,1,0,0:0:0:0:
64,192,8065,1,0,0:0:0:0:
320,192,8110,1,0,0:0:0:0:
192,192,8154,1,0,0:0:0:0:
64,192,8199,1,0,0:0:0:0:
448,192,8244,1,0,0:0:0:0:
320,192,8288,1,0,0:0:0:0:
64,192,8333,1,0,0:0:0:0:
192,192,8378,1,0,0:0:0:0:
320,192,8422,1,0,0:0:0:0:
448,192,8467,1,0,0:0:0:0:
192,192,8511,1,0,0:0:0:0:
320,192,8556,1,0,0:0:0:0:
448,192,8601,1,0,0:0:0:0:
64,192,8645,1,0,0:0:0:0:
192,192,8690,1,0,0:0:0:0:
448,192,8735,1,0,0:0:0:0:
320,192,8780,1,0,0:0:0:0:
192,192,8824,1,0,0:0:0:0:
64,192,8869,1,0,0:0:0:0:
448,192,8913,1,0,0:0:0:0:
320,192,8958,1,0,0:0:0:0:
64,192,9002,1,0,0:0:0:0:
192,192,9047,1,0,0:0:0:0:
320,192,9092,1,0,0:0:0:0:
448,192,9137,1,0,0:0:0:0:
64,192,9181,1,0,0:0:0:0:
192,192,9226,1,0,0:0:0:0:
448,192,9270,1,0,0:0:0:0:
320,192,9315,1,0,0:0:0:0:
192,192,9360,1,0,0:0:0:0:
64,192,9404,1,0,0:0:0:0:
448,192,9449,1,0,0:0:0:0:
320,192,9494,1,0,0:0:0:0:
64,192,9538,1,0,0:0:0:0:
192,192,9583,1,0,0:0:0:0:
320,192,9628,1,0,0:0:0:0:
448,192,9672,1,0,0:0:0:0:
64,192,9717,1,0,0:0:0:0:
192,192,9761,1,0,0:0:0:0:
448,192,9806,1,0,0:0:0:0:
320,192,9851,1,0,0:0:0:0:
192,192,9895,1,0,0:0:0:0:
448,192,9940,1,0,0:0:0:0:
64,192,9985,1,0,0:0:0:0:
192,192,10030,1,0,0:0:0:0:
320,192,10074,1,0,0:0:0:0:
64,192,10119,1,0,0:0:0:0:
448,192,10163,1,0,0:0:0:0:
320,192,10208,1,0,0:0:0:0:
192,192,10252,1,0,0:0:0:0:
64,192,10297,1,0,0:0:0:0:
448,192,10342,1,0,0:0:0:0:
320,192,10387,1,0,0:0:0:0:
192,192,10431,1,0,0:0:0:0:
448,192,10476,1,0,0:0:0:0:
64,192,10520,1,0,0:0:0:0:
192,192,10565,1,0,0:0:0:0:
320,192,10610,1,0,0:0:0:0:
448,192,10654,1,0,0:0:0:0:
64,192,10699,1,0,0:0:0:0:
192,192,10744,1,0,0:0:0:0:
320,192,10788,1,0,0:0:0:0:
64,192,10833,1,0,0:0:0:0:
192,192,10878,1,0,0:0:0:0:
320,192,10922,1,0,0:0:0:0:
448,192,10967,1,0,0:0:0:0:
192,192,11011,1,0,0:0:0:0:
320,192,11056,1,0,0:0:0:0:
448,192,11101,1,0,0:0:0:0:
64,192,11145,1,0,0:0:0:0:
192,192,11190,1,0,0:0:0:0:
448,192,11235,1,0,0:0:0:0:
320,192,11280,1,0,0:0:0:0:
192,192,11324,1,0,0:0:0:0:
64,192,11369,1,0,0:0:0:0:
320,192,11413,1,0,0:0:0:0:
192,192,11458,1,0,0:0:0:0:
64,192,11502,1,0,0:0:0:0:
448,192,11547,1,0,0:0:0:0:
320,192,11592,1,0,0:0:0:0:
64,192,11637,1,0,0:0:0:0:
192,192,11681,1,0,0:0:0:0:
320,192,11726,1,0,0:0:0:0:
448,192,11770,1,0,0:0:0:0:
64,192,11815,1,0,0:0:0:0:
192,192,11860,1,0,0:0:0:0:
448,192,11904,1,0,0:0:0:0:
320,192,11949,1,0,0:0:0:0:
192,192,11994,1,0,0:0:0:0:
64,192,12038,1,0,0:0:0:0:
448,192,12083,1,0,0:0:0:0:
320,192,12128,1,0,0:0:0:0:
64,192,12172,1,0,0:0:0:0:
192,192,12217,1,0,0:0:0:0:
320,192,12261,1,0,0:0:0:0:
448,192,12306,1,0,0:0:0:0:
64,192,12351,1,0,0:0:0:0:
192,192,12395,1,0,0:0:0:0:
448,192,12440,1,0,0:0:0:0:
320,192,12485,1,0,0:0:0:0:
192,192,12530,1,0,0:0:0:0:
64,192,12574,1,0,0:0:0:0:
448,192,12619,1,0,0:0:0:0:
320,192,12663,1,0,0:0:0:0:
64,192,12708,1,0,0:0:0:0:
192,192,12752,1,0,0:0:0:0:
320,192,12797,1,0,0:0:0:0:
64,192,12842,1,0,0:0:0:0:
448,192,12887,1,0,0:0:0:0:
320,192,12931,1,0,0:0:0:0:
192,192,12976,1,0,0:0:0:0:
448,192,13020,1,0,0:0:0:0:
64,192,13065,1,0,0:0:0:0:
192,192,13110,1,0,0:0:0:0:
320,192,13154,1,0,0:0:0:0:
448,192,13199,1,0,0:0:0:0:
64,192,13244,1,0,0:0:0:0:
192,192,13288,1,0,0:0:0:0:
320,192,13333,1,0,0:0:0:0:
64,192,13378,1,0,0:0:0:0:
448,192,13422,1,0,0:0:0:0:
320,192,13467,1,0,0:0:0:0:
192,192,13511,1,0,0:0:0:0:
64,192,13556,1,0,0:0:0:0:
448,192,13601,1,0,0:0:0:0:
320,192,13645,1,0,0:0:0:0:
192,192,13690,1,0,0:0:0:0:
448,192,13735,1,0,0:0:0:0:
320,192,13780,1,0,0:0:0:0:
192,192,13824,1,0,0:0:0:0:
64,192,13869,1,0,0:0:0:0:
320,192,13913,1,0,0:0:0:0:
192,192,13958,1,0,0:0:0:0:
64,192,14002,1,0,0:0:0:0:
448,192,14047,1,0,0:0:0:0:
320,192,14092,1,0,0:0:0:0:
64,192,14137,1,0,0:0:0:0:
192,192,14181,1,0,0:0:0:0:
320,192,14226,1,0,0:0:0:0:
448,192,14270,1,0,0:0:0:0:
192,192,14315,1,0,0:0:0:0:
320,192,14360,1,0,0:0:0:0:
448,192,14404,1,0,0:0:0:0:
64,192,14449,1,0,0:0:0:0:
192,192,14494,1,0,0:0:0:0:
448,192,14538,1,0,0:0:0:0:
320,192,14583,1,0,0:0:0:0:
192,192,14628,1,0,0:0:0:0:
64,192,14672,1,0,0:0:0:0:
448,192,14717,1,0,0:0:0:0:
320,192,14761,1,0,0:0:0:0:
64,192,14806,1,0,0:0:0:0:
192,192,14851,1,0,0:0:0:0:
320,192,14895,1,0,0:0:0:0:
448,192,14940,1,0,0:0:0:0:
64,192,14985,1,0,0:0:0:0:
192,192,15030,1,0,0:0:0:0:
448,192,15074,1,0,0:0:0:0:
320,192,15119,1,0,0:0:0:0:
192,192,15163,1,0,0:0:0:0:
64,192,15208,1,0,0:0:0:0:
448,192,15252,1,0,0:0:0:0:
320,192,15297,1,0,0:0:0:0:
64,192,15342,1,0,0:0:0:0:
192,192,15387,1,0,0:0:0:0:
320,192,15431,1,0,0:0:0:0:
448,192,15476,1,0,0:0:0:0:
64,192,15520,1,0,0:0:0:0:
192,192,15565,1,0,0:0:0:0:
448,192,15610,1,0,0:0:0:0:
320,192,15654,1,0,0:0:0:0:
192,192,15699,1,0,0:0:0:0:
448,192,15744,1,0,0:0:0:0:
64,192,15788,1,0,0:0:0:0:
192,192,15833,1,0,0:0:0:0:
320,192,15878,1,0,0:0:0:0:
64,192,15922,1,0,0:0:0:0:
448,192,15967,1,0,0:0:0:0:
320,192,16011,1,0,0:0:0:0:
192,192,16056,1,0,0:0:0:0:
64,192,16101,1,0,0:0:0:0:
448,192,16145,1,0,0:0:0:0:
320,192,16190,1,0,0:0:0:0:
192,192,16235,1,0,0:0:0:0:
448,192,16280,1,0,0:0:0:0:
64,192,16324,1,0,0:0:0:0:
192,192,16369,1,0,0:0:0:0:
320,192,16413,1,0,0:0:0:0:
448,192,16458,1,0,0:0:0:0:
64,192,16502,1,0,0:0:0:0:
192,192,16547,1,0,0:0:0:0:
320,192,16592,1,0,0:0:0:0:
64,192,16637,1,0,0:0:0:0:
192,192,16681,1,0,0:0:0:0:
320,192,16726,1,0,0:0:0:0:
448,192,16770,1,0,0:0:0:0:
192,192,16815,1,0,0:0:0:0:
320,192,16860,1,0,0:0:0:0:
448,192,16904,1,0,0:0:0:0:
64,192,16949,1,0,0:0:0:0:
192,192,16994,1,0,0:0:0:0:
448,192,17038,1,0,0:0:0:0:
320,192,17083,1,0,0:0:0:0:
192,192,17128,1,0,0:0:0:0:
64,192,17172,1,0,0:0:0:0:
320,192,17217,1,0,0:0:0:0:
192,192,17261,1,0,0:0:0:0:
64,192,17306,1,0,0:0:0:0:
448,192,17351,1,0,0:0:0:0:
320,192,17395,1,0,0:0:0:0:
64,192,17440,1,0,0:0:0:0:
192,192,17485,1,0,0:0:0:0:
320,192,17530,1,0,0:0:0:0:
448,192,17574,1,0,0:0:0:0:
64,192,17619,1,0,0:0:0:0:
192,192,17663,1,0,0:0:0:0:
448,192,17708,1,0,0:0:0:0:
320,192,17752,1,0,0:0:0:0:
192,192,17797,1,0,0:0:0:0:
64,192,17842,1,0,0:0:0:0:
448,192,17887,1,0,0:0:0:0:
320,192,17931,1,0,0:0:0:0:
64,192,17976,1,0,0:0:0:0:
192,192,18020,1,0,0:0:0:0:
320,192,18065,1,0,0:0:0:0:
448,192,18110,1,0,0:0:0:0:
64,192,18154,1,0,0:0:0:0:
192,192,18199,1,0,0:0:0:0:
448,192,18244,1,0,0:0:0:0:
320,192,18288,1,0,0:0:0:0:
192,192,18333,1,0,0:0:0:0:
64,192,18378,1,0,0:0:0:0:
448,192,18422,1,0,0:0:0:0:
320,192,18467,1,0,0:0:0:0:
64,192,18511,1,0,0:0:0:0:
192,192,18556,1,0,0:0:0:0:
320,192,18601,1,0,0:0:0:0:
64,192,18645,1,0,0:0:0:0:
448,192,18690,1,0,0:0:0:0:
320,192,18735,1,0,0:0:0:0:
192,192,18780,1,0,0:0:0:0:
448,192,18824,1,0,0:0:0:0:
64,192,18869,1,0,0:0:0:0:
192,192,18913,1,0,0:0:0:0:
320,192,18958,1,0,0:0:0:0:
448,192,19002,1,0,0:0:0:0:
64,192,19047,1,0,0:0:0:0:
192,192,19092,1,0,0:0:0:0:
320,192,19137,1,0,0:0:0:0:
64,192,19181,1,0,0:0:0:0:
448,192,19226,1,0,0:0:0:0:
320,192,19270,1,0,0:0:0:0:
192,192,19315,1,0,0:0:0:0:
64,192,19360,1,0,0:0:0:0:
448,192,19404,1,0,0:0:0:0:
320,192,19449,1,0,0:0:0:0:
192,192,19494,1,0,0:0:0:0:
448,192,19538,1,0,0:0:0:0:
320,192,19583,1,0,0:0:0:0:
192,192,19628,1,0,0:0:0:0:
64,192,19672,1,0,0:0:0:0:
320,192,19717,1,0,0:0:0:0:
192,192,19761,1,0,0:0:0:0:
64,192,19806,1,0,0:0:0:0:
448,192,19851,1,0,0:0:0:0:
320,192,19895,1,0,0:0:0:0:
64,192,19940,1,0,0:0:0:0:
192,192,19985,1,0,0:0:0:0:
320,192,20030,1,0,0:0:0:0:
448,192,20074,1,0,0:0:0:0:
192,192,20119,1,0,0:0:0:0:
320,192,20163,1,0,0:0:0:0:
448,192,20208,1,0,0:0:0:0:
64,192,20252,1,0,0:0:0:0:
192,192,20297,1,0,0:0:0:0:
448,192,20342,1,0,0:0:0:0:
320,192,20387,1,0,0:0:0:0:
192,192,20431,1,0,0:0:0:0:
64,192,20476,1,0,0:0:0:0:
448,192,20520,1,0,0:0:0:0:
320,192,20565,1,0,0:0:0:0:
64,192,20610,1,0,0:0:0:0:
192,192,20654,1,0,0:0:0:0:
320,192,20699,1,0,0:0:0:0:
448,192,20744,1,0,0:0:0:0:
64,192,20788,1,0,0:0:0:0:
192,192,20833,1,0,0:0:0:0:
448,192,20878,1,0,0:0:0:0:
320,192,20922,1,0,0:0:0:0:
192,192,20967,1,0,0:0:0:0:
64,192,21011,1,0,0:0:0:0:
448,192,21056,1,0,0:0:0:0:
320,192,21101,1,0,0:0:0:0:
64,192,21145,1,0,0:0:0:0:
192,192,21190,1,0,0:0:0:0:
320,192,21235,1,0,0:0:0:0:
448,192,21280,1,0,0:0:0:0:
64,192,21324,1,0,0:0:0:0:
192,192,21369,1,0,0:0:0:0:
448,192,21413,1,0,0:0:0:0:
320,192,21458,1,0,0:0:0:0:
192,192,21502,1,0,0:0:0:0:
448,192,21547,1,0,0:0:0:0:
64,192,21592,1,0,0:0:0:0:
192,192,21637,1,0,0:0:0:0:
320,192,21681,1,0,0:0:0:0:
64,192,21726,1,0,0:0:0:0:
448,192,21770,1,0,0:0:0:0:
320,192,21815,1,0,0:0:0:0:
192,192,21860,1,0,0:0:0:0:
64,192,21904,1,0,0:0:0:0:
448,192,21949,1,0,0:0:0:0:
320,192,21994,1,0,0:0:0:0:
192,192,22038,1,0,0:0:0:0:
448,192,22083,1,0,0:0:0:0:
64,192,22128,1,0,0:0:0:0:
192,192,22172,1,0,0:0:0:0:
320,192,22217,1,0,0:0:0:0:
448,192,22261,1,0,0:0:0:0:
64,192,22306,1,0,0:0:0:0:
192,192,22351,1,0,0:0:0:0:
320,192,22395,1,0,0:0:0:0:
64,192,22440,1,0,0:0:0:0:
192,192,22485,1,0,0:0:0:0:
320,192,22530,1,0,0:0:0:0:
448,192,22574,1,0,0:0:0:0:
192,192,22619,1,0,0:0:0:0:
320,192,22663,1,0,0:0:0:0:
448,192,22708,1,0,0:0:0:0:
64,192,22752,1,0,0:0:0:0:
192,192,22797,1,0,0:0:0:0:
448,192,22842,1,0,0:0:0:0:
320,192,22887,1,0,0:0:0:0:
192,192,22931,1,0,0:0:0:0:
64,192,22976,1,0,0:0:0:0:
320,192,23020,1,0,0:0:0:0:
192,192,23065,1,0,0:0:0:0:
64,192,23110,1,0,0:0:0:0:
448,192,23154,1,0,0:0:0:0:
320,192,23199,1,0,0:0:0:0:
64,192,23244,1,0,0:0:0:0:
192,192,23288,1,0,0:0:0:0:
320,192,23333,1,0,0:0:0:0:
448,192,23378,1,0,0:0:0:0:
64,192,23422,1,0,0:0:0:0:
192,192,23467,1,0,0:0:0:0:
448,192,23511,1,0,0:0:0:0:
320,192,23556,1,0,0:0:0:0:
192,192,23601,1,0,0:0:0:0:
64,192,23645,1,0,0:0:0:0:
448,192,23690,1,0,0:0:0:0:
320,192,23735,1,0,0:0:0:0:
192,192,23780,1,0,0:0:0:0:
64,192,23824,1,0,0:0:0:0:
448,192,23869,1,0,0:0:0:0:
320,192,23913,1,0,0:0:0:0:
192,192,23958,1,0,0:0:0:0:
64,192,24002,1,0,0:0:0:0:
448,192,24047,1,0,0:0:0:0:
320,192,24092,1,0,0:0:0:0:
192,192,24137,1,0,0:0:0:0:
64,192,24181,1,0,0:0:0:0:
448,192,24226,1,0,0:0:0:0:
320,192,24270,1,0,0:0:0:0:
192,192,24315,1,0,0:0:0:0:
64,192,24360,1,0,0:0:0:0:
448,192,24404,1,0,0:0:0:0:
320,192,24449,1,0,0:0:0:0:
192,192,24494,1,0,0:0:0:0:
64,192,24538,1,0,0:0:0:0:
448,192,24583,1,0,0:0:0:0:
320,192,24628,1,0,0:0:0:0:
192,192,24672,1,0,0:0:0:0:
64,192,24717,1,0,0:0:0:0:
448,192,24761,1,0,0:0:0:0:
320,192,24806,1,0,0:0:0:0:
192,192,24851,1,0,0:0:0:0:
64,192,24895,1,0,0:0:0:0:
448,192,24940,1,0,0:0:0:0:
192,192,24985,1,0,0:0:0:0:
320,192,25030,1,0,0:0:0:0:
448,192,25074,1,0,0:0:0:0:
64,192,25119,1,0,0:0:0:0:
192,192,25163,1,0,0:0:0:0:
320,192,25208,1,0,0:0:0:0:
448,192,25252,1,0,0:0:0:0:
64,192,25297,1,0,0:0:0:0:
192,192,25342,1,0,0:0:0:0:
320,192,25387,1,0,0:0:0:0:
448,192,25431,1,0,0:0:0:0:
64,192,25476,1,0,0:0:0:0:
192,192,25520,1,0,0:0:0:0:
320,192,25565,1,0,0:0:0:0:
448,192,25610,1,0,0:0:0:0:
64,192,25654,1,0,0:0:0:0:
192,192,25699,1,0,0:0:0:0:
448,192,25744,1,0,0:0:0:0:
320,192,25788,1,0,0:0:0:0:
192,192,25833,1,0,0:0:0:0:
448,192,25878,1,0,0:0:0:0:
320,192,25922,1,0,0:0:0:0:
64,192,25967,1,0,0:0:0:0:
192,192,26011,1,0,0:0:0:0:
320,192,26056,1,0,0:0:0:0:
64,192,26101,1,0,0:0:0:0:
192,192,26145,1,0,0:0:0:0:
448,192,26190,1,0,0:0:0:0:
320,192,26235,1,0,0:0:0:0:
192,192,26280,1,0,0:0:0:0:
448,192,26324,1,0,0:0:0:0:
320,192,26369,1,0,0:0:0:0:
64,192,26413,1,0,0:0:0:0:
192,192,26458,1,0,0:0:0:0:
320,192,26502,1,0,0:0:0:0:
448,192,26547,1,0,0:0:0:0:
64,192,26592,1,0,0:0:0:0:
192,192,26637,1,0,0:0:0:0:
448,192,26681,1,0,0:0:0:0:
320,192,26726,1,0,0:0:0:0:
192,192,26770,1,0,0:0:0:0:
64,192,26815,1,0,0:0:0:0:
448,192,26860,1,0,0:0:0:0:
320,192,26904,1,0,0:0:0:0:
64,192,26949,1,0,0:0:0:0:
192,192,26994,1,0,0:0:0:0:
320,192,27038,1,0,0:0:0:0:
64,192,27083,1,0,0:0:0:0:
448,192,27128,1,0,0:0:0:0:
320,192,27172,1,0,0:0:0:0:
192,192,27217,1,0,0:0:0:0:
448,192,27261,1,0,0:0:0:0:
64,192,27306,1,0,0:0:0:0:
192,192,27351,1,0,0:0:0:0:
320,192,27395,1,0,0:0:0:0:
448,192,27440,1,0,0:0:0:0:
64,192,27485,1,0,0:0:0:0:
192,192,27530,1,0,0:0:0:0:
320,192,27574,1,0,0:0:0:0:
64,192,27619,1,0,0:0:0:0:
448,192,27663,1,0,0:0:0:0:
320,192,27708,1,0,0:0:0:0:
192,192,27752,1,0,0:0:0:0:
64,192,27797,1,0,0:0:0:0:
448,192,27842,1,0,0:0:0:0:
320,192,27887,1,0,0:0:0:0:
192,192,27931,1,0,0:0:0:0:
448,192,27976,1,0,0:0:0:0:
320,192,28020,1,0,0:0:0:0:
192,192,28065,1,0,0:0:0:0:
64,192,28110,1,0,0:0:0:0:
320,192,28154,1,0,0:0:0:0:
192,192,28199,1,0,0:0:0:0:
64,192,28244,1,0,0:0:0:0:
448,192,28288,1,0,0:0:0:0:
320,192,28333,1,0,0:0:0:0:
64,192,28378,1,0,0:0:0:0:
192,192,28422,1,0,0:0:0:0:
320,192,28467,1,0,0:0:0:0:
448,192,28511,1,0,0:0:0:0:
192,192,28556,1,0,0:0:0:0:
320,192,28601,1,0,0:0:0:0:
448,192,28645,1,0,0:0:0:0:
64,192,28690,1,0,0:0:0:0:
192,192,28735,1,0,0:0:0:0:
448,192,28780,1,0,0:0:0:0:
320,192,28824,1,0,0:0:0:0:
192,192,28869,1,0,0:0:0:0:
64,192,28913,1,0,0:0:0:0:
448,192,28958,1,0,0:0:0:0:
320,192,29002,1,0,0:0:0:0:
64,192,29047,1,0,0:0:0:0:
192,192,29092,1,0,0:0:0:0:
320,192,29137,1,0,0:0:0:0:
448,192,29181,1,0,0:0:0:0:
64,192,29226,1,0,0:0:0:0:
192,192,29270,1,0,0:0:0:0:
448,192,29315,1,0,0:0:0:0:
320,192,29360,1,0,0:0:0:0:
192,192,29404,1,0,0:0:0:0:
64,192,29449,1,0,0:0:0:0:
448,192,29494,1,0,0:0:0:0:
320,192,29538,1,0,0:0:0:0:
64,192,29583,1,0,0:0:0:0:
192,192,29628,1,0,0:0:0:0:
320,192,29672,1,0,0:0:0:0:
448,192,29717,1,0,0:0:0:0:
64,192,29761,1,0,0:0:0:0:
192,192,29806,1,0,0:0:0:0:
448,192,29851,1,0,0:0:0:0:
320,192,29895,1,0,0:0:0:0:
192,192,29940,1,0,0:0:0:0:
448,192,29985,1,0,0:0:0:0:
64,192,30030,1,0,0:0:0:0:
192,192,30074,1,0,0:0:0:0:
320,192,30119,1,0,0:0:0:0:
64,192,30163,1,0,0:0:0:0:
448,192,30208,1,0,0:0:0:0:
320,192,30252,1,0,0:0:0:0:
192,192,30297,1,0,0:0:0:0:
64,192,30342,1,0,0:0:0:0:
448,192,30387,1,0,0:0:0:0:
320,192,30431,1,0,0:0:0:0:
192,192,30476,1,0,0:0:0:0:
448,192,30520,1,0,0:0:0:0:
64,192,30565,1,0,0:0:0:0:
192,192,30610,1,0,0:0:0:0:
320,192,30654,1,0,0:0:0:0:
448,192,30699,1,0,0:0:0:0:
64,192,30744,1,0,0:0:0:0:
192,192,30788,1,0,0:0:0:0:
320,192,30833,1,0,0:0:0:0:
64,192,30878,1,0,0:0:0:0:
192,192,30922,1,0,0:0:0:0:
320,192,30967,1,0,0:0:0:0:
448,192,31011,1,0,0:0:0:0:
192,192,31056,1,0,0:0:0:0:
320,192,31101,1,0,0:0:0:0:
448,192,31145,1,0,0:0:0:0:
64,192,31190,1,0,0:0:0:0:
192,192,31235,1,0,0:0:0:0:
448,192,31280,1,0,0:0:0:0:
320,192,31324,1,0,0:0:0:0:
192,192,31369,1,0,0:0:0:0:
64,192,31413,1,0,0:0:0:0:
320,192,31458,1,0,0:0:0:0:
192,192,31502,1,0,0:0:0:0:
64,192,31547,1,0,0:0:0:0:
448,192,31592,1,0,0:0:0:0:
320,192,31637,1,0,0:0:0:0:
64,192,31681,1,0,0:0:0:0:
192,192,31726,1,0,0:0:0:0:
320,192,31770,1,0,0:0:0:0:
448,192,31815,1,0,0:0:0:0:
64,192,31860,1,0,0:0:0:0:
192,192,31904,1,0,0:0:0:0:
448,192,31949,1,0,0:0:0:0:
320,192,31994,1,0,0:0:0:0:
192,192,32038,1,0,0:0:0:0:
64,192,32083,1,0,0:0:0:0:
448,192,32128,1,0,0:0:0:0:
320,192,32172,1,0,0:0:0:0:
64,192,32217,1,0,0:0:0:0:
192,192,32261,1,0,0:0:0:0:
320,192,32306,1,0,0:0:0:0:
448,192,32351,1,0,0:0:0:0:
64,192,32395,1,0,0:0:0:0:
192,192,32440,1,0,0:0:0:0:
448,192,32485,1,0,0:0:0:0:
320,192,32530,1,0,0:0:0:0:
192,192,32574,1,0,0:0:0:0:
64,192,32619,1,0,0:0:0:0:
448,192,32663,1,0,0:0:0:0:
320,192,32708,1,0,0:0:0:0:
64,192,32752,1,0,0:0:0:0:
192,192,32797,1,0,0:0:0:0:
320,192,32842,1,0,0:0:0:0:
64,192,32887,1,0,0:0:0:0:
448,192,32931,1,0,0:0:0:0:
320,192,32976,1,0,0:0:0:0:
192,192,33020,1,0,0:0:0:0:
448,192,33065,1,0,0:0:0:0:
64,192,33110,1,0,0:0:0:0:
192,192,33154,1,0,0:0:0:0:
320,192,33199,1,0,0:0:0:0:
448,192,33244,1,0,0:0:0:0:
64,192,33288,1,0,0:0:0:0:
192,192,33333,1,0,0:0:0:0:
320,192,33378,1,0,0:0:0:0:
64,192,33422,1,0,0:0:0:0:
448,192,33467,1,0,0:0:0:0:
320,192,33511,1,0,0:0:0:0:
192,192,33556,1,0,0:0:0:0:
64,192,33601,1,0,0:0:0:0:
448,192,33645,1,0,0:0:0:0:
320,192,33690,1,0,0:0:0:0:
192,192,33735,1,0,0:0:0:0:
448,192,33780,1,0,0:0:0:0:
320,192,33824,1,0,0:0:0:0:
192,192,33869,1,0,0:0:0:0:
64,192,33913,1,0,0:0:0:0:
320,192,33958,1,0,0:0:0:0:
192,192,34002,1,0,0:0:0:0:
64,192,34047,1,0,0:0:0:0:
448,192,34092,1,0,0:0:0:0:
320,192,34137,1,0,0:0:0:0:
64,192,34181,1,0,0:0:0:0:
192,192,34226,1,0,0:0:0:0:
320,192,34270,1,0,0:0:0:0:
448,192,34315,1,0,0:0:0:0:
192,192,34360,1,0,0:0:0:0:
320,192,34404,1,0,0:0:0:0:
448,192,34449,1,0,0:0:0:0:
64,192,34494,1,0,0:0:0:0:
192,192,34538,1,0,0:0:0:0:
448,192,34583,1,0,0:0:0:0:
320,192,34628,1,0,0:0:0:0:
192,192,34672,1,0,0:0:0:0:
64,192,34717,1,0,0:0:0:0:
448,192,34761,1,0,0:0:0:0:
320,192,34806,1,0,0:0:0:0:
64,192,34851,1,0,0:0:0:0:
192,192,34895,1,0,0:0:0:0:
320,192,34940,1,0,0:0:0:0:
448,192,34985,1,0,0:0:0:0:
64,192,35030,1,0,0:0:0:0:
192,192,35074,1,0,0:0:0:0:
448,192,35119,1,0,0:0:0:0:
320,192,35163,1,0,0:0:0:0:
192,192,35208,1,0,0:0:0:0:
64,192,35252,1,0,0:0:0:0:
448,192,35297,1,0,0:0:0:0:
320,192,35342,1,0,0:0:0:0:
64,192,35387,1,0,0:0:0:0:
192,192,35431,1,0,0:0:0:0:
320,192,35476,1,0,0:0:0:0:
448,192,35520,1,0,0:0:0:0:
64,192,35565,1,0,0:0:0:0:
192,192,35610,1,0,0:0:0:0:
448,192,35654,1,0,0:0:0:0:
320,192,35699,1,0,0:0:0:0:
192,192,35744,1,0,0:0:0:0:
448,192,35788,1,0,0:0:0:0:
64,192,35833,1,0,0:0:0:0:
192,192,35878,1,0,0:0:0:0:
320,192,35922,1,0,0:0:0:0:
64,192,35967,1,0,0:0:0:0:
448,192,36011,1,0,0:0:0:0:
320,192,36056,1,0,0:0:0:0:
192,192,36101,1,0,0:0:0:0:
64,192,36145,1,0,0:0:0:0:
448,192,36190,1,0,0:0:0:0:
320,192,36235,1,0,0:0:0:0:
192,192,36280,1,0,0:0:0:0:
448,192,36324,1,0,0:0:0:0:
64,192,36369,1,0,0:0:0:0:
192,192,36413,1,0,0:0:0:0:
320,192,36458,1,0,0:0:0:0:
448,192,36502,1,0,0:0:0:0:
64,192,36547,1,0,0:0:0:0:
192,192,36592,1,0,0:0:0:0:
320,192,36637,1,0,0:0:0:0:
64,192,36681,1,0,0:0:0:0:
192,192,36726,1,0,0:0:0:0:
320,192,36770,1,0,0:0:0:0:
448,192,36815,1,0,0:0:0:0:
192,192,36860,1,0,0:0:0:0:
320,192,36904,1,0,0:0:0:0:
448,192,36949,1,0,0:0:0:0:
64,192,36994,1,0,0:0:0:0:
192,192,37038,1,0,0:0:0:0:
448,192,37083,1,0,0:0:0:0:
320,192,37128,1,0,0:0:0:0:
192,192,37172,1,0,0:0:0:0:
64,192,37217,1,0,0:0:0:0:
320,192,37261,1,0,0:0:0:0:
192,192,37306,1,0,0:0:0:0:
64,192,37351,1,0,0:0:0:0:
448,192,37395,1,0,0:0:0:0:
320,192,37440,1,0,0:0:0:0:
64,192,37485,1,0,0:0:0:0:
192,192,37530,1,0,0:0:0:0:
320,192,37574,1,0,0:0:0:0:
448,192,37619,1,0,0:0:0:0:
64,192,37663,1,0,0:0:0:0:
192,192,37708,1,0,0:0:0:0:
448,192,37752,1,0,0:0:0:0:
320,192,37797,1,0,0:0:0:0:
192,192,37842,1,0,0:0:0:0:
64,192,37887,1,0,0:0:0:0:
448,192,37931,1,0,0:0:0:0:
320,192,37976,1,0,0:0:0:0:
64,192,38020,1,0,0:0:0:0:
192,192,38065,1,0,0:0:0:0:
320,192,38110,1,0,0:0:0:0:
448,192,38154,1,0,0:0:0:0:
64,192,38199,1,0,0:0:0:0:
192,192,38244,1,0,0:0:0:0:
448,192,38288,1,0,0:0:0:0:
320,192,38333,1,0,0:0:0:0:
192,192,38378,1,0,0:0:0:0:
64,192,38422,1,0,0:0:0:0:
448,192,38467,1,0,0:0:0:0:
320,192,38511,1,0,0:0:0:0:
64,192,38556,1,0,0:0:0:0:
192,192,38601,1,0,0:0:0:0:
320,192,38645,1,0,0:0:0:0:
64,192,38690,1,0,0:0:0:0:
448,192,38735,1,0,0:0:0:0:
320,192,38780,1,0,0:0:0:0:
192,192,38824,1,0,0:0:0:0:
448,192,38869,1,0,0:0:0:0:
64,192,38913,1,0,0:0:0:0:
192,192,38958,1,0,0:0:0:0:
320,192,39002,1,0,0:0:0:0:
448,192,39047,1,0,0:0:0:0:
64,192,39092,1,0,0:0:0:0:
192,192,39137,1,0,0:0:0:0:
320,192,39181,1,0,0:0:0:0:
64,192,39226,1,0,0:0:0:0:
448,192,39270,1,0,0:0:0:0:
320,192,39315,1,0,0:0:0:0:
192,192,39360,1,0,0:0:0:0:
64,192,39404,1,0,0:0:0:0:
448,192,39449,1,0,0:0:0:0:
320,192,39494,1,0,0:0:0:0:
192,192,39538,1,0,0:0:0:0:
448,192,39583,1,0,0:0:0:0:
320,192,39628,1,0,0:0:0:0:
192,192,39672,1,0,0:0:0:0:
64,192,39717,1,0,0:0:0:0:
320,192,39761,1,0,0:0:0:0:
192,192,39806,1,0,0:0:0:0:
64,192,39851,1,0,0:0:0:0:
448,192,39895,1,0,0:0:0:0:
320,192,39940,1,0,0:0:0:0:
64,192,39985,1,0,0:0:0:0:
192,192,40030,1,0,0:0:0:0:
320,192,40074,1,0,0:0:0:0:
448,192,40119,1,0,0:0:0:0:
192,192,40163,1,0,0:0:0:0:
320,192,40208,1,0,0:0:0:0:
448,192,40252,1,0,0:0:0:0:
64,192,40297,1,0,0:0:0:0:
192,192,40342,1,0,0:0:0:0:
448,192,40387,1,0,0:0:0:0:
320,192,40431,1,0,0:0:0:0:
192,192,40476,1,0,0:0:0:0:
64,192,40520,1,0,0:0:0:0:
448,192,40565,1,0,0:0:0:0:
320,192,40610,1,0,0:0:0:0:
64,192,40654,1,0,0:0:0:0:
192,192,40699,1,0,0:0:0:0:
320,192,40744,1,0,0:0:0:0:
448,192,40788,1,0,0:0:0:0:
64,192,40833,1,0,0:0:0:0:
192,192,40878,1,0,0:0:0:0:
448,192,40922,1,0,0:0:0:0:
320,192,40967,1,0,0:0:0:0:
192,192,41011,1,0,0:0:0:0:
64,192,41056,1,0,0:0:0:0:
448,192,41101,1,0,0:0:0:0:
320,192,41145,1,0,0:0:0:0:
64,192,41190,1,0,0:0:0:0:
192,192,41235,1,0,0:0:0:0:
320,192,41280,1,0,0:0:0:0:
448,192,41324,1,0,0:0:0:0:
64,192,41369,1,0,0:0:0:0:
192,192,41413,1,0,0:0:0:0:
448,192,41458,1,0,0:0:0:0:
320,192,41502,1,0,0:0:0:0:
192,192,41547,1,0,0:0:0:0:
448,192,41592,1,0,0:0:0:0:
64,192,41637,1,0,0:0:0:0:
192,192,41681,1,0,0:0:0:0:
320,192,41726,1,0,0:0:0:0:
64,192,41770,1,0,0:0:0:0:
448,192,41815,1,0,0:0:0:0:
320,192,41860,1,0,0:0:0:0:
192,192,41904,1,0,0:0:0:0:
64,192,41949,1,0,0:0:0:0:
448,192,41994,1,0,0:0:0:0:
320,192,42038,1,0,0:0:0:0:
192,192,42083,1,0,0:0:0:0:
448,192,42128,1,0,0:0:0:0:
64,192,42172,1,0,0:0:0:0:
192,192,42217,1,0,0:0:0:0:
320,192,42261,1,0,0:0:0:0:
448,192,42306,1,0,0:0:0:0:
64,192,42351,1,0,0:0:0:0:
192,192,42395,1,0,0:0:0:0:
320,192,42440,1,0,0:0:0:0:
64,192,42485,1,0,0:0:0:0:
192,192,42530,1,0,0:0:0:0:
320,192,42574,1,0,0:0:0:0:
448,192,42619,1,0,0:0:0:0:
192,192,42663,1,0,0:0:0:0:
320,192,42708,1,0,0:0:0:0:
448,192,42752,1,0,0:0:0:0:
64,192,42797,1,0,0:0:0:0:
192,192,42842,1,0,0:0:0:0:
448,192,42887,1,0,0:0:0:0:
320,192,42931,1,0,0:0:0:0:
192,192,42976,1,0,0:0:0:0:
64,192,43020,1,0,0:0:0:0:
320,192,43065,1,0,0:0:0:0:
192,192,43110,1,0,0:0:0:0:
64,192,43154,1,0,0:0:0:0:
448,192,43199,1,0,0:0:0:0:
320,192,43244,1,0,0:0:0:0:
64,192,43288,1,0,0:0:0:0:
192,192,43333,1,0,0:0:0:0:
320,192,43378,1,0,0:0:0:0:
448,192,43422,1,0,0:0:0:0:
64,192,43467,1,0,0:0:0:0:
192,192,43511,1,0,0:0:0:0:
448,192,43556,1,0,0:0:0:0:
320,192,43601,1,0,0:0:0:0:
192,192,43645,1,0,0:0:0:0:
64,192,43690,1,0,0:0:0:0:
448,192,43735,1,0,0:0:0:0:
320,192,43780,1,0,0:0:0:0:
64,192,43824,1,0,0:0:0:0:
192,192,43869,1,0,0:0:0:0:
320,192,43913,1,0,0:0:0:0:
448,192,43958,1,0,0:0:0:0:
64,192,44002,1,0,0:0:0:0:
192,192,44047,1,0,0:0:0:0:
448,192,44092,1,0,0:0:0:0:
320,192,44137,1,0,0:0:0:0:
192,192,44181,1,0,0:0:0:0:
64,192,44226,1,0,0:0:0:0:
448,192,44270,1,0,0:0:0:0:
320,192,44315,1,0,0:0:0:0:
64,192,44360,1,0,0:0:0:0:
192,192,44404,1,0,0:0:0:0:
320,192,44449,1,0,0:0:0:0:
64,192,44494,1,0,0:0:0:0:
448,192,44538,1,0,0:0:0:0:
320,192,44583,1,0,0:0:0:0:
192,192,44628,1,0,0:0:0:0:
448,192,44672,1,0,0:0:0:0:
64,192,44717,1,0,0:0:0:0:
192,192,44761,1,0,0:0:0:0:
320,192,44806,1,0,0:0:0:0:
448,192,44851,1,0,0:0:0:0:
64,192,44895,1,0,0:0:0:0:
192,192,44940,1,0,0:0:0:0:
320,192,44985,1,0,0:0:0:0:
64,192,45030,1,0,0:0:0:0:
448,192,45074,1,0,0:0:0:0:
320,192,45119,1,0,0:0:0:0:
192,192,45163,1,0,0:0:0:0:
64,192,45208,1,0,0:0:0:0:
448,192,45252,1,0,0:0:0:0:
320,192,45297,1,0,0:0:0:0:
192,192,45342,1,0,0:0:0:0:
448,192,45387,1,0,0:0:0:0:
320,192,45431,1,0,0:0:0:0:
192,192,45476,1,0,0:0:0:0:
64,192,45520,1,0,0:0:0:0:
320,192,45565,1,0,0:0:0:0:
192,192,45610,1,0,0:0:0:0:
64,192,45654,1,0,0:0:0:0:
448,192,45699,1,0,0:0:0:0:
320,192,45744,1,0,0:0:0:0:
64,192,45788,1,0,0:0:0:0:
192,192,45833,1,0,0:0:0:0:
320,192,45878,1,0,0:0:0:0:
448,192,45922,1,0,0:0:0:0:
192,192,45967,1,0,0:0:0:0:
320,192,46011,1,0,0:0:0:0:
448,192,46056,1,0,0:0:0:0:
64,192,46101,1,0,0:0:0:0:
192,192,46145,1,0,0:0:0:0:
448,192,46190,1,0,0:0:0:0:
320,192,46235,1,0,0:0:0:0:
192,192,46280,1,0,0:0:0:0:
64,192,46324,1,0,0:0:0:0:
448,192,46369,1,0,0:0:0:0:
320,192,46413,1,0,0:0:0:0:
64,192,46458,1,0,0:0:0:0:
192,192,46502,1,0,0:0:0:0:
320,192,46547,1,0,0:0:0:0:
448,192,46592,1,0,0:0:0:0:
64,192,46637,1,0,0:0:0:0:
192,192,46681,1,0,0:0:0:0:
448,192,46726,1,0,0:0:0:0:
320,192,46770,1,0,0:0:0:0:
192,192,46815,1,0,0:0:0:0:
64,192,46860,1,0,0:0:0:0:
448,192,46904,1,0,0:0:0:0:
320,192,46949,1,0,0:0:0:0:
64,192,46994,1,0,0:0:0:0:
192,192,47038,1,0,0:0:0:0:
320,192,47083,1,0,0:0:0:0:
448,192,47128,1,0,0:0:0:0:
64,192,47172,1,0,0:0:0:0:
192,192,47217,1,0,0:0:0:0:
448,192,47261,1,0,0:0:0:0:
320,192,47306,1,0,0:0:0:0:
192,192,47351,1,0,0:0:0:0:
448,192,47395,1,0,0:0:0:0:
64,192,47440,1,0,0:0:0:0:
192,192,47485,1,0,0:0:0:0:
320,192,47530,1,0,0:0:0:0:
64,192,47574,1,0,0:0:0:0:
448,192,47619,1,0,0:0:0:0:
320,192,47663,1,0,0:0:0:0:
192,192,47708,1,0,0:0:0:0:
64,192,47752,1,0,0:0:0:0:
448,192,47797,1,0,0:0:0:0:
320,192,47842,1,0,0:0:0:0:
192,192,47887,1,0,0:0:0:0:
448,192,47931,1,0,0:0:0:0:
64,192,47976,1,0,0:0:0:0:
192,192,48020,1,0,0:0:0:0:
320,192,48065,1,0,0:0:0:0:
448,192,48110,1,0,0:0:0:0:
64,192,48154,1,0,0:0:0:0:
192,192,48199,1,0,0:0:0:0:
320,192,48244,1,0,0:0:0:0:
64,192,48288,1,0,0:0:0:0:
192,192,48333,1,0,0:0:0:0:
320,192,48378,1,0,0:0:0:0:
448,192,48422,1,0,0:0:0:0:
192,192,48467,1,0,0:0:0:0:
320,192,48511,1,0,0:0:0:0:
448,192,48556,1,0,0:0:0:0:
64,192,48601,1,0,0:0:0:0:
192,192,48645,1,0,0:0:0:0:
448,192,48690,1,0,0:0:0:0:
320,192,48735,1,0,0:0:0:0:
192,192,48780,1,0,0:0:0:0:
64,192,48824,1,0,0:0:0:0:
320,192,48869,1,0,0:0:0:0:
192,192,48913,1,0,0:0:0:0:
64,192,48958,1,0,0:0:0:0:
448,192,49002,1,0,0:0:0:0:
320,192,49047,1,0,0:0:0:0:
64,192,49092,1,0,0:0:0:0:
192,192,49137,1,0,0:0:0:0:
320,192,49181,1,0,0:0:0:0:
448,192,49226,1,0,0:0:0:0:
64,192,49270,1,0,0:0:0:0:
192,192,49315,1,0,0:0:0:0:
448,192,49360,1,0,0:0:0:0:
320,192,49404,1,0,0:0:0:0:
192,192,49449,1,0,0:0:0:0:
64,192,49494,1,0,0:0:0:0:
448,192,49538,1,0,0:0:0:0:
320,192,49583,1,0,0:0:0:0:
192,192,49628,1,0,0:0:0:0:
64,192,49672,1,0,0:0:0:0:
448,192,49717,1,0,0:0:0:0:
320,192,49761,1,0,0:0:0:0:
192,192,49806,1,0,0:0:0:0:
64,192,49851,1,0,0:0:0:0:
448,192,49895,1,0,0:0:0:0:
320,192,49940,1,0,0:0:0:0:
192,192,49985,1,0,0:0:0:0:
64,192,50030,1,0,0:0:0:0:
448,192,50074,1,0,0:0:0:0:
320,192,50119,1,0,0:0:0:0:
192,192,50163,1,0,0:0:0:0:
64,192,50208,1,0,0:0:0:0:
448,192,50252,1,0,0:0:0:0:
320,192,50297,1,0,0:0:0:0:
192,192,50342,1,0,0:0:0:0:
64,192,50387,1,0,0:0:0:0:
448,192,50431,1,0,0:0:0:0:
320,192,50476,1,0,0:0:0:0:
192,192,50520,1,0,0:0:0:0:
64,192,50565,1,0,0:0:0:0:
448,192,50610,1,0,0:0:0:0:
320,192,50654,1,0,0:0:0:0:
192,192,50699,1,0,0:0:0:0:
64,192,50744,1,0,0:0:0:0:
448,192,50788,1,0,0:0:0:0:
192,192,50833,1,0,0:0:0:0:
320,192,50878,1,0,0:0:0:0:
448,192,50922,1,0,0:0:0:0:
64,192,50967,1,0,0:0:0:0:
192,192,51011,1,0,0:0:0:0:
320,192,51056,1,0,0:0:0:0:
448,192,51101,1,0,0:0:0:0:
64,192,51145,1,0,0:0:0:0:
192,192,51190,1,0,0:0:0:0:
320,192,51235,1,0,0:0:0:0:
448,192,51280,1,0,0:0:0:0:
64,192,51324,1,0,0:0:0:0:
192,192,51369,1,0,0:0:0:0:
320,192,51413,1,0,0:0:0:0:
448,192,51458,1,0,0:0:0:0:
64,192,51502,1,0,0:0:0:0:
192,192,51547,1,0,0:0:0:0:
448,192,51592,1,0,0:0:0:0:
320,192,51637,1,0,0:0:0:0:
192,192,51681,1,0,0:0:0:0:
448,192,51726,1,0,0:0:0:0:
320,192,51770,1,0,0:0:0:0:
64,192,51815,1,0,0:0:0:0:
192,192,51860,1,0,0:0:0:0:
320,192,51904,1,0,0:0:0:0:
64,192,51949,1,0,0:0:0:0:
192,192,51994,1,0,0:0:0:0:
448,192,52038,1,0,0:0:0:0:
320,192,52083,1,0,0:0:0:0:
192,192,52128,1,0,0:0:0:0:
448,192,52172,1,0,0:0:0:0:
320,192,52217,1,0,0:0:0:0:
64,192,52261,1,0,0:0:0:0:
192,192,52306,1,0,0:0:0:0:
320,192,52351,1,0,0:0:0:0:
448,192,52395,1,0,0:0:0:0:
64,192,52440,1,0,0:0:0:0:
192,192,52485,1,0,0:0:0:0:
448,192,52530,1,0,0:0:0:0:
320,192,52574,1,0,0:0:0:0:
192,192,52619,1,0,0:0:0:0:
64,192,52663,1,0,0:0:0:0:
448,192,52708,1,0,0:0:0:0:
320,192,52752,1,0,0:0:0:0:
64,192,52797,1,0,0:0:0:0:
192,192,52842,1,0,0:0:0:0:
320,192,52887,1,0,0:0:0:0:
64,192,52931,1,0,0:0:0:0:
448,192,52976,1,0,0:0:0:0:
320,192,53020,1,0,0:0:0:0:
192,192,53065,1,0,0:0:0:0:
448,192,53110,1,0,0:0:0:0:
64,192,53154,1,0,0:0:0:0:
192,192,53199,1,0,0:0:0:0:
320,192,53244,1,0,0:0:0:0:
448,192,53288,1,0,0:0:0:0:
64,192,53333,1,0,0:0:0:0:
192,192,53378,1,0,0:0:0:0:
320,192,53422,1,0,0:0:0:0:
64,192,53467,1,0,0:0:0:0:
448,192,53511,1,0,0:0:0:0:
320,192,53556,1,0,0:0:0:0:
192,192,53601,1,0,0:0:0:0:
64,192,53645,1,0,0:0:0:0:
448,192,53690,1,0,0:0:0:0:
320,192,53735,1,0,0:0:0:0:
192,192,53780,1,0,0:0:0:0:
448,192,53824,1,0,0:0:0:0:
320,192,53869,1,0,0:0:0:0:
192,192,53913,1,0,0:0:0:0:
64,192,53958,1,0,0:0:0:0:
320,192,54002,1,0,0:0:0:0:
192,192,54047,1,0,0:0:0:0:
64,192,54092,1,0,0:0:0:0:
448,192,54137,1,0,0:0:0:0:
320,192,54181,1,0,0:0:0:0:
64,192,54226,1,0,0:0:0:0:
192,192,54270,1,0,0:0:0:0:
320,192,54315,1,0,0:0:0:0:
448,192,54360,1,0,0:0:0:0:
192,192,54404,1,0,0:0:0:0:
320,192,54449,1,0,0:0:0:0:
448,192,54494,1,0,0:0:0:0:
64,192,54538,1,0,0:0:0:0:
192,192,54583,1,0,0:0:0:0:
448,192,54628,1,0,0:0:0:0:
320,192,54672,1,0,0:0:0:0:
192,192,54717,1,0,0:0:0:0:
64,192,54761,1,0,0:0:0:0:
448,192,54806,1,0,0:0:0:0:
320,192,54851,1,0,0:0:0:0:
64,192,54895,1,0,0:0:0:0:
192,192,54940,1,0,0:0:0:0:
320,192,54985,1,0,0:0:0:0:
448,192,55030,1,0,0:0:0:0:
64,192,55074,1,0,0:0:0:0:
192,192,55119,1,0,0:0:0:0:
448,192,55163,1,0,0:0:0:0:
320,192,55208,1,0,0:0:0:0:
192,192,55252,1,0,0:0:0:0:
64,192,55297,1,0,0:0:0:0:
448,192,55342,1,0,0:0:0:0:
320,192,55387,1,0,0:0:0:0:
64,192,55431,1,0,0:0:0:0:
192,192,55476,1,0,0:0:0:0:
320,192,55520,1,0,0:0:0:0:
448,192,55565,1,0,0:0:0:0:
64,192,55610,1,0,0:0:0:0:
192,192,55654,1,0,0:0:0:0:
448,192,55699,1,0,0:0:0:0:
320,192,55744,1,0,0:0:0:0:
192,192,55788,1,0,0:0:0:0:
448,192,55833,1,0,0:0:0:0:
64,192,55878,1,0,0:0:0:0:
192,192,55922,1,0,0:0:0:0:
320,192,55967,1,0,0:0:0:0:
64,192,56011,1,0,0:0:0:0:
448,192,56056,1,0,0:0:0:0:
320,192,56101,1,0,0:0:0:0:
192,192,56145,1,0,0:0:0:0:
64,192,56190,1,0,0:0:0:0:
448,192,56235,1,0,0:0:0:0:
320,192,56280,1,0,0:0:0:0:
192,192,56324,1,0,0:0:0:0:
448,192,56369,1,0,0:0:0:0:
64,192,56413,1,0,0:0:0:0:
192,192,56458,1,0,0:0:0:0:
320,192,56502,1,0,0:0:0:0:
448,192,56547,1,0,0:0:0:0:
64,192,56592,1,0,0:0:0:0:
192,192,56637,1,0,0:0:0:0:
320,192,56681,1,0,0:0:0:0:
64,192,56726,1,0,0:0:0:0:
192,192,56770,1,0,0:0:0:0:
320,192,56815,1,0,0:0:0:0:
448,192,56860,1,0,0:0:0:0:
192,192,56904,1,0,0:0:0:0:
320,192,56949,1,0,0:0:0:0:
448,192,56994,1,0,0:0:0:0:
64,192,57038,1,0,0:0:0:0:
192,192,57083,1,0,0:0:0:0:
448,192,57128,1,0,0:0:0:0:
320,192,57172,1,0,0:0:0:0:
192,192,57217,1,0,0:0:0:0:
64,192,57261,1,0,0:0:0:0:
320,192,57306,1,0,0:0:0:0:
192,192,57351,1,0,0:0:0:0:
64,192,57395,1,0,0:0:0:0:
448,192,57440,1,0,0:0:0:0:
320,192,57485,1,0,0:0:0:0:
64,192,57530,1,0,0:0:0:0:
192,192,57574,1,0,0:0:0:0:
320,192,57619,1,0,0:0:0:0:
448,192,57663,1,0,0:0:0:0:
64,192,57708,1,0,0:0:0:0:
192,192,57752,1,0,0:0:0:0:
448,192,57797,1,0,0:0:0:0:
320,192,57842,1,0,0:0:0:0:
192,192,57887,1,0,0:0:0:0:
64,192,57931,1,0,0:0:0:0:
448,192,57976,1,0,0:0:0:0:
320,192,58020,1,0,0:0:0:0:
64,192,58065,1,0,0:0:0:0:
192,192,58110,1,0,0:0:0:0:
320,192,58154,1,0,0:0:0:0:
448,192,58199,1,0,0:0:0:0:
64,192,58244,1,0,0:0:0:0:
192,192,58288,1,0,0:0:0:0:
448,192,58333,1,0,0:0:0:0:
320,192,58378,1,0,0:0:0:0:
192,192,58422,1,0,0:0:0:0:
64,192,58467,1,0,0:0:0:0:
448,192,58511,1,0,0:0:0:0:
320,192,58556,1,0,0:0:0:0:
64,192,58601,1,0,0:0:0:0:
192,192,58645,1,0,0:0:0:0:
320,192,58690,1,0,0:0:0:0:
64,192,58735,1,0,0:0:0:0:
448,192,58780,1,0,0:0:0:0:
320,192,58824,1,0,0:0:0:0:
192,192,58869,1,0,0:0:0:0:
448,192,58913,1,0,0:0:0:0:
64,192,58958,1,0,0:0:0:0:
192,192,59002,1,0,0:0:0:0:
320,192,59047,1,0,0:0:0:0:
448,192,59092,1,0,0:0:0:0:
64,192,59137,1,0,0:0:0:0:
192,192,59181,1,0,0:0:0:0:
320,192,59226,1,0,0:0:0:0:
64,192,59270,1,0,0:0:0:0:
448,192,59315,1,0,0:0:0:0:
320,192,59360,1,0,0:0:0:0:
192,192,59404,1,0,0:0:0:0:
64,192,59449,1,0,0:0:0:0:
448,192,59494,1,0,0:0:0:0:
320,192,59538,1,0,0:0:0:0:
192,192,59583,1,0,0:0:0:0:
448,192,59628,1,0,0:0:0:0:
320,192,59672,1,0,0:0:0:0:
192,192,59717,1,0,0:0:0:0:
64,192,59761,1,0,0:0:0:0:
320,192,59806,1,0,0:0:0:0:
192,192,59851,1,0,0:0:0:0:
64,192,59895,1,0,0:0:0:0:
448,192,59940,1,0,0:0:0:0:
320,192,59985,1,0,0:0:0:0:
64,192,60030,1,0,0:0:0:0:
192,192,60074,1,0,0:0:0:0:
320,192,60119,1,0,0:0:0:0:
448,192,60163,1,0,0:0:0:0:
192,192,60208,1,0,0:0:0:0:
320,192,60252,1,0,0:0:0:0:
448,192,60297,1,0,0:0:0:0:
64,192,60342,1,0,0:0:0:0:
192,192,60387,1,0,0:0:0:0:
448,192,60431,1,0,0:0:0:0:
320,192,60476,1,0,0:0:0:0:
192,192,60520,1,0,0:0:0:0:
64,192,60565,1,0,0:0:0:0:
448,192,60610,1,0,0:0:0:0:
320,192,60654,1,0,0:0:0:0:
64,192,60699,1,0,0:0:0:0:
192,192,60744,1,0,0:0:0:0:
320,192,60788,1,0,0:0:0:0:
448,192,60833,1,0,0:0:0:0:
64,192,60878,1,0,0:0:0:0:
192,192,60922,1,0,0:0:0:0:
448,192,60967,1,0,0:0:0:0:
320,192,61011,1,0,0:0:0:0:
192,192,61056,1,0,0:0:0:0:
64,192,61101,1,0,0:0:0:0:
448,192,61145,1,0,0:0:0:0:
320,192,61190,1,0,0:0:0:0:
64,192,61235,1,0,0:0:0:0:
192,192,61280,1,0,0:0:0:0:
320,192,61324,1,0,0:0:0:0:
448,192,61369,1,0,0:0:0:0:
64,192,61413,1,0,0:0:0:0:
192,192,61458,1,0,0:0:0:0:
448,192,61502,1,0,0:0:0:0:
320,192,61547,1,0,0:0:0:0:
192,192,61592,1,0,0:0:0:0:
448,192,61637,1,0,0:0:0:0:
64,192,61681,1,0,0:0:0:0:
192,192,61726,1,0,0:0:0:0:
320,192,61770,1,0,0:0:0:0:
64,192,61815,1,0,0:0:0:0:
448,192,61860,1,0,0:0:0:0:
320,192,61904,1,0,0:0:0:0:
192,192,61949,1,0,0:0:0:0:
64,192,61994,1,0,0:0:0:0:
448,192,62038,1,0,0:0:0:0:
320,192,62083,1,0,0:0:0:0:
192,192,62128,1,0,0:0:0:0:
448,192,62172,1,0,0:0:0:0:
64,192,62217,1,0,0:0:0:0:
192,192,62261,1,0,0:0:0:0:
320,192,62306,1,0,0:0:0:0:
448,192,62351,1,0,0:0:0:0:
64,192,62395,1,0,0:0:0:0:
192,192,62440,1,0,0:0:0:0:
320,192,62485,1,0,0:0:0:0:
64,192,62530,1,0,0:0:0:0:
192,192,62574,1,0,0:0:0:0:
320,192,62619,1,0,0:0:0:0:
448,192,62663,1,0,0:0:0:0:
192,192,62708,1,0,0:0:0:0:
320,192,62752,1,0,0:0:0:0:
448,192,62797,1,0,0:0:0:0:
64,192,62842,1,0,0:0:0:0:
192,192,62887,1,0,0:0:0:0:
448,192,62931,1,0,0:0:0:0:
320,192,62976,1,0,0:0:0:0:
192,192,63020,1,0,0:0:0:0:
64,192,63065,1,0,0:0:0:0:
320,192,63110,1,0,0:0:0:0:
192,192,63154,1,0,0:0:0:0:
64,192,63199,1,0,0:0:0:0:
448,192,63244,1,0,0:0:0:0:
320,192,63288,1,0,0:0:0:0:
64,192,63333,1,0,0:0:0:0:
192,192,63378,1,0,0:0:0:0:
320,192,63422,1,0,0:0:0:0:
448,192,63467,1,0,0:0:0:0:
64,192,63511,1,0,0:0:0:0:
192,192,63556,1,0,0:0:0:0:
448,192,63601,1,0,0:0:0:0:
320,192,63645,1,0,0:0:0:0:
192,192,63690,1,0,0:0:0:0:
64,192,63735,1,0,0:0:0:0:
448,192,63780,1,0,0:0:0:0:
320,192,63824,1,0,0:0:0:0:
64,192,63869,1,0,0:0:0:0:
192,192,63913,1,0,0:0:0:0:
320,192,63958,1,0,0:0:0:0:
448,192,64002,1,0,0:0:0:0:
64,192,64047,1,0,0:0:0:0:
192,192,64092,1,0,0:0:0:0:
448,192,64137,1,0,0:0:0:0:
320,192,64181,1,0,0:0:0:0:
192,192,64226,1,0,0:0:0:0:
64,192,64270,1,0,0:0:0:0:
448,192,64315,1,0,0:0:0:0:
320,192,64360,1,0,0:0:0:0:
64,192,64404,1,0,0:0:0:0:
192,192,64449,1,0,0:0:0:0:
320,192,64494,1,0,0:0:0:0:
64,192,64538,1,0,0:0:0:0:
448,192,64583,1,0,0:0:0:0:
320,192,64628,1,0,0:0:0:0:
192,192,64672,1,0,0:0:0:0:
448,192,64717,1,0,0:0:0:0:
64,192,64761,1,0,0:0:0:0:
192,192,64806,1,0,0:0:0:0:
320,192,64851,1,0,0:0:0:0:
448,192,64895,1,0,0:0:0:0:
64,192,64940,1,0,0:0:0:0:
192,192,64985,1,0,0:0:0:0:
320,192,65030,1,0,0:0:0:0:
64,192,65074,1,0,0:0:0:0:
448,192,65119,1,0,0:0:0:0:
320,192,65163,1,0,0:0:0:0:
192,192,65208,1,0,0:0:0:0:
64,192,65252,1,0,0:0:0:0:
448,192,65297,1,0,0:0:0:0:
320,192,65342,1,0,0:0:0:0:
192,192,65387,1,0,0:0:0:0:
448,192,65431,1,0,0:0:0:0:
320,192,65476,1,0,0:0:0:0:
192,192,65520,1,0,0:0:0:0:
64,192,65565,1,0,0:0:0:0:
320,192,65610,1,0,0:0:0:0:
192,192,65654,1,0,0:0:0:0:
64,192,65699,1,0,0:0:0:0:
448,192,65744,1,0,0:0:0:0:
320,192,65788,1,0,0:0:0:0:
64,192,65833,1,0,0:0:0:0:
192,192,65878,1,0,0:0:0:0:
320,192,65922,1,0,0:0:0:0:
448,192,65967,1,0,0:0:0:0:
192,192,66011,1,0,0:0:0:0:
320,192,66056,1,0,0:0:0:0:
448,192,66101,1,0,0:0:0:0:
64,192,66145,1,0,0:0:0:0:
192,192,66190,1,0,0:0:0:0:
448,192,66235,1,0,0:0:0:0:
320,192,66280,1,0,0:0:0:0:
192,192,66324,1,0,0:0:0:0:
64,192,66369,1,0,0:0:0:0:
448,192,66413,1,0,0:0:0:0:
320,192,66458,1,0,0:0:0:0:
64,192,66502,1,0,0:0:0:0:
192,192,66547,1,0,0:0:0:0:
320,192,66592,1,0,0:0:0:0:
448,192,66637,1,0,0:0:0:0:
64,192,66681,1,0,0:0:0:0:
192,192,66726,1,0,0:0:0:0:
448,192,66770,1,0,0:0:0:0:
320,192,66815,1,0,0:0:0:0:
192,192,66860,1,0,0:0:0:0:
64,192,66904,1,0,0:0:0:0:
448,192,66949,1,0,0:0:0:0:
320,192,66994,1,0,0:0:0:0:
64,192,67038,1,0,0:0:0:0:
192,192,67083,1,0,0:0:0:0:
320,192,67128,1,0,0:0:0:0:
448,192,67172,1,0,0:0:0:0:
64,192,67217,1,0,0:0:0:0:
192,192,67261,1,0,0:0:0:0:
448,192,67306,1,0,0:0:0:0:
320,192,67351,1,0,0:0:0:0:
192,192,67395,1,0,0:0:0:0:
448,192,67440,1,0,0:0:0:0:
64,192,67485,1,0,0:0:0:0:
192,192,67530,1,0,0:0:0:0:
320,192,67574,1,0,0:0:0:0:
64,192,67619,1,0,0:0:0:0:
448,192,67663,1,0,0:0:0:0:
320,192,67708,1,0,0:0:0:0:
192,192,67752,1,0,0:0:0:0:
64,192,67797,1,0,0:0:0:0:
448,192,67842,1,0,0:0:0:0:
320,192,67887,1,0,0:0:0:0:
192,192,67931,1,0,0:0:0:0:
448,192,67976,1,0,0:0:0:0:
64,192,68020,1,0,0:0:0:0:
192,192,68065,1,0,0:0:0:0:
320,192,68110,1,0,0:0:0:0:
448,192,68154,1,0,0:0:0:0:
64,192,68199,1,0,0:0:0:0:
192,192,68244,1,0,0:0:0:0:
320,192,68288,1,0,0:0:0:0:
64,192,68333,1,0,0:0:0:0:
192,192,68378,1,0,0:0:0:0:
320,192,68422,1,0,0:0:0:0:
448,192,68467,1,0,0:0:0:0:
192,192,68511,1,0,0:0:0:0:
320,192,68556,1,0,0:0:0:0:
448,192,68601,1,0,0:0:0:0:
64,192,68645,1,0,0:0:0:0:
192,192,68690,1,0,0:0:0:0:
448,192,68735,1,0,0:0:0:0:
320,192,68780,1,0,0:0:0:0:
192,192,68824,1,0,0:0:0:0:
64,192,68869,1,0,0:0:0:0:
320,192,68913,1,0,0:0:0:0:
192,192,68958,1,0,0:0:0:0:
64,192,69002,1,0,0:0:0:0:
448,192,69047,1,0,0:0:0:0:
320,192,69092,1,0,0:0:0:0:
64,192,69137,1,0,0:0:0:0:
192,192,69181,1,0,0:0:0:0:
320,192,69226,1,0,0:0:0:0:
448,192,69270,1,0,0:0:0:0:
64,192,69315,1,0,0:0:0:0:
192,192,69360,1,0,0:0:0:0:
448,192,69404,1,0,0:0:0:0:
320,192,69449,1,0,0:0:0:0:
192,192,69494,1,0,0:0:0:0:
64,192,69538,1,0,0:0:0:0:
448,192,69583,1,0,0:0:0:0:
320,192,69628,1,0,0:0:0:0:
64,192,69672,1,0,0:0:0:0:
192,192,69717,1,0,0:0:0:0:
320,192,69761,1,0,0:0:0:0:
448,192,69806,1,0,0:0:0:0:
64,192,69851,1,0,0:0:0:0:
192,192,69895,1,0,0:0:0:0:
448,192,69940,1,0,0:0:0:0:
320,192,69985,1,0,0:0:0:0:
192,192,70030,1,0,0:0:0:0:
64,192,70074,1,0,0:0:0:0:
448,192,70119,1,0,0:0:0:0:
320,192,70163,1,0,0:0:0:0:
64,192,70208,1,0,0:0:0:0:
192,192,70252,1,0,0:0:0:0:
320,192,70297,1,0,0:0:0:0:
64,192,70342,1,0,0:0:0:0:
448,192,70387,1,0,0:0:0:0:
320,192,70431,1,0,0:0:0:0:
192,192,70476,1,0,0:0:0:0:
448,192,70520,1,0,0:0:0:0:
64,192,70565,1,0,0:0:0:0:
192,192,70610,1,0,0:0:0:0:
320,192,70654,1,0,0:0:0:0:
448,192,70699,1,0,0:0:0:0:
64,192,70744,1,0,0:0:0:0:
192,192,70788,1,0,0:0:0:0:
320,192,70833,1,0,0:0:0:0:
64,192,70878,1,0,0:0:0:0:
448,192,70922,1,0,0:0:0:0:
320,192,70967,1,0,0:0:0:0:
192,192,71011,1,0,0:0:0:0:
64,192,71056,1,0,0:0:0:0:
448,192,71101,1,0,0:0:0:0:
320,192,71145,1,0,0:0:0:0:
192,192,71190,1,0,0:0:0:0:
448,192,71235,1,0,0:0:0:0:
320,192,71280,1,0,0:0:0:0:
192,192,71324,1,0,0:0:0:0:
64,192,71369,1,0,0:0:0:0:
320,192,71413,1,0,0:0:0:0:
192,192,71458,1,0,0:0:0:0:
64,192,71502,1,0,0:0:0:0:
448,192,71547,1,0,0:0:0:0:
320,192,71592,1,0,0:0:0:0:
64,192,71637,1,0,0:0:0:0:
192,192,71681,1,0,0:0:0:0:
320,192,71726,1,0,0:0:0:0:
448,192,71770,1,0,0:0:0:0:
192,192,71815,1,0,0:0:0:0:
320,192,71860,1,0,0:0:0:0:
448,192,71904,1,0,0:0:0:0:
64,192,71949,1,0,0:0:0:0:
192,192,71994,1,0,0:0:0:0:
448,192,72038,1,0,0:0:0:0:
320,192,72083,1,0,0:0:0:0:
192,192,72128,1,0,0:0:0:0:
64,192,72172,1,0,0:0:0:0:
448,192,72217,1,0,0:0:0:0:
320,192,72261,1,0,0:0:0:0:
64,192,72306,1,0,0:0:0:0:
192,192,72351,1,0,0:0:0:0:
320,192,72395,1,0,0:0:0:0:
448,192,72440,1,0,0:0:0:0:
64,192,72485,1,0,0:0:0:0:
192,192,72530,1,0,0:0:0:0:
448,192,72574,1,0,0:0:0:0:
320,192,72619,1,0,0:0:0:0:
192,192,72663,1,0,0:0:0:0:
64,192,72708,1,0,0:0:0:0:
448,192,72752,1,0,0:0:0:0:
320,192,72797,1,0,0:0:0:0:
64,192,72842,1,0,0:0:0:0:
192,192,72887,1,0,0:0:0:0:
320,192,72931,1,0,0:0:0:0:
448,192,72976,1,0,0:0:0:0:
64,192,73020,1,0,0:0:0:0:
192,192,73065,1,0,0:0:0:0:
448,192,73110,1,0,0:0:0:0:
320,192,73154,1,0,0:0:0:0:
192,192,73199,1,0,0:0:0:0:
448,192,73244,1,0,0:0:0:0:
64,192,73288,1,0,0:0:0:0:
192,192,73333,1,0,0:0:0:0:
320,192,73378,1,0,0:0:0:0:
64,192,73422,1,0,0:0:0:0:
448,192,73467,1,0,0:0:0:0:
320,192,73511,1,0,0:0:0:0:
192,192,73556,1,0,0:0:0:0:
64,192,73601,1,0,0:0:0:0:
448,192,73645,1,0,0:0:0:0:
320,192,73690,1,0,0:0:0:0:
192,192,73735,1,0,0:0:0:0:
448,192,73780,1,0,0:0:0:0:
64,192,73824,1,0,0:0:0:0:
192,192,73869,1,0,0:0:0:0:
320,192,73913,1,0,0:0:0:0:
448,192,73958,1,0,0:0:0:0:
64,192,74002,1,0,0:0:0:0:
192,192,74047,1,0,0:0:0:0:
320,192,74092,1,0,0:0:0:0:
64,192,74137,1,0,0:0:0:0:
192,192,74181,1,0,0:0:0:0:
320,192,74226,1,0,0:0:0:0:
448,192,74270,1,0,0:0:0:0:
192,192,74315,1,0,0:0:0:0:
320,192,74360,1,0,0:0:0:0:
448,192,74404,1,0,0:0:0:0:
64,192,74449,1,0,0:0:0:0:
192,192,74494,1,0,0:0:0:0:
448,192,74538,1,0,0:0:0:0:
320,192,74583,1,0,0:0:0:0:
192,192,74628,1,0,0:0:0:0:
64,192,74672,1,0,0:0:0:0:
320,192,74717,1,0,0:0:0:0:
192,192,74761,1,0,0:0:0:0:
64,192,74806,1,0,0:0:0:0:
448,192,74851,1,0,0:0:0:0:
320,192,74895,1,0,0:0:0:0:
64,192,74940,1,0,0:0:0:0:
192,192,74985,1,0,0:0:0:0:
320,192,75030,1,0,0:0:0:0:
448,192,75074,1,0,0:0:0:0:
64,192,75119,1,0,0:0:0:0:
192,192,75163,1,0,0:0:0:0:
448,192,75208,1,0,0:0:0:0:
320,192,75252,1,0,0:0:0:0:
192,192,75297,1,0,0:0:0:0:
64,192,75342,1,0,0:0:0:0:
448,192,75387,1,0,0:0:0:0:
320,192,75431,1,0,0:0:0:0:
192,192,75476,1,0,0:0:0:0:
64,192,75520,1,0,0:0:0:0:
448,192,75565,1,0,0:0:0:0:
320,192,75610,1,0,0:0:0:0:
192,192,75654,1,0,0:0:0:0:
64,192,75699,1,0,0:0:0:0:
448,192,75744,1,0,0:0:0:0:
320,192,75788,1,0,0:0:0:0:
192,192,75833,1,0,0:0:0:0:
64,192,75878,1,0,0:0:0:0:
448,192,75922,1,0,0:0:0:0:
320,192,75967,1,0,0:0:0:0:
192,192,76011,1,0,0:0:0:0:
64,192,76056,1,0,0:0:0:0:
448,192,76101,1,0,0:0:0:0:
320,192,76145,1,0,0:0:0:0:
192,192,76190,1,0,0:0:0:0:
64,192,76235,1,0,0:0:0:0:
448,192,76280,1,0,0:0:0:0:
320,192,76324,1,0,0:0:0:0:
192,192,76369,1,0,0:0:0:0:
64,192,76413,1,0,0:0:0:0:
448,192,76458,1,0,0:0:0:0:
320,192,76502,1,0,0:0:0:0:
192,192,76547,1,0,0:0:0:0:
64,192,76592,1,0,0:0:0:0:
448,192,76637,1,0,0:0:0:0:
192,192,76681,1,0,0:0:0:0:
320,192,76726,1,0,0:0:0:0:
448,192,76770,1,0,0:0:0:0:
64,192,76815,1,0,0:0:0:0:
192,192,76860,1,0,0:0:0:0:
320,192,76904,1,0,0:0:0:0:
448,192,76949,1,0,0:0:0:0:
64,192,76994,1,0,0:0:0:0:
192,192,77038,1,0,0:0:0:0:
320,192,77083,1,0,0:0:0:0:
448,192,77128,1,0,0:0:0:0:
64,192,77172,1,0,0:0:0:0:
192,192,77217,1,0,0:0:0:0:
320,192,77261,1,0,0:0:0:0:
448,192,77306,1,0,0:0:0:0:
64,192,77351,1,0,0:0:0:0:
192,192,77395,1,0,0:0:0:0:
448,192,77440,1,0,0:0:0:0:
320,192,77485,1,0,0:0:0:0:
192,192,77530,1,0,0:0:0:0:
448,192,77574,1,0,0:0:0:0:
320,192,77619,1,0,0:0:0:0:
64,192,77663,1,0,0:0:0:0:
192,192,77708,1,0,0:0:0:0:
320,192,77752,1,0,0:0:0:0:
64,192,77797,1,0,0:0:0:0:
192,192,77842,1,0,0:0:0:0:
448,192,77887,1,0,0:0:0:0:
320,192,77931,1,0,0:0:0:0:
192,192,77976,1,0,0:0:0:0:
448,192,78020,1,0,0:0:0:0:
320,192,78065,1,0,0:0:0:0:
64,192,78110,1,0,0:0:0:0:
192,192,78154,1,0,0:0:0:0:
320,192,78199,1,0,0:0:0:0:
448,192,78244,1,0,0:0:0:0:
64,192,78288,1,0,0:0:0:0:
192,192,78333,1,0,0:0:0:0:
448,192,78378,1,0,0:0:0:0:
320,192,78422,1,0,0:0:0:0:
192,192,78467,1,0,0:0:0:0:
64,192,78511,1,0,0:0:0:0:
448,192,78556,1,0,0:0:0:0:
320,192,78601,1,0,0:0:0:0:
64,192,78645,1,0,0:0:0:0:
192,192,78690,1,0,0:0:0:0:
320,192,78735,1,0,0:0:0:0:
64,192,78780,1,0,0:0:0:0:
448,192,78824,1,0,0:0:0:0:
320,192,78869,1,0,0:0:0:0:
192,192,78913,1,0,0:0:0:0:
448,192,78958,1,0,0:0:0:0:
64,192,79002,1,0,0:0:0:0:
192,192,79047,1,0,0:0:0:0:
320,192,79092,1,0,0:0:0:0:
448,192,79137,1,0,0:0:0:0:
64,192,79181,1,0,0:0:0:0:
192,192,79226,1,0,0:0:0:0:
320,192,79270,1,0,0:0:0:0:
64,192,79315,1,0,0:0:0:0:
448,192,79360,1,0,0:0:0:0:
320,192,79404,1,0,0:0:0:0:
192,192,79449,1,0,0:0:0:0:
64,192,79494,1,0,0:0:0:0:
448,192,79538,1,0,0:0:0:0:
320,192,79583,1,0,0:0:0:0:
192,192,79628,1,0,0:0:0:0:
448,192,79672,1,0,0:0:0:0:
320,192,79717,1,0,0:0:0:0:
192,192,79761,1,0,0:0:0:0:
64,192,79806,1,0,0:0:0:0:
320,192,79851,1,0,0:0:0:0:
192,192,79895,1,0,0:0:0:0:
64,192,79940,1,0,0:0:0:0:
448,192,79985,1,0,0:0:0:0:
320,192,80030,1,0,0:0:0:0:
64,192,80074,1,0,0:0:0:0:
192,192,80119,1,0,0:0:0:0:
320,192,80163,1,0,0:0:0:0:
448,192,80208,1,0,0:0:0:0:
192,192,80252,1,0,0:0:0:0:
320,192,80297,1,0,0:0:0:0:
