osu file format v14

[General]
AudioFilename: Final Fantasy VII - Prelude_2.mp3
AudioLeadIn: 0
PreviewTime: 0
Countdown: 0
SampleSet: None
StackLeniency: 0.7
Mode: 3
LetterboxInBreaks: 0
SpecialStyle: 0
WidescreenStoryboard: 0

[Editor]
DistanceSpacing: 0.8
BeatDivisor: 2
GridSize: 32
TimelineZoom: 1

[Metadata]
Title:final fantasy prelude
TitleUnicode:final fantasy prelude
Artist:some asian dude
ArtistUnicode:some asian dude
Creator:rosepetal
Version:ruby x2
Source:
Tags:
BeatmapID:1581266
BeatmapSetID:751012

[Difficulty]
HPDrainRate:7
CircleSize:4
OverallDifficulty:7
ApproachRate:5
SliderMultiplier:1.4
SliderTickRate:1

[Events]
//Background and Video events
//Break Periods
//Storyboard Layer 0 (Background)
//Storyboard Layer 1 (Fail)
//Storyboard Layer 2 (Pass)
//Storyboard Layer 3 (Foreground)
//Storyboard Sound Samples

[TimingPoints]
125,187.5,4,1,0,100,1,0

[HitObjects]
64,192,594,5,0,0:0:0:0:
192,192,640,1,0,0:0:0:0:
320,192,687,1,0,0:0:0:0:
448,192,734,1,0,0:0:0:0:
64,192,781,1,0,0:0:0:0:
192,192,828,1,0,0:0:0:0:
448,192,875,1,0,0:0:0:0:
320,192,922,1,0,0:0:0:0:
192,192,969,1,0,0:0:0:0:
64,192,1015,1,0,0:0:0:0:
448,192,1062,1,0,0:0:0:0:
320,192,1109,1,0,0:0:0:0:
64,192,1156,1,0,0:0:0:0:
192,192,1203,1,0,0:0:0:0:
320,192,1250,1,0,0:0:0:0:
64,192,1297,1,0,0:0:0:0:
448,192,1344,1,0,0:0:0:0:
320,192,1390,1,0,0:0:0:0:
192,192,1437,1,0,0:0:0:0:
448,192,1484,1,0,0:0:0:0:
64,192,1531,1,0,0:0:0:0:
192,192,1578,1,0,0:0:0:0:
320,192,1625,1,0,0:0:0:0:
448,192,1672,1,0,0:0:0:0:
64,192,1719,1,0,0:0:0:0:
192,192,1765,1,0,0:0:0:0:
320,192,1812,1,0,0:0:0:0:
64,192,1859,1,0,0:0:0:0:
448,192,1906,1,0,0:0:0:0:
320,192,1953,1,0,0:0:0:0:
192,192,2000,1,0,0:0:0:0:
64,192,2047,1,0,0:0:0:0:
448,192,2094,1,0,0:0:0:0:
320,192,2140,1,0,0:0:0:0:
192,192,2187,1,0,0:0:0:0:
448,192,2234,1,0,0:0:0:0:
320,192,2281,1,0,0:0:0:0:
192,192,2328,1,0,0:0:0:0:
64,192,2375,1,0,0:0:0:0:
320,192,2422,1,0,0:0:0:0:
192,192,2469,1,0,0:0:0:0:
64,192,2515,1,0,0:0:0:0:
448,192,2562,1,0,0:0:0:0:
320,192,2609,1,0,0:0:0:0:
64,192,2656,1,0,0:0:0:0:
192,192,2703,1,0,0:0:0:0:
320,192,2750,1,0,0:0:0:0:
448,192,2797,1,0,0:0:0:0:
192,192,2844,1,0,0:0:0:0:
320,192,2890,1,0,0:0:0:0:
448,192,2937,1,0,0:0:0:0:
64,192,2984,1,0,0:0:0:0:
192,192,3031,1,0,0:0:0:0:
448,192,3078,1,0,0:0:0:0:
320,192,3125,1,0,0:0:0:0:
192,192,3172,1,0,0:0:0:0:
64,192,3219,1,0,0:0:0:0:
448,192,3265,1,0,0:0:0:0:
320,192,3312,1,0,0:0:0:0:
64,192,3359,1,0,0:0:0:0:
192,192,3406,1,0,0:0:0:0:
320,192,3453,1,0,0:0:0:0:
448,192,3500,1,0,0:0:0:0:
64,192,3547,1,0,0:0:0:0:
192,192,3594,1,0,0:0:0:0:
448,192,3640,1,0,0:0:0:0:
320,192,3687,1,0,0:0:0:0:
192,192,3734,1,0,0:0:0:0:
64,192,3781,1,0,0:0:0:0:
448,192,3828,1,0,0:0:0:0:
320,192,3875,1,0,0:0:0:0:
64,192,3922,1,0,0:0:0:0:
192,192,3969,1,0,0:0:0:0:
320,192,4015,1,0,0:0:0:0:
448,192,4062,1,0,0:0:0:0:
64,192,4109,1,0,0:0:0:0:
192,192,4156,1,0,0:0:0:0:
448,192,4203,1,0,0:0:0:0:
320,192,4250,1,0,0:0:0:0:
192,192,4297,1,0,0:0:0:0:
448,192,4344,1,0,0:0:0:0:
64,192,4390,1,0,0:0:0:0:
192,192,4437,1,0,0:0:0:0:
320,192,4484,1,0,0:0:0:0:
64,192,4531,1,0,0:0:0:0:
448,192,4578,1,0,0:0:0:0:
320,192,4625,1,0,0:0:0:0:
192,192,4672,1,0,0:0:0:0:
64,192,4719,1,0,0:0:0:0:
448,192,4765,1,0,0:0:0:0:
320,192,4812,1,0,0:0:0:0:
192,192,4859,1,0,0:0:0:0:
448,192,4906,1,0,0:0:0:0:
64,192,4953,1,0,0:0:0:0:
192,192,5000,1,0,0:0:0:0:
320,192,5047,1,0,0:0:0:0:
448,192,5094,1,0,0:0:0:0:
64,192,5140,1,0,0:0:0:0:
192,192,5187,1,0,0:0:0:0:
320,192,5234,1,0,0:0:0:0:
64,192,5281,1,0,0:0:0:0:
192,192,5328,1,0,0:0:0:0:
320,192,5375,1,0,0:0:0:0:
448,192,5422,1,0,0:0:0:0:
192,192,5469,1,0,0:0:0:0:
320,192,5515,1,0,0:0:0:0:
448,192,5562,1,0,0:0:0:0:
64,192,5609,1,0,0:0:0:0:
192,192,5656,1,0,0:0:0:0:
448,192,5703,1,0,0:0:0:0:
320,192,5750,1,0,0:0:0:0:
192,192,5797,1,0,0:0:0:0:
64,192,5844,1,0,0:0:0:0:
320,192,5890,1,0,0:0:0:0:
192,192,5937,1,0,0:0:0:0:
64,192,5984,1,0,0:0:0:0:
448,192,6031,1,0,0:0:0:0:
320,192,6078,1,0,0:0:0:0:
64,192,6125,1,0,0:0:0:0:
192,192,6172,1,0,0:0:0:0:
320,192,6219,1,0,0:0:0:0:
448,192,6265,1,0,0:0:0:0:
64,192,6312,1,0,0:0:0:0:
192,192,6359,1,0,0:0:0:0:
448,192,6406,1,0,0:0:0:0:
320,192,6453,1,0,0:0:0:0:
192,192,6500,1,0,0:0:0:0:
64,192,6547,1,0,0:0:0:0:
448,192,6594,1,0,0:0:0:0:
320,192,6640,1,0,0:0:0:0:
64,192,6687,1,0,0:0:0:0:
192,192,6734,1,0,0:0:0:0:
320,192,6781,1,0,0:0:0:0:
448,192,6828,1,0,0:0:0:0:
64,192,6875,1,0,0:0:0:0:
192,192,6922,1,0,0:0:0:0:
448,192,6969,1,0,0:0:0:0:
320,192,7015,1,0,0:0:0:0:
192,192,7062,1,0,0:0:0:0:
64,192,7109,1,0,0:0:0:0:
448,192,7156,1,0,0:0:0:0:
320,192,7203,1,0,0:0:0:0:
64,192,7250,1,0,0:0:0:0:
192,192,7297,1,0,0:0:0:0:
320,192,7344,1,0,0:0:0:0:
64,192,7390,1,0,0:0:0:0:
448,192,7437,1,0,0:0:0:0:
320,192,7484,1,0,0:0:0:0:
192,192,7531,1,0,0:0:0:0:
448,192,7578,1,0,0:0:0:0:
64,192,7625,1,0,0:0:0:0:
192,192,7672,1,0,0:0:0:0:
320,192,7719,1,0,0:0:0:0:
448,192,7765,1,0,0:0:0:0:
64,192,7812,1,0,0:0:0:0:
192,192,7859,1,0,0:0:0:0:
320,192,7906,1,0,0:0:0:0:
64,192,7953,1,0,0:0:0:0:
448,192,8000,1,0,0:0:0:0:
320,192,8047,1,0,0:0:0:0:
192,192,8094,1,0,0:0:0:0:
64,192,8140,1,0,0:0:0:0:
448,192,8187,1,0,0:0:0:0:
320,192,8234,1,0,0:0:0:0:
192,192,8281,1,0,0:0:0:0:
448,192,8328,1,0,0:0:0:0:
320,192,8375,1,0,0:0:0:0:
192,192,8422,1,0,0:0:0:0:
64,192,8469,1,0,0:0:0:0:
320,192,8515,1,0,0:0:0:0:
192,192,8562,1,0,0:0:0:0:
64,192,8609,1,0,0:0:0:0:
448,192,8656,1,0,0:0:0:0:
320,192,8703,1,0,0:0:0:0:
64,192,8750,1,0,0:0:0:0:
192,192,8797,1,0,0:0:0:0:
320,192,8844,1,0,0:0:0:0:
448,192,8890,1,0,0:0:0:0:
192,192,8937,1,0,0:0:0:0:
320,192,8984,1,0,0:0:0:0:
448,192,9031,1,0,0:0:0:0:
64,192,9078,1,0,0:0:0:0:
192,192,9125,1,0,0:0:0:0:
448,192,9172,1,0,0:0:0:0:
320,192,9219,1,0,0:0:0:0:
192,192,9265,1,0,0:0:0:0:
64,192,9312,1,0,0:0:0:0:
448,192,9359,1,0,0:0:0:0:
320,192,9406,1,0,0:0:0:0:
64,192,9453,1,0,0:0:0:0:
192,192,9500,1,0,0:0:0:0:
320,192,9547,1,0,0:0:0:0:
448,192,9594,1,0,0:0:0:0:
64,192,9640,1,0,0:0:0:0:
192,192,9687,1,0,0:0:0:0:
448,192,9734,1,0,0:0:0:0:
320,192,9781,1,0,0:0:0:0:
192,192,9828,1,0,0:0:0:0:
64,192,9875,1,0,0:0:0:0:
448,192,9922,1,0,0:0:0:0:
320,192,9969,1,0,0:0:0:0:
64,192,10015,1,0,0:0:0:0:
192,192,10062,1,0,0:0:0:0:
320,192,10109,1,0,0:0:0:0:
448,192,10156,1,0,0:0:0:0:
64,192,10203,1,0,0:0:0:0:
192,192,10250,1,0,0:0:0:0:
448,192,10297,1,0,0:0:0:0:
320,192,10344,1,0,0:0:0:0:
192,192,10390,1,0,0:0:0:0:
448,192,10437,1,0,0:0:0:0:
64,192,10484,1,0,0:0:0:0:
192,192,10531,1,0,0:0:0:0:
320,192,10578,1,0,0:0:0:0:
64,192,10625,1,0,0:0:0:0:
448,192,10672,1,0,0:0:0:0:
320,192,10719,1,0,0:0:0:0:
192,192,10765,1,0,0:0:0:0:
64,192,10812,1,0,0:0:0:0:
448,192,10859,1,0,0:0:0:0:
320,192,10906,1,0,0:0:0:0:
192,192,10953,1,0,0:0:0:0:
448,192,11000,1,0,0:0:0:0:
64,192,11047,1,0,0:0:0:0:
192,192,11094,1,0,0:0:0:0:
320,192,11140,1,0,0:0:0:0:
448,192,11187,1,0,0:0:0:0:
64,192,11234,1,0,0:0:0:0:
192,192,11281,1,0,0:0:0:0:
320,192,11328,1,0,0:0:0:0:
64,192,11375,1,0,0:0:0:0:
192,192,11422,1,0,0:0:0:0:
320,192,11469,1,0,0:0:0:0:
448,192,11515,1,0,0:0:0:0:
192,192,11562,1,0,0:0:0:0:
320,192,11609,1,0,0:0:0:0:
448,192,11656,1,0,0:0:0:0:
64,192,11703,1,0,0:0:0:0:
192,192,11750,1,0,0:0:0:0:
448,192,11797,1,0,0:0:0:0:
320,192,11844,1,0,0:0:0:0:
192,192,11890,1,0,0:0:0:0:
64,192,11937,1,0,0:0:0:0:
320,192,11984,1,0,0:0:0:0:
192,192,12031,1,0,0:0:0:0:
64,192,12078,1,0,0:0:0:0:
448,192,12125,1,0,0:0:0:0:
320,192,12172,1,0,0:0:0:0:
64,192,12219,1,0,0:0:0:0:
192,192,12265,1,0,0:0:0:0:
320,192,12312,1,0,0:0:0:0:
448,192,12359,1,0,0:0:0:0:
64,192,12406,1,0,0:0:0:0:
192,192,12453,1,0,0:0:0:0:
448,192,12500,1,0,0:0:0:0:
320,192,12547,1,0,0:0:0:0:
192,192,12594,1,0,0:0:0:0:
64,192,12640,1,0,0:0:0:0:
448,192,12687,1,0,0:0:0:0:
320,192,12734,1,0,0:0:0:0:
64,192,12781,1,0,0:0:0:0:
192,192,12828,1,0,0:0:0:0:
320,192,12875,1,0,0:0:0:0:
448,192,12922,1,0,0:0:0:0:
64,192,12969,1,0,0:0:0:0:
192,192,13015,1,0,0:0:0:0:
448,192,13062,1,0,0:0:0:0:
320,192,13109,1,0,0:0:0:0:
192,192,13156,1,0,0:0:0:0:
64,192,13203,1,0,0:0:0:0:
448,192,13250,1,0,0:0:0:0:
320,192,13297,1,0,0:0:0:0:
64,192,13344,1,0,0:0:0:0:
192,192,13390,1,0,0:0:0:0:
320,192,13437,1,0,0:0:0:0:
64,192,13484,1,0,0:0:0:0:
448,192,13531,1,0,0:0:0:0:
320,192,13578,1,0,0:0:0:0:
192,192,13625,1,0,0:0:0:0:
448,192,13672,1,0,0:0:0:0:
64,192,13719,1,0,0:0:0:0:
192,192,13765,1,0,0:0:0:0:
320,192,13812,1,0,0:0:0:0:
448,192,13859,1,0,0:0:0:0:
64,192,13906,1,0,0:0:0:0:
192,192,13953,1,0,0:0:0:0:
320,192,14000,1,0,0:0:0:0:
64,192,14047,1,0,0:0:0:0:
448,192,14094,1,0,0:0:0:0:
320,192,14140,1,0,0:0:0:0:
192,192,14187,1,0,0:0:0:0:
64,192,14234,1,0,0:0:0:0:
448,192,14281,1,0,0:0:0:0:
320,192,14328,1,0,0:0:0:0:
192,192,14375,1,0,0:0:0:0:
448,192,14422,1,0,0:0:0:0:
320,192,14469,1,0,0:0:0:0:
192,192,14515,1,0,0:0:0:0:
64,192,14562,1,0,0:0:0:0:
320,192,14609,1,0,0:0:0:0:
192,192,14656,1,0,0:0:0:0:
64,192,14703,1,0,0:0:0:0:
448,192,14750,1,0,0:0:0:0:
320,192,14797,1,0,0:0:0:0:
64,192,14844,1,0,0:0:0:0:
192,192,14890,1,0,0:0:0:0:
320,192,14937,1,0,0:0:0:0:
448,192,14984,1,0,0:0:0:0:
192,192,15031,1,0,0:0:0:0:
320,192,15078,1,0,0:0:0:0:
448,192,15125,1,0,0:0:0:0:
64,192,15172,1,0,0:0:0:0:
192,192,15219,1,0,0:0:0:0:
448,192,15265,1,0,0:0:0:0:
320,192,15312,1,0,0:0:0:0:
192,192,15359,1,0,0:0:0:0:
64,192,15406,1,0,0:0:0:0:
448,192,15453,1,0,0:0:0:0:
320,192,15500,1,0,0:0:0:0:
64,192,15547,1,0,0:0:0:0:
192,192,15594,1,0,0:0:0:0:
320,192,15640,1,0,0:0:0:0:
448,192,15687,1,0,0:0:0:0:
64,192,15734,1,0,0:0:0:0:
192,192,15781,1,0,0:0:0:0:
448,192,15828,1,0,0:0:0:0:
320,192,15875,1,0,0:0:0:0:
192,192,15922,1,0,0:0:0:0:
64,192,15969,1,0,0:0:0:0:
448,192,16015,1,0,0:0:0:0:
320,192,16062,1,0,0:0:0:0:
64,192,16109,1,0,0:0:0:0:
192,192,16156,1,0,0:0:0:0:
320,192,16203,1,0,0:0:0:0:
448,192,16250,1,0,0:0:0:0:
64,192,16297,1,0,0:0:0:0:
192,192,16344,1,0,0:0:0:0:
448,192,16390,1,0,0:0:0:0:
320,192,16437,1,0,0:0:0:0:
192,192,16484,1,0,0:0:0:0:
448,192,16531,1,0,0:0:0:0:
64,192,16578,1,0,0:0:0:0:
192,192,16625,1,0,0:0:0:0:
320,192,16672,1,0,0:0:0:0:
64,192,16719,1,0,0:0:0:0:
448,192,16765,1,0,0:0:0:0:
320,192,16812,1,0,0:0:0:0:
192,192,16859,1,0,0:0:0:0:
64,192,16906,1,0,0:0:0:0:
448,192,16953,1,0,0:0:0:0:
320,192,17000,1,0,0:0:0:0:
192,192,17047,1,0,0:0:0:0:
448,192,17094,1,0,0:0:0:0:
64,192,17140,1,0,0:0:0:0:
192,192,17187,1,0,0:0:0:0:
320,192,17234,1,0,0:0:0:0:
448,192,17281,1,0,0:0:0:0:
64,192,17328,1,0,0:0:0:0:
192,192,17375,1,0,0:0:0:0:
320,192,17422,1,0,0:0:0:0:
64,192,17469,1,0,0:0:0:0:
192,192,17515,1,0,0:0:0:0:
320,192,17562,1,0,0:0:0:0:
448,192,17609,1,0,0:0:0:0:
192,192,17656,1,0,0:0:0:0:
320,192,17703,1,0,0:0:0:0:
448,192,17750,1,0,0:0:0:0:
64,192,17797,1,0,0:0:0:0:
192,192,17844,1,0,0:0:0:0:
448,192,17890,1,0,0:0:0:0:
320,192,17937,1,0,0:0:0:0:
192,192,17984,1,0,0:0:0:0:
64,192,18031,1,0,0:0:0:0:
320,192,18078,1,0,0:0:0:0:
192,192,18125,1,0,0:0:0:0:
64,192,18172,1,0,0:0:0:0:
448,192,18219,1,0,0:0:0:0:
320,192,18265,1,0,0:0:0:0:
64,192,18312,1,0,0:0:0:0:
192,192,18359,1,0,0:0:0:0:
320,192,18406,1,0,0:0:0:0:
448,192,18453,1,0,0:0:0:0:
64,192,18500,1,0,0:0:0:0:
192,192,18547,1,0,0:0:0:0:
448,192,18594,1,0,0:0:0:0:
320,192,18640,1,0,0:0:0:0:
192,192,18687,1,0,0:0:0:0:
64,192,18734,1,0,0:0:0:0:
448,192,18781,1,0,0:0:0:0:
320,192,18828,1,0,0:0:0:0:
64,192,18875,1,0,0:0:0:0:
192,192,18922,1,0,0:0:0:0:
320,192,18969,1,0,0:0:0:0:
448,192,19015,1,0,0:0:0:0:
64,192,19062,1,0,0:0:0:0:
192,192,19109,1,0,0:0:0:0:
448,192,19156,1,0,0:0:0:0:
320,192,19203,1,0,0:0:0:0:
192,192,19250,1,0,0:0:0:0:
64,192,19297,1,0,0:0:0:0:
448,192,19344,1,0,0:0:0:0:
320,192,19390,1,0,0:0:0:0:
64,192,19437,1,0,0:0:0:0:
192,192,19484,1,0,0:0:0:0:
320,192,19531,1,0,0:0:0:0:
64,192,19578,1,0,0:0:0:0:
448,192,19625,1,0,0:0:0:0:
320,192,19672,1,0,0:0:0:0:
192,192,19719,1,0,0:0:0:0:
448,192,19765,1,0,0:0:0:0:
64,192,19812,1,0,0:0:0:0:
192,192,19859,1,0,0:0:0:0:
320,192,19906,1,0,0:0:0:0:
448,192,19953,1,0,0:0:0:0:
64,192,20000,1,0,0:0:0:0:
192,192,20047,1,0,0:0:0:0:
320,192,20094,1,0,0:0:0:0:
64,192,20140,1,0,0:0:0:0:
448,192,20187,1,0,0:0:0:0:
320,192,20234,1,0,0:0:0:0:
192,192,20281,1,0,0:0:0:0:
64,192,20328,1,0,0:0:0:0:
448,192,20375,1,0,0:0:0:0:
320,192,20422,1,0,0:0:0:0:
192,192,20469,1,0,0:0:0:0:
448,192,20515,1,0,0:0:0:0:
320,192,20562,1,0,0:0:0:0:
192,192,20609,1,0,0:0:0:0:
64,192,20656,1,0,0:0:0:0:
320,192,20703,1,0,0:0:0:0:
192,192,20750,1,0,0:0:0:0:
64,192,20797,1,0,0:0:0:0:
448,192,20844,1,0,0:0:0:0:
320,192,20890,1,0,0:0:0:0:
64,192,20937,1,0,0:0:0:0:
192,192,20984,1,0,0:0:0:0:
320,192,21031,1,0,0:0:0:0:
448,192,21078,1,0,0:0:0:0:
192,192,21125,1,0,0:0:0:0:
320,192,21172,1,0,0:0:0:0:
448,192,21219,1,0,0:0:0:0:
64,192,21265,1,0,0:0:0:0:
192,192,21312,1,0,0:0:0:0:
448,192,21359,1,0,0:0:0:0:
320,192,21406,1,0,0:0:0:0:
192,192,21453,1,0,0:0:0:0:
64,192,21500,1,0,0:0:0:0:
448,192,21547,1,0,0:0:0:0:
320,192,21594,1,0,0:0:0:0:
64,192,21640,1,0,0:0:0:0:
192,192,21687,1,0,0:0:0:0:
320,192,21734,1,0,0:0:0:0:
448,192,21781,1,0,0:0:0:0:
64,192,21828,1,0,0:0:0:0:
192,192,21875,1,0,0:0:0:0:
448,192,21922,1,0,0:0:0:0:
320,192,21969,1,0,0:0:0:0:
192,192,22015,1,0,0:0:0:0:
64,192,22062,1,0,0:0:0:0:
448,192,22109,1,0,0:0:0:0:
320,192,22156,1,0,0:0:0:0:
64,192,22203,1,0,0:0:0:0:
192,192,22250,1,0,0:0:0:0:
320,192,22297,1,0,0:0:0:0:
448,192,22344,1,0,0:0:0:0:
64,192,22390,1,0,0:0:0:0:
192,192,22437,1,0,0:0:0:0:
448,192,22484,1,0,0:0:0:0:
320,192,22531,1,0,0:0:0:0:
192,192,22578,1,0,0:0:0:0:
448,192,22625,1,0,0:0:0:0:
64,192,22672,1,0,0:0:0:0:
192,192,22719,1,0,0:0:0:0:
320,192,22765,1,0,0:0:0:0:
64,192,22812,1,0,0:0:0:0:
448,192,22859,1,0,0:0:0:0:
320,192,22906,1,0,0:0:0:0:
192,192,22953,1,0,0:0:0:0:
64,192,23000,1,0,0:0:0:0:
448,192,23047,1,0,0:0:0:0:
320,192,23094,1,0,0:0:0:0:
192,192,23140,1,0,0:0:0:0:
448,192,23187,1,0,0:0:0:0:
64,192,23234,1,0,0:0:0:0:
192,192,23281,1,0,0:0:0:0:
320,192,23328,1,0,0:0:0:0:
448,192,23375,1,0,0:0:0:0:
64,192,23422,1,0,0:0:0:0:
192,192,23469,1,0,0:0:0:0:
320,192,23515,1,0,0:0:0:0:
64,192,23562,1,0,0:0:0:0:
192,192,23609,1,0,0:0:0:0:
320,192,23656,1,0,0:0:0:0:
448,192,23703,1,0,0:0:0:0:
192,192,23750,1,0,0:0:0:0:
320,192,23797,1,0,0:0:0:0:
448,192,23844,1,0,0:0:0:0:
64,192,23890,1,0,0:0:0:0:
192,192,23937,1,0,0:0:0:0:
448,192,23984,1,0,0:0:0:0:
320,192,24031,1,0,0:0:0:0:
192,192,24078,1,0,0:0:0:0:
64,192,24125,1,0,0:0:0:0:
320,192,24172,1,0,0:0:0:0:
192,192,24219,1,0,0:0:0:0:
64,192,24265,1,0,0:0:0:0:
448,192,24312,1,0,0:0:0:0:
320,192,24359,1,0,0:0:0:0:
64,192,24406,1,0,0:0:0:0:
192,192,24453,1,0,0:0:0:0:
320,192,24500,1,0,0:0:0:0:
448,192,24547,1,0,0:0:0:0:
64,192,24594,1,0,0:0:0:0:
192,192,24640,1,0,0:0:0:0:
448,192,24687,1,0,0:0:0:0:
320,192,24734,1,0,0:0:0:0:
192,192,24781,1,0,0:0:0:0:
64,192,24828,1,0,0:0:0:0:
448,192,24875,1,0,0:0:0:0:
320,192,24922,1,0,0:0:0:0:
192,192,24969,1,0,0:0:0:0:
64,192,25015,1,0,0:0:0:0:
448,192,25062,1,0,0:0:0:0:
320,192,25109,1,0,0:0:0:0:
192,192,25156,1,0,0:0:0:0:
64,192,25203,1,0,0:0:0:0:
448,192,25250,1,0,0:0:0:0:
320,192,25297,1,0,0:0:0:0:
192,192,25344,1,0,0:0:0:0:
64,192,25390,1,0,0:0:0:0:
448,192,25437,1,0,0:0:0:0:
320,192,25484,1,0,0:0:0:0:
192,192,25531,1,0,0:0:0:0:
64,192,25578,1,0,0:0:0:0:
448,192,25625,1,0,0:0:0:0:
320,192,25672,1,0,0:0:0:0:
192,192,25719,1,0,0:0:0:0:
64,192,25765,1,0,0:0:0:0:
448,192,25812,1,0,0:0:0:0:
320,192,25859,1,0,0:0:0:0:
192,192,25906,1,0,0:0:0:0:
64,192,25953,1,0,0:0:0:0:
448,192,26000,1,0,0:0:0:0:
320,192,26047,1,0,0:0:0:0:
192,192,26094,1,0,0:0:0:0:
64,192,26140,1,0,0:0:0:0:
448,192,26187,1,0,0:0:0:0:
192,192,26234,1,0,0:0:0:0:
320,192,26281,1,0,0:0:0:0:
448,192,26328,1,0,0:0:0:0:
64,192,26375,1,0,0:0:0:0:
192,192,26422,1,0,0:0:0:0:
320,192,26469,1,0,0:0:0:0:
448,192,26515,1,0,0:0:0:0:
64,192,26562,1,0,0:0:0:0:
192,192,26609,1,0,0:0:0:0:
320,192,26656,1,0,0:0:0:0:
448,192,26703,1,0,0:0:0:0:
64,192,26750,1,0,0:0:0:0:
192,192,26797,1,0,0:0:0:0:
320,192,26844,1,0,0:0:0:0:
448,192,26890,1,0,0:0:0:0:
64,192,26937,1,0,0:0:0:0:
192,192,26984,1,0,0:0:0:0:
448,192,27031,1,0,0:0:0:0:
320,192,27078,1,0,0:0:0:0:
192,192,27125,1,0,0:0:0:0:
448,192,27172,1,0,0:0:0:0:
320,192,27219,1,0,0:0:0:0:
64,192,27265,1,0,0:0:0:0:
192,192,27312,1,0,0:0:0:0:
320,192,27359,1,0,0:0:0:0:
64,192,27406,1,0,0:0:0:0:
192,192,27453,1,0,0:0:0:0:
448,192,27500,1,0,0:0:0:0:
320,192,27547,1,0,0:0:0:0:
192,192,27594,1,0,0:0:0:0:
448,192,27640,1,0,0:0:0:0:
320,192,27687,1,0,0:0:0:0:
64,192,27734,1,0,0:0:0:0:
192,192,27781,1,0,0:0:0:0:
320,192,27828,1,0,0:0:0:0:
448,192,27875,1,0,0:0:0:0:
64,192,27922,1,0,0:0:0:0:
192,192,27969,1,0,0:0:0:0:
448,192,28015,1,0,0:0:0:0:
320,192,28062,1,0,0:0:0:0:
192,192,28109,1,0,0:0:0:0:
64,192,28156,1,0,0:0:0:0:
448,192,28203,1,0,0:0:0:0:
320,192,28250,1,0,0:0:0:0:
64,192,28297,1,0,0:0:0:0:
192,192,28344,1,0,0:0:0:0:
320,192,28390,1,0,0:0:0:0:
64,192,28437,1,0,0:0:0:0:
448,192,28484,1,0,0:0:0:0:
320,192,28531,1,0,0:0:0:0:
192,192,28578,1,0,0:0:0:0:
448,192,28625,1,0,0:0:0:0:
64,192,28672,1,0,0:0:0:0:
192,192,28719,1,0,0:0:0:0:
320,192,28765,1,0,0:0:0:0:
448,192,28812,1,0,0:0:0:0:
64,192,28859,1,0,0:0:0:0:
192,192,28906,1,0,0:0:0:0:
320,192,28953,1,0,0:0:0:0:
64,192,29000,1,0,0:0:0:0:
448,192,29047,1,0,0:0:0:0:
320,192,29094,1,0,0:0:0:0:
192,192,29140,1,0,0:0:0:0:
64,192,29187,1,0,0:0:0:0:
448,192,29234,1,0,0:0:0:0:
320,192,29281,1,0,0:0:0:0:
192,192,29328,1,0,0:0:0:0:
448,192,29375,1,0,0:0:0:0:
320,192,29422,1,0,0:0:0:0:
192,192,29469,1,0,0:0:0:0:
64,192,29515,1,0,0:0:0:0:
320,192,29562,1,0,0:0:0:0:
192,192,29609,1,0,0:0:0:0:
64,192,29656,1,0,0:0:0:0:
448,192,29703,1,0,0:0:0:0:
320,192,29750,1,0,0:0:0:0:
64,192,29797,1,0,0:0:0:0:
192,192,29844,1,0,0:0:0:0:
320,192,29890,1,0,0:0:0:0:
448,192,29937,1,0,0:0:0:0:
192,192,29984,1,0,0:0:0:0:
320,192,30031,1,0,0:0:0:0:
448,192,30078,1,0,0:0:0:0:
64,192,30125,1,0,0:0:0:0:
192,192,30172,1,0,0:0:0:0:
448,192,30219,1,0,0:0:0:0:
320,192,30265,1,0,0:0:0:0:
192,192,30312,1,0,0:0:0:0:
64,192,30359,1,0,0:0:0:0:
448,192,30406,1,0,0:0:0:0:
320,192,30453,1,0,0:0:0:0:
64,192,30500,1,0,0:0:0:0:
192,192,30547,1,0,0:0:0:0:
320,192,30594,1,0,0:0:0:0:
448,192,30640,1,0,0:0:0:0:
64,192,30687,1,0,0:0:0:0:
192,192,30734,1,0,0:0:0:0:
448,192,30781,1,0,0:0:0:0:
320,192,30828,1,0,0:0:0:0:
192,192,30875,1,0,0:0:0:0:
64,192,30922,1,0,0:0:0:0:
448,192,30969,1,0,0:0:0:0:
320,192,31015,1,0,0:0:0:0:
64,192,31062,1,0,0:0:0:0:
192,192,31109,1,0,0:0:0:0:
320,192,31156,1,0,0:0:0:0:
448,192,31203,1,0,0:0:0:0:
64,192,31250,1,0,0:0:0:0:
192,192,31297,1,0,0:0:0:0:
448,192,31344,1,0,0:0:0:0:
320,192,31390,1,0,0:0:0:0:
192,192,31437,1,0,0:0:0:0:
448,192,31484,1,0,0:0:0:0:
64,192,31531,1,0,0:0:0:0:
192,192,31578,1,0,0:0:0:0:
320,192,31625,1,0,0:0:0:0:
64,192,31672,1,0,0:0:0:0:
448,192,31719,1,0,0:0:0:0:
320,192,31765,1,0,0:0:0:0:
192,192,31812,1,0,0:0:0:0:
64,192,31859,1,0,0:0:0:0:
448,192,31906,1,0,0:0:0:0:
320,192,31953,1,0,0:0:0:0:
192,192,32000,1,0,0:0:0:0:
448,192,32047,1,0,0:0:0:0:
64,192,32094,1,0,0:0:0:0:
192,192,32140,1,0,0:0:0:0:
320,192,32187,1,0,0:0:0:0:
448,192,32234,1,0,0:0:0:0:
64,192,32281,1,0,0:0:0:0:
192,192,32328,1,0,0:0:0:0:
320,192,32375,1,0,0:0:0:0:
64,192,32422,1,0,0:0:0:0:
192,192,32469,1,0,0:0:0:0:
320,192,32515,1,0,0:0:0:0:
448,192,32562,1,0,0:0:0:0:
192,192,32609,1,0,0:0:0:0:
320,192,32656,1,0,0:0:0:0:
448,192,32703,1,0,0:0:0:0:
64,192,32750,1,0,0:0:0:0:
192,192,32797,1,0,0:0:0:0:
448,192,32844,1,0,0:0:0:0:
320,192,32890,1,0,0:0:0:0:
192,192,32937,1,0,0:0:0:0:
64,192,32984,1,0,0:0:0:0:
320,192,33031,1,0,0:0:0:0:
192,192,33078,1,0,0:0:0:0:
64,192,33125,1,0,0:0:0:0:
448,192,33172,1,0,0:0:0:0:
320,192,33219,1,0,0:0:0:0:
64,192,33265,1,0,0:0:0:0:
192,192,33312,1,0,0:0:0:0:
320,192,33359,1,0,0:0:0:0:
448,192,33406,1,0,0:0:0:0:
64,192,33453,1,0,0:0:0:0:
192,192,33500,1,0,0:0:0:0:
448,192,33547,1,0,0:0:0:0:
320,192,33594,1,0,0:0:0:0:
192,192,33640,1,0,0:0:0:0:
64,192,33687,1,0,0:0:0:0:
448,192,33734,1,0,0:0:0:0:
320,192,33781,1,0,0:0:0:0:
64,192,33828,1,0,0:0:0:0:
192,192,33875,1,0,0:0:0:0:
320,192,33922,1,0,0:0:0:0:
448,192,33969,1,0,0:0:0:0:
64,192,34015,1,0,0:0:0:0:
192,192,34062,1,0,0:0:0:0:
448,192,34109,1,0,0:0:0:0:
320,192,34156,1,0,0:0:0:0:
192,192,34203,1,0,0:0:0:0:
64,192,34250,1,0,0:0:0:0:
448,192,34297,1,0,0:0:0:0:
320,192,34344,1,0,0:0:0:0:
64,192,34390,1,0,0:0:0:0:
192,192,34437,1,0,0:0:0:0:
320,192,34484,1,0,0:0:0:0:
64,192,34531,1,0,0:0:0:0:
448,192,34578,1,0,0:0:0:0:
320,192,34625,1,0,0:0:0:0:
192,192,34672,1,0,0:0:0:0:
448,192,34719,1,0,0:0:0:0:
64,192,34765,1,0,0:0:0:0:
192,192,34812,1,0,0:0:0:0:
320,192,34859,1,0,0:0:0:0:
448,192,34906,1,0,0:0:0:0:
64,192,34953,1,0,0:0:0:0:
192,192,35000,1,0,0:0:0:0:
320,192,35047,1,0,0:0:0:0:
64,192,35094,1,0,0:0:0:0:
448,192,35140,1,0,0:0:0:0:
320,192,35187,1,0,0:0:0:0:
192,192,35234,1,0,0:0:0:0:
64,192,35281,1,0,0:0:0:0:
448,192,35328,1,0,0:0:0:0:
320,192,35375,1,0,0:0:0:0:
192,192,35422,1,0,0:0:0:0:
448,192,35469,1,0,0:0:0:0:
320,192,35515,1,0,0:0:0:0:
192,192,35562,1,0,0:0:0:0:
64,192,35609,1,0,0:0:0:0:
320,192,35656,1,0,0:0:0:0:
192,192,35703,1,0,0:0:0:0:
64,192,35750,1,0,0:0:0:0:
448,192,35797,1,0,0:0:0:0:
320,192,35844,1,0,0:0:0:0:
64,192,35890,1,0,0:0:0:0:
192,192,35937,1,0,0:0:0:0:
320,192,35984,1,0,0:0:0:0:
448,192,36031,1,0,0:0:0:0:
192,192,36078,1,0,0:0:0:0:
320,192,36125,1,0,0:0:0:0:
448,192,36172,1,0,0:0:0:0:
64,192,36219,1,0,0:0:0:0:
192,192,36265,1,0,0:0:0:0:
448,192,36312,1,0,0:0:0:0:
320,192,36359,1,0,0:0:0:0:
192,192,36406,1,0,0:0:0:0:
64,192,36453,1,0,0:0:0:0:
448,192,36500,1,0,0:0:0:0:
320,192,36547,1,0,0:0:0:0:
64,192,36594,1,0,0:0:0:0:
192,192,36640,1,0,0:0:0:0:
320,192,36687,1,0,0:0:0:0:
448,192,36734,1,0,0:0:0:0:
64,192,36781,1,0,0:0:0:0:
192,192,36828,1,0,0:0:0:0:
448,192,36875,1,0,0:0:0:0:
320,192,36922,1,0,0:0:0:0:
192,192,36969,1,0,0:0:0:0:
64,192,37015,1,0,0:0:0:0:
448,192,37062,1,0,0:0:0:0:
320,192,37109,1,0,0:0:0:0:
64,192,37156,1,0,0:0:0:0:
192,192,37203,1,0,0:0:0:0:
320,192,37250,1,0,0:0:0:0:
448,192,37297,1,0,0:0:0:0:
64,192,37344,1,0,0:0:0:0:
192,192,37390,1,0,0:0:0:0:
448,192,37437,1,0,0:0:0:0:
320,192,37484,1,0,0:0:0:0:
192,192,37531,1,0,0:0:0:0:
448,192,37578,1,0,0:0:0:0:
64,192,37625,1,0,0:0:0:0:
192,192,37672,1,0,0:0:0:0:
320,192,37719,1,0,0:0:0:0:
64,192,37765,1,0,0:0:0:0:
448,192,37812,1,0,0:0:0:0:
320,192,37859,1,0,0:0:0:0:
192,192,37906,1,0,0:0:0:0:
64,192,37953,1,0,0:0:0:0:
448,192,38000,1,0,0:0:0:0:
320,192,38047,1,0,0:0:0:0:
192,192,38094,1,0,0:0:0:0:
448,192,38140,1,0,0:0:0:0:
64,192,38187,1,0,0:0:0:0:
192,192,38234,1,0,0:0:0:0:
320,192,38281,1,0,0:0:0:0:
448,192,38328,1,0,0:0:0:0:
64,192,38375,1,0,0:0:0:0:
192,192,38422,1,0,0:0:0:0:
320,192,38469,1,0,0:0:0:0:
64,192,38515,1,0,0:0:0:0:
192,192,38562,1,0,0:0:0:0:
320,192,38609,1,0,0:0:0:0:
448,192,38656,1,0,0:0:0:0:
192,192,38703,1,0,0:0:0:0:
320,192,38750,1,0,0:0:0:0:
448,192,38797,1,0,0:0:0:0:
64,192,38844,1,0,0:0:0:0:
192,192,38890,1,0,0:0:0:0:
448,192,38937,1,0,0:0:0:0:
320,192,38984,1,0,0:0:0:0:
192,192,39031,1,0,0:0:0:0:
64,192,39078,1,0,0:0:0:0:
320,192,39125,1,0,0:0:0:0:
192,192,39172,1,0,0:0:0:0:
64,192,39219,1,0,0:0:0:0:
448,192,39265,1,0,0:0:0:0:
320,192,39312,1,0,0:0:0:0:
64,192,39359,1,0,0:0:0:0:
192,192,39406,1,0,0:0:0:0:
320,192,39453,1,0,0:0:0:0:
448,192,39500,1,0,0:0:0:0:
64,192,39547,1,0,0:0:0:0:
192,192,39594,1,0,0:0:0:0:
448,192,39640,1,0,0:0:0:0:
320,192,39687,1,0,0:0:0:0:
192,192,39734,1,0,0:0:0:0:
64,192,39781,1,0,0:0:0:0:
448,192,39828,1,0,0:0:0:0:
320,192,39875,1,0,0:0:0:0:
64,192,39922,1,0,0:0:0:0:
192,192,39969,1,0,0:0:0:0:
320,192,40015,1,0,0:0:0:0:
448,192,40062,1,0,0:0:0:0:
64,192,40109,1,0,0:0:0:0:
192,192,40156,1,0,0:0:0:0:
448,192,40203,1,0,0:0:0:0:
320,192,40250,1,0,0:0:0:0:
192,192,40297,1,0,0:0:0:0:
64,192,40344,1,0,0:0:0:0:
448,192,40390,1,0,0:0:0:0:
320,192,40437,1,0,0:0:0:0:
64,192,40484,1,0,0:0:0:0:
192,192,40531,1,0,0:0:0:0:
320,192,40578,1,0,0:0:0:0:
64,192,40625,1,0,0:0:0:0:
448,192,40672,1,0,0:0:0:0:
320,192,40719,1,0,0:0:0:0:
192,192,40765,1,0,0:0:0:0:
448,192,40812,1,0,0:0:0:0:
64,192,40859,1,0,0:0:0:0:
192,192,40906,1,0,0:0:0:0:
320,192,40953,1,0,0:0:0:0:
448,192,41000,1,0,0:0:0:0:
64,192,41047,1,0,0:0:0:0:
192,192,41094,1,0,0:0:0:0:
320,192,41140,1,0,0:0:0:0:
64,192,41187,1,0,0:0:0:0:
448,192,41234,1,0,0:0:0:0:
320,192,41281,1,0,0:0:0:0:
192,192,41328,1,0,0:0:0:0:
64,192,41375,1,0,0:0:0:0:
448,192,41422,1,0,0:0:0:0:
320,192,41469,1,0,0:0:0:0:
192,192,41515,1,0,0:0:0:0:
448,192,41562,1,0,0:0:0:0:
320,192,41609,1,0,0:0:0:0:
192,192,41656,1,0,0:0:0:0:
64,192,41703,1,0,0:0:0:0:
320,192,41750,1,0,0:0:0:0:
192,192,41797,1,0,0:0:0:0:
64,192,41844,1,0,0:0:0:0:
448,192,41890,1,0,0:0:0:0:
320,192,41937,1,0,0:0:0:0:
64,192,41984,1,0,0:0:0:0:
192,192,42031,1,0,0:0:0:0:
320,192,42078,1,0,0:0:0:0:
448,192,42125,1,0,0:0:0:0:
192,192,42172,1,0,0:0:0:0:
320,192,42219,1,0,0:0:0:0:
448,192,42265,1,0,0:0:0:0:
64,192,42312,1,0,0:0:0:0:
192,192,42359,1,0,0:0:0:0:
448,192,42406,1,0,0:0:0:0:
320,192,42453,1,0,0:0:0:0:
192,192,42500,1,0,0:0:0:0:
64,192,42547,1,0,0:0:0:0:
448,192,42594,1,0,0:0:0:0:
320,192,42640,1,0,0:0:0:0:
64,192,42687,1,0,0:0:0:0:
192,192,42734,1,0,0:0:0:0:
320,192,42781,1,0,0:0:0:0:
448,192,42828,1,0,0:0:0:0:
64,192,42875,1,0,0:0:0:0:
192,192,42922,1,0,0:0:0:0:
448,192,42969,1,0,0:0:0:0:
320,192,43015,1,0,0:0:0:0:
192,192,43062,1,0,0:0:0:0:
64,192,43109,1,0,0:0:0:0:
448,192,43156,1,0,0:0:0:0:
320,192,43203,1,0,0:0:0:0:
64,192,43250,1,0,0:0:0:0:
192,192,43297,1,0,0:0:0:0:
320,192,43344,1,0,0:0:0:0:
448,192,43390,1,0,0:0:0:0:
64,192,43437,1,0,0:0:0:0:
192,192,43484,1,0,0:0:0:0:
448,192,43531,1,0,0:0:0:0:
320,192,43578,1,0,0:0:0:0:
192,192,43625,1,0,0:0:0:0:
448,192,43672,1,0,0:0:0:0:
64,192,43719,1,0,0:0:0:0:
192,192,43765,1,0,0:0:0:0:
320,192,43812,1,0,0:0:0:0:
64,192,43859,1,0,0:0:0:0:
448,192,43906,1,0,0:0:0:0:
320,192,43953,1,0,0:0:0:0:
192,192,44000,1,0,0:0:0:0:
64,192,44047,1,0,0:0:0:0:
448,192,44094,1,0,0:0:0:0:
320,192,44140,1,0,0:0:0:0:
192,192,44187,1,0,0:0:0:0:
448,192,44234,1,0,0:0:0:0:
64,192,44281,1,0,0:0:0:0:
192,192,44328,1,0,0:0:0:0:
320,192,44375,1,0,0:0:0:0:
448,192,44422,1,0,0:0:0:0:
64,192,44469,1,0,0:0:0:0:
192,192,44515,1,0,0:0:0:0:
320,192,44562,1,0,0:0:0:0:
64,192,44609,1,0,0:0:0:0:
192,192,44656,1,0,0:0:0:0:
320,192,44703,1,0,0:0:0:0:
448,192,44750,1,0,0:0:0:0:
192,192,44797,1,0,0:0:0:0:
320,192,44844,1,0,0:0:0:0:
448,192,44890,1,0,0:0:0:0:
64,192,44937,1,0,0:0:0:0:
192,192,44984,1,0,0:0:0:0:
448,192,45031,1,0,0:0:0:0:
320,192,45078,1,0,0:0:0:0:
192,192,45125,1,0,0:0:0:0:
64,192,45172,1,0,0:0:0:0:
320,192,45219,1,0,0:0:0:0:
192,192,45265,1,0,0:0:0:0:
64,192,45312,1,0,0:0:0:0:
448,192,45359,1,0,0:0:0:0:
320,192,45406,1,0,0:0:0:0:
64,192,45453,1,0,0:0:0:0:
192,192,45500,1,0,0:0:0:0:
320,192,45547,1,0,0:0:0:0:
448,192,45594,1,0,0:0:0:0:
64,192,45640,1,0,0:0:0:0:
192,192,45687,1,0,0:0:0:0:
448,192,45734,1,0,0:0:0:0:
320,192,45781,1,0,0:0:0:0:
192,192,45828,1,0,0:0:0:0:
64,192,45875,1,0,0:0:0:0:
448,192,45922,1,0,0:0:0:0:
320,192,45969,1,0,0:0:0:0:
64,192,46015,1,0,0:0:0:0:
192,192,46062,1,0,0:0:0:0:
320,192,46109,1,0,0:0:0:0:
448,192,46156,1,0,0:0:0:0:
64,192,46203,1,0,0:0:0:0:
192,192,46250,1,0,0:0:0:0:
448,192,46297,1,0,0:0:0:0:
320,192,46344,1,0,0:0:0:0:
192,192,46390,1,0,0:0:0:0:
64,192,46437,1,0,0:0:0:0:
448,192,46484,1,0,0:0:0:0:
320,192,46531,1,0,0:0:0:0:
64,192,46578,1,0,0:0:0:0:
192,192,46625,1,0,0:0:0:0:
320,192,46672,1,0,0:0:0:0:
64,192,46719,1,0,0:0:0:0:
448,192,46765,1,0,0:0:0:0:
320,192,46812,1,0,0:0:0:0:
192,192,46859,1,0,0:0:0:0:
448,192,46906,1,0,0:0:0:0:
64,192,46953,1,0,0:0:0:0:
192,192,47000,1,0,0:0:0:0:
320,192,47047,1,0,0:0:0:0:
448,192,47094,1,0,0:0:0:0:
64,192,47140,1,0,0:0:0:0:
192,192,47187,1,0,0:0:0:0:
320,192,47234,1,0,0:0:0:0:
64,192,47281,1,0,0:0:0:0:
448,192,47328,1,0,0:0:0:0:
320,192,47375,1,0,0:0:0:0:
192,192,47422,1,0,0:0:0:0:
64,192,47469,1,0,0:0:0:0:
448,192,47515,1,0,0:0:0:0:
320,192,47562,1,0,0:0:0:0:
192,192,47609,1,0,0:0:0:0:
448,192,47656,1,0,0:0:0:0:
320,192,47703,1,0,0:0:0:0:
192,192,47750,1,0,0:0:0:0:
64,192,47797,1,0,0:0:0:0:
320,192,47844,1,0,0:0:0:0:
192,192,47890,1,0,0:0:0:0:
64,192,47937,1,0,0:0:0:0:
448,192,47984,1,0,0:0:0:0:
320,192,48031,1,0,0:0:0:0:
64,192,48078,1,0,0:0:0:0:
192,192,48125,1,0,0:0:0:0:
320,192,48172,1,0,0:0:0:0:
448,192,48219,1,0,0:0:0:0:
192,192,48265,1,0,0:0:0:0:
320,192,48312,1,0,0:0:0:0:
448,192,48359,1,0,0:0:0:0:
64,192,48406,1,0,0:0:0:0:
192,192,48453,1,0,0:0:0:0:
448,192,48500,1,0,0:0:0:0:
320,192,48547,1,0,0:0:0:0:
192,192,48594,1,0,0:0:0:0:
64,192,48640,1,0,0:0:0:0:
448,192,48687,1,0,0:0:0:0:
320,192,48734,1,0,0:0:0:0:
64,192,48781,1,0,0:0:0:0:
192,192,48828,1,0,0:0:0:0:
320,192,48875,1,0,0:0:0:0:
448,192,48922,1,0,0:0:0:0:
64,192,48969,1,0,0:0:0:0:
192,192,49015,1,0,0:0:0:0:
448,192,49062,1,0,0:0:0:0:
320,192,49109,1,0,0:0:0:0:
192,192,49156,1,0,0:0:0:0:
64,192,49203,1,0,0:0:0:0:
448,192,49250,1,0,0:0:0:0:
320,192,49297,1,0,0:0:0:0:
64,192,49344,1,0,0:0:0:0:
192,192,49390,1,0,0:0:0:0:
320,192,49437,1,0,0:0:0:0:
448,192,49484,1,0,0:0:0:0:
64,192,49531,1,0,0:0:0:0:
192,192,49578,1,0,0:0:0:0:
448,192,49625,1,0,0:0:0:0:
320,192,49672,1,0,0:0:0:0:
192,192,49719,1,0,0:0:0:0:
448,192,49765,1,0,0:0:0:0:
64,192,49812,1,0,0:0:0:0:
192,192,49859,1,0,0:0:0:0:
320,192,49906,1,0,0:0:0:0:
64,192,49953,1,0,0:0:0:0:
448,192,50000,1,0,0:0:0:0:
320,192,50047,1,0,0:0:0:0:
192,192,50094,1,0,0:0:0:0:
64,192,50140,1,0,0:0:0:0:
448,192,50187,1,0,0:0:0:0:
320,192,50234,1,0,0:0:0:0:
192,192,50281,1,0,0:0:0:0:
448,192,50328,1,0,0:0:0:0:
64,192,50375,1,0,0:0:0:0:
192,192,50422,1,0,0:0:0:0:
320,192,50469,1,0,0:0:0:0:
448,192,50515,1,0,0:0:0:0:
64,192,50562,1,0,0:0:0:0:
192,192,50609,1,0,0:0:0:0:
320,192,50656,1,0,0:0:0:0:
64,192,50703,1,0,0:0:0:0:
192,192,50750,1,0,0:0:0:0:
320,192,50797,1,0,0:0:0:0:
448,192,50844,1,0,0:0:0:0:
192,192,50890,1,0,0:0:0:0:
320,192,50937,1,0,0:0:0:0:
448,192,50984,1,0,0:0:0:0:
64,192,51031,1,0,0:0:0:0:
192,192,51078,1,0,0:0:0:0:
448,192,51125,1,0,0:0:0:0:
320,192,51172,1,0,0:0:0:0:
192,192,51219,1,0,0:0:0:0:
64,192,51265,1,0,0:0:0:0:
320,192,51312,1,0,0:0:0:0:
192,192,51359,1,0,0:0:0:0:
64,192,51406,1,0,0:0:0:0:
448,192,51453,1,0,0:0:0:0:
320,192,51500,1,0,0:0:0:0:
64,192,51547,1,0,0:0:0:0:
192,192,51594,1,0,0:0:0:0:
320,192,51640,1,0,0:0:0:0:
448,192,51687,1,0,0:0:0:0:
64,192,51734,1,0,0:0:0:0:
192,192,51781,1,0,0:0:0:0:
448,192,51828,1,0,0:0:0:0:
320,192,51875,1,0,0:0:0:0:
192,192,51922,1,0,0:0:0:0:
64,192,51969,1,0,0:0:0:0:
448,192,52015,1,0,0:0:0:0:
320,192,52062,1,0,0:0:0:0:
192,192,52109,1,0,0:0:0:0:
64,192,52156,1,0,0:0:0:0:
448,192,52203,1,0,0:0:0:0:
320,192,52250,1,0,0:0:0:0:
192,192,52297,1,0,0:0:0:0:
64,192,52344,1,0,0:0:0:0:
448,192,52390,1,0,0:0:0:0:
320,192,52437,1,0,0:0:0:0:
192,192,52484,1,0,0:0:0:0:
64,192,52531,1,0,0:0:0:0:
448,192,52578,1,0,0:0:0:0:
320,192,52625,1,0,0:0:0:0:
192,192,52672,1,0,0:0:0:0:
64,192,52719,1,0,0:0:0:0:
448,192,52765,1,0,0:0:0:0:
320,192,52812,1,0,0:0:0:0:
192,192,52859,1,0,0:0:0:0:
64,192,52906,1,0,0:0:0:0:
448,192,52953,1,0,0:0:0:0:
320,192,53000,1,0,0:0:0:0:
192,192,53047,1,0,0:0:0:0:
64,192,53094,1,0,0:0:0:0:
448,192,53140,1,0,0:0:0:0:
320,192,53187,1,0,0:0:0:0:
192,192,53234,1,0,0:0:0:0:
64,192,53281,1,0,0:0:0:0:
448,192,53328,1,0,0:0:0:0:
192,192,53375,1,0,0:0:0:0:
320,192,53422,1,0,0:0:0:0:
448,192,53469,1,0,0:0:0:0:
64,192,53515,1,0,0:0:0:0:
192,192,53562,1,0,0:0:0:0:
320,192,53609,1,0,0:0:0:0:
448,192,53656,1,0,0:0:0:0:
64,192,53703,1,0,0:0:0:0:
192,192,53750,1,0,0:0:0:0:
320,192,53797,1,0,0:0:0:0:
448,192,53844,1,0,0:0:0:0:
64,192,53890,1,0,0:0:0:0:
192,192,53937,1,0,0:0:0:0:
320,192,53984,1,0,0:0:0:0:
448,192,54031,1,0,0:0:0:0:
64,192,54078,1,0,0:0:0:0:
192,192,54125,1,0,0:0:0:0:
448,192,54172,1,0,0:0:0:0:
320,192,54219,1,0,0:0:0:0:
192,192,54265,1,0,0:0:0:0:
448,192,54312,1,0,0:0:0:0:
320,192,54359,1,0,0:0:0:0:
64,192,54406,1,0,0:0:0:0:
192,192,54453,1,0,0:0:0:0:
320,192,54500,1,0,0:0:0:0:
64,192,54547,1,0,0:0:0:0:
192,192,54594,1,0,0:0:0:0:
448,192,54640,1,0,0:0:0:0:
320,192,54687,1,0,0:0:0:0:
192,192,54734,1,0,0:0:0:0:
448,192,54781,1,0,0:0:0:0:
320,192,54828,1,0,0:0:0:0:
64,192,54875,1,0,0:0:0:0:
192,192,54922,1,0,0:0:0:0:
320,192,54969,1,0,0:0:0:0:
448,192,55015,1,0,0:0:0:0:
64,192,55062,1,0,0:0:0:0:
192,192,55109,1,0,0:0:0:0:
448,192,55156,1,0,0:0:0:0:
320,192,55203,1,0,0:0:0:0:
192,192,55250,1,0,0:0:0:0:
64,192,55297,1,0,0:0:0:0:
448,192,55344,1,0,0:0:0:0:
320,192,55390,1,0,0:0:0:0:
64,192,55437,1,0,0:0:0:0:
192,192,55484,1,0,0:0:0:0:
320,192,55531,1,0,0:0:0:0:
64,192,55578,1,0,0:0:0:0:
448,192,55625,1,0,0:0:0:0:
320,192,55672,1,0,0:0:0:0:
192,192,55719,1,0,0:0:0:0:
448,192,55765,1,0,0:0:0:0:
64,192,55812,1,0,0:0:0:0:
192,192,55859,1,0,0:0:0:0:
320,192,55906,1,0,0:0:0:0:
448,192,55953,1,0,0:0:0:0:
64,192,56000,1,0,0:0:0:0:
192,192,56047,1,0,0:0:0:0:
320,192,56094,1,0,0:0:0:0:
64,192,56140,1,0,0:0:0:0:
448,192,56187,1,0,0:0:0:0:
320,192,56234,1,0,0:0:0:0:
192,192,56281,1,0,0:0:0:0:
64,192,56328,1,0,0:0:0:0:
448,192,56375,1,0,0:0:0:0:
320,192,56422,1,0,0:0:0:0:
192,192,56469,1,0,0:0:0:0:
448,192,56515,1,0,0:0:0:0:
320,192,56562,1,0,0:0:0:0:
192,192,56609,1,0,0:0:0:0:
64,192,56656,1,0,0:0:0:0:
320,192,56703,1,0,0:0:0:0:
192,192,56750,1,0,0:0:0:0:
64,192,56797,1,0,0:0:0:0:
448,192,56844,1,0,0:0:0:0:
320,192,56890,1,0,0:0:0:0:
64,192,56937,1,0,0:0:0:0:
192,192,56984,1,0,0:0:0:0:
320,192,57031,1,0,0:0:0:0:
448,192,57078,1,0,0:0:0:0:
192,192,57125,1,0,0:0:0:0:
320,192,57172,1,0,0:0:0:0:
448,192,57219,1,0,0:0:0:0:
64,192,57265,1,0,0:0:0:0:
192,192,57312,1,0,0:0:0:0:
448,192,57359,1,0,0:0:0:0:
320,192,57406,1,0,0:0:0:0:
192,192,57453,1,0,0:0:0:0:
64,192,57500,1,0,0:0:0:0:
448,192,57547,1,0,0:0:0:0:
320,192,57594,1,0,0:0:0:0:
64,192,57640,1,0,0:0:0:0:
192,192,57687,1,0,0:0:0:0:
320,192,57734,1,0,0:0:0:0:
448,192,57781,1,0,0:0:0:0:
64,192,57828,1,0,0:0:0:0:
192,192,57875,1,0,0:0:0:0:
448,192,57922,1,0,0:0:0:0:
320,192,57969,1,0,0:0:0:0:
192,192,58015,1,0,0:0:0:0:
64,192,58062,1,0,0:0:0:0:
448,192,58109,1,0,0:0:0:0:
320,192,58156,1,0,0:0:0:0:
64,192,58203,1,0,0:0:0:0:
192,192,58250,1,0,0:0:0:0:
320,192,58297,1,0,0:0:0:0:
448,192,58344,1,0,0:0:0:0:
64,192,58390,1,0,0:0:0:0:
192,192,58437,1,0,0:0:0:0:
448,192,58484,1,0,0:0:0:0:
320,192,58531,1,0,0:0:0:0:
192,192,58578,1,0,0:0:0:0:
448,192,58625,1,0,0:0:0:0:
64,192,58672,1,0,0:0:0:0:
192,192,58719,1,0,0:0:0:0:
320,192,58765,1,0,0:0:0:0:
64,192,58812,1,0,0:0:0:0:
448,192,58859,1,0,0:0:0:0:
320,192,58906,1,0,0:0:0:0:
192,192,58953,1,0,0:0:0:0:
64,192,59000,1,0,0:0:0:0:
448,192,59047,1,0,0:0:0:0:
320,192,59094,1,0,0:0:0:0:
192,192,59140,1,0,0:0:0:0:
448,192,59187,1,0,0:0:0:0:
64,192,59234,1,0,0:0:0:0:
192,192,59281,1,0,0:0:0:0:
320,192,59328,1,0,0:0:0:0:
448,192,59375,1,0,0:0:0:0:
64,192,59422,1,0,0:0:0:0:
192,192,59469,1,0,0:0:0:0:
320,192,59515,1,0,0:0:0:0:
64,192,59562,1,0,0:0:0:0:
192,192,59609,1,0,0:0:0:0:
320,192,59656,1,0,0:0:0:0:
448,192,59703,1,0,0:0:0:0:
192,192,59750,1,0,0:0:0:0:
320,192,59797,1,0,0:0:0:0:
448,192,59844,1,0,0:0:0:0:
64,192,59890,1,0,0:0:0:0:
192,192,59937,1,0,0:0:0:0:
448,192,59984,1,0,0:0:0:0:
320,192,60031,1,0,0:0:0:0:
192,192,60078,1,0,0:0:0:0:
64,192,60125,1,0,0:0:0:0:
320,192,60172,1,0,0:0:0:0:
192,192,60219,1,0,0:0:0:0:
64,192,60265,1,0,0:0:0:0:
448,192,60312,1,0,0:0:0:0:
320,192,60359,1,0,0:0:0:0:
64,192,60406,1,0,0:0:0:0:
192,192,60453,1,0,0:0:0:0:
320,192,60500,1,0,0:0:0:0:
448,192,60547,1,0,0:0:0:0:
64,192,60594,1,0,0:0:0:0:
192,192,60640,1,0,0:0:0:0:
448,192,60687,1,0,0:0:0:0:
320,192,60734,1,0,0:0:0:0:
192,192,60781,1,0,0:0:0:0:
64,192,60828,1,0,0:0:0:0:
448,192,60875,1,0,0:0:0:0:
320,192,60922,1,0,0:0:0:0:
64,192,60969,1,0,0:0:0:0:
192,192,61015,1,0,0:0:0:0:
320,192,61062,1,0,0:0:0:0:
448,192,61109,1,0,0:0:0:0:
64,192,61156,1,0,0:0:0:0:
192,192,61203,1,0,0:0:0:0:
448,192,61250,1,0,0:0:0:0:
320,192,61297,1,0,0:0:0:0:
192,192,61344,1,0,0:0:0:0:
64,192,61390,1,0,0:0:0:0:
448,192,61437,1,0,0:0:0:0:
320,192,61484,1,0,0:0:0:0:
64,192,61531,1,0,0:0:0:0:
192,192,61578,1,0,0:0:0:0:
320,192,61625,1,0,0:0:0:0:
64,192,61672,1,0,0:0:0:0:
448,192,61719,1,0,0:0:0:0:
320,192,61765,1,0,0:0:0:0:
192,192,61812,1,0,0:0:0:0:
448,192,61859,1,0,0:0:0:0:
64,192,61906,1,0,0:0:0:0:
192,192,61953,1,0,0:0:0:0:
320,192,62000,1,0,0:0:0:0:
448,192,62047,1,0,0:0:0:0:
64,192,62094,1,0,0:0:0:0:
192,192,62140,1,0,0:0:0:0:
320,192,62187,1,0,0:0:0:0:
64,192,62234,1,0,0:0:0:0:
448,192,62281,1,0,0:0:0:0:
320,192,62328,1,0,0:0:0:0:
192,192,62375,1,0,0:0:0:0:
64,192,62422,1,0,0:0:0:0:
448,192,62469,1,0,0:0:0:0:
320,192,62515,1,0,0:0:0:0:
192,192,62562,1,0,0:0:0:0:
448,192,62609,1,0,0:0:0:0:
320,192,62656,1,0,0:0:0:0:
192,192,62703,1,0,0:0:0:0:
64,192,62750,1,0,0:0:0:0:
320,192,62797,1,0,0:0:0:0:
192,192,62844,1,0,0:0:0:0:
64,192,62890,1,0,0:0:0:0:
448,192,62937,1,0,0:0:0:0:
320,192,62984,1,0,0:0:0:0:
64,192,63031,1,0,0:0:0:0:
192,192,63078,1,0,0:0:0:0:
320,192,63125,1,0,0:0:0:0:
448,192,63172,1,0,0:0:0:0:
192,192,63219,1,0,0:0:0:0:
320,192,63265,1,0,0:0:0:0:
448,192,63312,1,0,0:0:0:0:
64,192,63359,1,0,0:0:0:0:
192,192,63406,1,0,0:0:0:0:
448,192,63453,1,0,0:0:0:0:
320,192,63500,1,0,0:0:0:0:
192,192,63547,1,0,0:0:0:0:
64,192,63594,1,0,0:0:0:0:
448,192,63640,1,0,0:0:0:0:
320,192,63687,1,0,0:0:0:0:
64,192,63734,1,0,0:0:0:0:
192,192,63781,1,0,0:0:0:0:
320,192,63828,1,0,0:0:0:0:
448,192,63875,1,0,0:0:0:0:
64,192,63922,1,0,0:0:0:0:
192,192,63969,1,0,0:0:0:0:
448,192,64015,1,0,0:0:0:0:
320,192,64062,1,0,0:0:0:0:
192,192,64109,1,0,0:0:0:0:
64,192,64156,1,0,0:0:0:0:
448,192,64203,1,0,0:0:0:0:
320,192,64250,1,0,0:0:0:0:
64,192,64297,1,0,0:0:0:0:
192,192,64344,1,0,0:0:0:0:
320,192,64390,1,0,0:0:0:0:
448,192,64437,1,0,0:0:0:0:
64,192,64484,1,0,0:0:0:0:
192,192,64531,1,0,0:0:0:0:
448,192,64578,1,0,0:0:0:0:
320,192,64625,1,0,0:0:0:0:
192,192,64672,1,0,0:0:0:0:
448,192,64719,1,0,0:0:0:0:
64,192,64765,1,0,0:0:0:0:
192,192,64812,1,0,0:0:0:0:
320,192,64859,1,0,0:0:0:0:
64,192,64906,1,0,0:0:0:0:
448,192,64953,1,0,0:0:0:0:
320,192,65000,1,0,0:0:0:0:
192,192,65047,1,0,0:0:0:0:
64,192,65094,1,0,0:0:0:0:
448,192,65140,1,0,0:0:0:0:
320,192,65187,1,0,0:0:0:0:
192,192,65234,1,0,0:0:0:0:
448,192,65281,1,0,0:0:0:0:
64,192,65328,1,0,0:0:0:0:
192,192,65375,1,0,0:0:0:0:
320,192,65422,1,0,0:0:0:0:
448,192,65469,1,0,0:0:0:0:
64,192,65515,1,0,0:0:0:0:
192,192,65562,1,0,0:0:0:0:
320,192,65609,1,0,0:0:0:0:
64,192,65656,1,0,0:0:0:0:
192,192,65703,1,0,0:0:0:0:
320,192,65750,1,0,0:0:0:0:
448,192,65797,1,0,0:0:0:0:
192,192,65844,1,0,0:0:0:0:
320,192,65890,1,0,0:0:0:0:
448,192,65937,1,0,0:0:0:0:
64,192,65984,1,0,0:0:0:0:
192,192,66031,1,0,0:0:0:0:
448,192,66078,1,0,0:0:0:0:
320,192,66125,1,0,0:0:0:0:
192,192,66172,1,0,0:0:0:0:
64,192,66219,1,0,0:0:0:0:
320,192,66265,1,0,0:0:0:0:
192,192,66312,1,0,0:0:0:0:
64,192,66359,1,0,0:0:0:0:
448,192,66406,1,0,0:0:0:0:
320,192,66453,1,0,0:0:0:0:
64,192,66500,1,0,0:0:0:0:
192,192,66547,1,0,0:0:0:0:
320,192,66594,1,0,0:0:0:0:
448,192,66640,1,0,0:0:0:0:
64,192,66687,1,0,0:0:0:0:
192,192,66734,1,0,0:0:0:0:
448,192,66781,1,0,0:0:0:0:
320,192,66828,1,0,0:0:0:0:
192,192,66875,1,0,0:0:0:0:
64,192,66922,1,0,0:0:0:0:
448,192,66969,1,0,0:0:0:0:
320,192,67015,1,0,0:0:0:0:
64,192,67062,1,0,0:0:0:0:
192,192,67109,1,0,0:0:0:0:
320,192,67156,1,0,0:0:0:0:
448,192,67203,1,0,0:0:0:0:
64,192,67250,1,0,0:0:0:0:
192,192,67297,1,0,0:0:0:0:
448,192,67344,1,0,0:0:0:0:
320,192,67390,1,0,0:0:0:0:
192,192,67437,1,0,0:0:0:0:
64,192,67484,1,0,0:0:0:0:
448,192,67531,1,0,0:0:0:0:
320,192,67578,1,0,0:0:0:0:
64,192,67625,1,0,0:0:0:0:
192,192,67672,1,0,0:0:0:0:
320,192,67719,1,0,0:0:0:0:
64,192,67765,1,0,0:0:0:0:
448,192,67812,1,0,0:0:0:0:
320,192,67859,1,0,0:0:0:0:
192,192,67906,1,0,0:0:0:0:
448,192,67953,1,0,0:0:0:0:
64,192,68000,1,0,0:0:0:0:
192,192,68047,1,0,0:0:0:0:
320,192,68094,1,0,0:0:0:0:
448,192,68140,1,0,0:0:0:0:
64,192,68187,1,0,0:0:0:0:
192,192,68234,1,0,0:0:0:0:
320,192,68281,1,0,0:0:0:0:
64,192,68328,1,0,0:0:0:0:
448,192,68375,1,0,0:0:0:0:
320,192,68422,1,0,0:0:0:0:
192,192,68469,1,0,0:0:0:0:
64,192,68515,1,0,0:0:0:0:
448,192,68562,1,0,0:0:0:0:
320,192,68609,1,0,0:0:0:0:
192,192,68656,1,0,0:0:0:0:
448,192,68703,1,0,0:0:0:0:
320,192,68750,1,0,0:0:0:0:
192,192,68797,1,0,0:0:0:0:
64,192,68844,1,0,0:0:0:0:
320,192,68890,1,0,0:0:0:0:
192,192,68937,1,0,0:0:0:0:
64,192,68984,1,0,0:0:0:0:
448,192,69031,1,0,0:0:0:0:
320,192,69078,1,0,0:0:0:0:
64,192,69125,1,0,0:0:0:0:
192,192,69172,1,0,0:0:0:0:
320,192,69219,1,0,0:0:0:0:
448,192,69265,1,0,0:0:0:0:
192,192,69312,1,0,0:0:0:0:
320,192,69359,1,0,0:0:0:0:
448,192,69406,1,0,0:0:0:0:
64,192,69453,1,0,0:0:0:0:
192,192,69500,1,0,0:0:0:0:
448,192,69547,1,0,0:0:0:0:
320,192,69594,1,0,0:0:0:0:
192,192,69640,1,0,0:0:0:0:
64,192,69687,1,0,0:0:0:0:
448,192,69734,1,0,0:0:0:0:
320,192,69781,1,0,0:0:0:0:
64,192,69828,1,0,0:0:0:0:
192,192,69875,1,0,0:0:0:0:
320,192,69922,1,0,0:0:0:0:
448,192,69969,1,0,0:0:0:0:
64,192,70015,1,0,0:0:0:0:
192,192,70062,1,0,0:0:0:0:
448,192,70109,1,0,0:0:0:0:
320,192,70156,1,0,0:0:0:0:
192,192,70203,1,0,0:0:0:0:
64,192,70250,1,0,0:0:0:0:
448,192,70297,1,0,0:0:0:0:
320,192,70344,1,0,0:0:0:0:
64,192,70390,1,0,0:0:0:0:
192,192,70437,1,0,0:0:0:0:
320,192,70484,1,0,0:0:0:0:
448,192,70531,1,0,0:0:0:0:
64,192,70578,1,0,0:0:0:0:
192,192,70625,1,0,0:0:0:0:
448,192,70672,1,0,0:0:0:0:
320,192,70719,1,0,0:0:0:0:
192,192,70765,1,0,0:0:0:0:
448,192,70812,1,0,0:0:0:0:
64,192,70859,1,0,0:0:0:0:
192,192,70906,1,0,0:0:0:0:
320,192,70953,1,0,0:0:0:0:
64,192,71000,1,0,0:0:0:0:
448,192,71047,1,0,0:0:0:0:
320,192,71094,1,0,0:0:0:0:
192,192,71140,1,0,0:0:0:0:
64,192,71187,1,0,0:0:0:0:
448,192,71234,1,0,0:0:0:0:
320,192,71281,1,0,0:0:0:0:
192,192,71328,1,0,0:0:0:0:
448,192,71375,1,0,0:0:0:0:
64,192,71422,1,0,0:0:0:0:
192,192,71469,1,0,0:0:0:0:
320,192,71515,1,0,0:0:0:0:
448,192,71562,1,0,0:0:0:0:
64,192,71609,1,0,0:0:0:0:
192,192,71656,1,0,0:0:0:0:
320,192,71703,1,0,0:0:0:0:
64,192,71750,1,0,0:0:0:0:
192,192,71797,1,0,0:0:0:0:
320,192,71844,1,0,0:0:0:0:
448,192,71890,1,0,0:0:0:0:
192,192,71937,1,0,0:0:0:0:
320,192,71984,1,0,0:0:0:0:
448,192,72031,1,0,0:0:0:0:
64,192,72078,1,0,0:0:0:0:
192,192,72125,1,0,0:0:0:0:
448,192,72172,1,0,0:0:0:0:
320,192,72219,1,0,0:0:0:0:
192,192,72265,1,0,0:0:0:0:
64,192,72312,1,0,0:0:0:0:
320,192,72359,1,0,0:0:0:0:
192,192,72406,1,0,0:0:0:0:
64,192,72453,1,0,0:0:0:0:
448,192,72500,1,0,0:0:0:0:
320,192,72547,1,0,0:0:0:0:
64,192,72594,1,0,0:0:0:0:
192,192,72640,1,0,0:0:0:0:
320,192,72687,1,0,0:0:0:0:
448,192,72734,1,0,0:0:0:0:
64,192,72781,1,0,0:0:0:0:
192,192,72828,1,0,0:0:0:0:
448,192,72875,1,0,0:0:0:0:
320,192,72922,1,0,0:0:0:0:
192,192,72969,1,0,0:0:0:0:
64,192,73015,1,0,0:0:0:0:
448,192,73062,1,0,0:0:0:0:
320,192,73109,1,0,0:0:0:0:
64,192,73156,1,0,0:0:0:0:
192,192,73203,1,0,0:0:0:0:
320,192,73250,1,0,0:0:0:0:
448,192,73297,1,0,0:0:0:0:
64,192,73344,1,0,0:0:0:0:
192,192,73390,1,0,0:0:0:0:
448,192,73437,1,0,0:0:0:0:
320,192,73484,1,0,0:0:0:0:
192,192,73531,1,0,0:0:0:0:
64,192,73578,1,0,0:0:0:0:
448,192,73625,1,0,0:0:0:0:
320,192,73672,1,0,0:0:0:0:
64,192,73719,1,0,0:0:0:0:
192,192,73765,1,0,0:0:0:0:
320,192,73812,1,0,0:0:0:0:
64,192,73859,1,0,0:0:0:0:
448,192,73906,1,0,0:0:0:0:
320,192,73953,1,0,0:0:0:0:
192,192,74000,1,0,0:0:0:0:
448,192,74047,1,0,0:0:0:0:
64,192,74094,1,0,0:0:0:0:
192,192,74140,1,0,0:0:0:0:
320,192,74187,1,0,0:0:0:0:
448,192,74234,1,0,0:0:0:0:
64,192,74281,1,0,0:0:0:0:
192,192,74328,1,0,0:0:0:0:
320,192,74375,1,0,0:0:0:0:
64,192,74422,1,0,0:0:0:0:
448,192,74469,1,0,0:0:0:0:
320,192,74515,1,0,0:0:0:0:
192,192,74562,1,0,0:0:0:0:
64,192,74609,1,0,0:0:0:0:
448,192,74656,1,0,0:0:0:0:
320,192,74703,1,0,0:0:0:0:
192,192,74750,1,0,0:0:0:0:
448,192,74797,1,0,0:0:0:0:
320,192,74844,1,0,0:0:0:0:
192,192,74890,1,0,0:0:0:0:
64,192,74937,1,0,0:0:0:0:
320,192,74984,1,0,0:0:0:0:
192,192,75031,1,0,0:0:0:0:
64,192,75078,1,0,0:0:0:0:
448,192,75125,1,0,0:0:0:0:
320,192,75172,1,0,0:0:0:0:
64,192,75219,1,0,0:0:0:0:
192,192,75265,1,0,0:0:0:0:
320,192,75312,1,0,0:0:0:0:
448,192,75359,1,0,0:0:0:0:
192,192,75406,1,0,0:0:0:0:
320,192,75453,1,0,0:0:0:0:
448,192,75500,1,0,0:0:0:0:
64,192,75547,1,0,0:0:0:0:
192,192,75594,1,0,0:0:0:0:
448,192,75640,1,0,0:0:0:0:
320,192,75687,1,0,0:0:0:0:
192,192,75734,1,0,0:0:0:0:
64,192,75781,1,0,0:0:0:0:
448,192,75828,1,0,0:0:0:0:
320,192,75875,1,0,0:0:0:0:
64,192,75922,1,0,0:0:0:0:
192,192,75969,1,0,0:0:0:0:
320,192,76015,1,0,0:0:0:0:
448,192,76062,1,0,0:0:0:0:
64,192,76109,1,0,0:0:0:0:
192,192,76156,1,0,0:0:0:0:
448,192,76203,1,0,0:0:0:0:
320,192,76250,1,0,0:0:0:0:
192,192,76297,1,0,0:0:0:0:
64,192,76344,1,0,0:0:0:0:
448,192,76390,1,0,0:0:0:0:
320,192,76437,1,0,0:0:0:0:
64,192,76484,1,0,0:0:0:0:
192,192,76531,1,0,0:0:0:0:
320,192,76578,1,0,0:0:0:0:
448,192,76625,1,0,0:0:0:0:
64,192,76672,1,0,0:0:0:0:
192,192,76719,1,0,0:0:0:0:
448,192,76765,1,0,0:0:0:0:
320,192,76812,1,0,0:0:0:0:
192,192,76859,1,0,0:0:0:0:
448,192,76906,1,0,0:0:0:0:
64,192,76953,1,0,0:0:0:0:
192,192,77000,1,0,0:0:0:0:
320,192,77047,1,0,0:0:0:0:
64,192,77094,1,0,0:0:0:0:
448,192,77140,1,0,0:0:0:0:
320,192,77187,1,0,0:0:0:0:
192,192,77234,1,0,0:0:0:0:
64,192,77281,1,0,0:0:0:0:
448,192,77328,1,0,0:0:0:0:
320,192,77375,1,0,0:0:0:0:
192,192,77422,1,0,0:0:0:0:
448,192,77469,1,0,0:0:0:0:
64,192,77515,1,0,0:0:0:0:
192,192,77562,1,0,0:0:0:0:
320,192,77609,1,0,0:0:0:0:
448,192,77656,1,0,0:0:0:0:
64,192,77703,1,0,0:0:0:0:
192,192,77750,1,0,0:0:0:0:
320,192,77797,1,0,0:0:0:0:
64,192,77844,1,0,0:0:0:0:
192,192,77890,1,0,0:0:0:0:
320,192,77937,1,0,0:0:0:0:
448,192,77984,1,0,0:0:0:0:
192,192,78031,1,0,0:0:0:0:
320,192,78078,1,0,0:0:0:0:
448,192,78125,1,0,0:0:0:0:
64,192,78172,1,0,0:0:0:0:
192,192,78219,1,0,0:0:0:0:
448,192,78265,1,0,0:0:0:0:
320,192,78312,1,0,0:0:0:0:
192,192,78359,1,0,0:0:0:0:
64,192,78406,1,0,0:0:0:0:
320,192,78453,1,0,0:0:0:0:
192,192,78500,1,0,0:0:0:0:
64,192,78547,1,0,0:0:0:0:
448,192,78594,1,0,0:0:0:0:
320,192,78640,1,0,0:0:0:0:
64,192,78687,1,0,0:0:0:0:
192,192,78734,1,0,0:0:0:0:
320,192,78781,1,0,0:0:0:0:
448,192,78828,1,0,0:0:0:0:
64,192,78875,1,0,0:0:0:0:
192,192,78922,1,0,0:0:0:0:
448,192,78969,1,0,0:0:0:0:
320,192,79015,1,0,0:0:0:0:
192,192,79062,1,0,0:0:0:0:
64,192,79109,1,0,0:0:0:0:
448,192,79156,1,0,0:0:0:0:
320,192,79203,1,0,0:0:0:0:
192,192,79250,1,0,0:0:0:0:
64,192,79297,1,0,0:0:0:0:
448,192,79344,1,0,0:0:0:0:
320,192,79390,1,0,0:0:0:0:
192,192,79437,1,0,0:0:0:0:
64,192,79484,1,0,0:0:0:0:
448,192,79531,1,0,0:0:0:0:
320,192,79578,1,0,0:0:0:0:
192,192,79625,1,0,0:0:0:0:
64,192,79672,1,0,0:0:0:0:
448,192,79719,1,0,0:0:0:0:
320,192,79765,1,0,0:0:0:0:
192,192,79812,1,0,0:0:0:0:
64,192,79859,1,0,0:0:0:0:
448,192,79906,1,0,0:0:0:0:
320,192,79953,1,0,0:0:0:0:
192,192,80000,1,0,0:0:0:0:
64,192,80047,1,0,0:0:0:0:
448,192,80094,1,0,0:0:0:0:
320,192,80140,1,0,0:0:0:0:
192,192,80187,1,0,0:0:0:0:
64,192,80234,1,0,0:0:0:0:
448,192,80281,1,0,0:0:0:0:
320,192,80328,1,0,0:0:0:0:
192,192,80375,1,0,0:0:0:0:
64,192,80422,1,0,0:0:0:0:
448,192,80469,1,0,0:0:0:0:
192,192,80515,1,0,0:0:0:0:
320,192,80562,1,0,0:0:0:0:
448,192,80609,1,0,0:0:0:0:
64,192,80656,1,0,0:0:0:0:
192,192,80703,1,0,0:0:0:0:
320,192,80750,1,0,0:0:0:0:
448,192,80797,1,0,0:0:0:0:
64,192,80844,1,0,0:0:0:0:
192,192,80890,1,0,0:0:0:0:
320,192,80937,1,0,0:0:0:0:
448,192,80984,1,0,0:0:0:0:
64,192,81031,1,0,0:0:0:0:
192,192,81078,1,0,0:0:0:0:
320,192,81125,1,0,0:0:0:0:
448,192,81172,1,0,0:0:0:0:
64,192,81219,1,0,0:0:0:0:
192,192,81265,1,0,0:0:0:0:
448,192,81312,1,0,0:0:0:0:
320,192,81359,1,0,0:0:0:0:
192,192,81406,1,0,0:0:0:0:
448,192,81453,1,0,0:0:0:0:
320,192,81500,1,0,0:0:0:0:
64,192,81547,1,0,0:0:0:0:
192,192,81594,1,0,0:0:0:0:
320,192,81640,1,0,0:0:0:0:
64,192,81687,1,0,0:0:0:0:
192,192,81734,1,0,0:0:0:0:
448,192,81781,1,0,0:0:0:0:
320,192,81828,1,0,0:0:0:0:
192,192,81875,1,0,0:0:0:0:
448,192,81922,1,0,0:0:0:0:
320,192,81969,1,0,0:0:0:0:
64,192,82015,1,0,0:0:0:0:
192,192,82062,1,0,0:0:0:0:
320,192,82109,1,0,0:0:0:0:
448,192,82156,1,0,0:0:0:0:
64,192,82203,1,0,0:0:0:0:
192,192,82250,1,0,0:0:0:0:
448,192,82297,1,0,0:0:0:0:
320,192,82344,1,0,0:0:0:0:
192,192,82390,1,0,0:0:0:0:
64,192,82437,1,0,0:0:0:0:
448,192,82484,1,0,0:0:0:0:
320,192,82531,1,0,0:0:0:0:
64,192,82578,1,0,0:0:0:0:
192,192,82625,1,0,0:0:0:0:
320,192,82672,1,0,0:0:0:0:
64,192,82719,1,0,0:0:0:0:
448,192,82765,1,0,0:0:0:0:
320,192,82812,1,0,0:0:0:0:
192,192,82859,1,0,0:0:0:0:
448,192,82906,1,0,0:0:0:0:
64,192,82953,1,0,0:0:0:0:
192,192,83000,1,0,0:0:0:0:
320,192,83047,1,0,0:0:0:0:
448,192,83094,1,0,0:0:0:0:
64,192,83140,1,0,0:0:0:0:
192,192,83187,1,0,0:0:0:0:
320,192,83234,1,0,0:0:0:0:
64,192,83281,1,0,0:0:0:0:
448,192,83328,1,0,0:0:0:0:
320,192,83375,1,0,0:0:0:0:
192,192,83422,1,0,0:0:0:0:
64,192,83469,1,0,0:0:0:0:
448,192,83515,1,0,0:0:0:0:
320,192,83562,1,0,0:0:0:0:
192,192,83609,1,0,0:0:0:0:
448,192,83656,1,0,0:0:0:0:
320,192,83703,1,0,0:0:0:0:
192,192,83750,1,0,0:0:0:0:
64,192,83797,1,0,0:0:0:0:
320,192,83844,1,0,0:0:0:0:
192,192,83890,1,0,0:0:0:0:
64,192,83937,1,0,0:0:0:0:
448,192,83984,1,0,0:0:0:0:
320,192,84031,1,0,0:0:0:0:
64,192,84078,1,0,0:0:0:0:
192,192,84125,1,0,0:0:0:0:
320,192,84172,1,0,0:0:0:0:
448,192,84219,1,0,0:0:0:0:
192,192,84265,1,0,0:0:0:0:
320,192,84312,1,0,0:0:0:0:
