osu file format v14

[General]
AudioFilename: Final Fantasy VII - Prelude_1.9.mp3
AudioLeadIn: 0
PreviewTime: 0
Countdown: 0
SampleSet: None
StackLeniency: 0.7
Mode: 3
LetterboxInBreaks: 0
SpecialStyle: 0
WidescreenStoryboard: 0

[Editor]
DistanceSpacing: 0.8
BeatDivisor: 2
GridSize: 32
TimelineZoom: 1

[Metadata]
Title:final fantasy prelude
TitleUnicode:final fantasy prelude
Artist:some asian dude
ArtistUnicode:some asian dude
Creator:rosepetal
Version:ruby x1.9
Source:
Tags:
BeatmapID:1581262
BeatmapSetID:751012

[Difficulty]
HPDrainRate:7
CircleSize:4
OverallDifficulty:7
ApproachRate:5
SliderMultiplier:1.4
SliderTickRate:1

[Events]
//Background and Video events
//Break Periods
//Storyboard Layer 0 (Background)
//Storyboard Layer 1 (Fail)
//Storyboard Layer 2 (Pass)
//Storyboard Layer 3 (Foreground)
//Storyboard Sound Samples

[TimingPoints]
131,197.368421052632,4,1,0,100,1,0

[HitObjects]
64,192,625,5,0,0:0:0:0:
192,192,674,1,0,0:0:0:0:
320,192,723,1,0,0:0:0:0:
448,192,773,1,0,0:0:0:0:
64,192,822,1,0,0:0:0:0:
192,192,871,1,0,0:0:0:0:
448,192,921,1,0,0:0:0:0:
320,192,970,1,0,0:0:0:0:
192,192,1020,1,0,0:0:0:0:
64,192,1068,1,0,0:0:0:0:
448,192,1118,1,0,0:0:0:0:
320,192,1167,1,0,0:0:0:0:
64,192,1217,1,0,0:0:0:0:
192,192,1266,1,0,0:0:0:0:
320,192,1315,1,0,0:0:0:0:
64,192,1365,1,0,0:0:0:0:
448,192,1414,1,0,0:0:0:0:
320,192,1463,1,0,0:0:0:0:
192,192,1513,1,0,0:0:0:0:
448,192,1562,1,0,0:0:0:0:
64,192,1612,1,0,0:0:0:0:
192,192,1661,1,0,0:0:0:0:
320,192,1710,1,0,0:0:0:0:
448,192,1760,1,0,0:0:0:0:
64,192,1809,1,0,0:0:0:0:
192,192,1858,1,0,0:0:0:0:
320,192,1907,1,0,0:0:0:0:
64,192,1957,1,0,0:0:0:0:
448,192,2006,1,0,0:0:0:0:
320,192,2055,1,0,0:0:0:0:
192,192,2105,1,0,0:0:0:0:
64,192,2154,1,0,0:0:0:0:
448,192,2204,1,0,0:0:0:0:
320,192,2253,1,0,0:0:0:0:
192,192,2302,1,0,0:0:0:0:
448,192,2352,1,0,0:0:0:0:
320,192,2401,1,0,0:0:0:0:
192,192,2450,1,0,0:0:0:0:
64,192,2500,1,0,0:0:0:0:
320,192,2549,1,0,0:0:0:0:
192,192,2598,1,0,0:0:0:0:
64,192,2647,1,0,0:0:0:0:
448,192,2697,1,0,0:0:0:0:
320,192,2746,1,0,0:0:0:0:
64,192,2796,1,0,0:0:0:0:
192,192,2845,1,0,0:0:0:0:
320,192,2894,1,0,0:0:0:0:
448,192,2944,1,0,0:0:0:0:
192,192,2993,1,0,0:0:0:0:
320,192,3042,1,0,0:0:0:0:
448,192,3092,1,0,0:0:0:0:
64,192,3141,1,0,0:0:0:0:
192,192,3191,1,0,0:0:0:0:
448,192,3240,1,0,0:0:0:0:
320,192,3289,1,0,0:0:0:0:
192,192,3338,1,0,0:0:0:0:
64,192,3388,1,0,0:0:0:0:
448,192,3437,1,0,0:0:0:0:
320,192,3486,1,0,0:0:0:0:
64,192,3536,1,0,0:0:0:0:
192,192,3585,1,0,0:0:0:0:
320,192,3634,1,0,0:0:0:0:
448,192,3684,1,0,0:0:0:0:
64,192,3733,1,0,0:0:0:0:
192,192,3783,1,0,0:0:0:0:
448,192,3832,1,0,0:0:0:0:
320,192,3881,1,0,0:0:0:0:
192,192,3931,1,0,0:0:0:0:
64,192,3980,1,0,0:0:0:0:
448,192,4029,1,0,0:0:0:0:
320,192,4078,1,0,0:0:0:0:
64,192,4128,1,0,0:0:0:0:
192,192,4177,1,0,0:0:0:0:
320,192,4226,1,0,0:0:0:0:
448,192,4276,1,0,0:0:0:0:
64,192,4325,1,0,0:0:0:0:
192,192,4375,1,0,0:0:0:0:
448,192,4424,1,0,0:0:0:0:
320,192,4473,1,0,0:0:0:0:
192,192,4523,1,0,0:0:0:0:
448,192,4572,1,0,0:0:0:0:
64,192,4621,1,0,0:0:0:0:
192,192,4671,1,0,0:0:0:0:
320,192,4720,1,0,0:0:0:0:
64,192,4770,1,0,0:0:0:0:
448,192,4818,1,0,0:0:0:0:
320,192,4868,1,0,0:0:0:0:
192,192,4917,1,0,0:0:0:0:
64,192,4967,1,0,0:0:0:0:
448,192,5016,1,0,0:0:0:0:
320,192,5065,1,0,0:0:0:0:
192,192,5115,1,0,0:0:0:0:
448,192,5164,1,0,0:0:0:0:
64,192,5213,1,0,0:0:0:0:
192,192,5263,1,0,0:0:0:0:
320,192,5312,1,0,0:0:0:0:
448,192,5362,1,0,0:0:0:0:
64,192,5411,1,0,0:0:0:0:
192,192,5460,1,0,0:0:0:0:
320,192,5510,1,0,0:0:0:0:
64,192,5559,1,0,0:0:0:0:
192,192,5608,1,0,0:0:0:0:
320,192,5657,1,0,0:0:0:0:
448,192,5707,1,0,0:0:0:0:
192,192,5756,1,0,0:0:0:0:
320,192,5805,1,0,0:0:0:0:
448,192,5855,1,0,0:0:0:0:
64,192,5904,1,0,0:0:0:0:
192,192,5954,1,0,0:0:0:0:
448,192,6003,1,0,0:0:0:0:
320,192,6052,1,0,0:0:0:0:
192,192,6102,1,0,0:0:0:0:
64,192,6151,1,0,0:0:0:0:
320,192,6200,1,0,0:0:0:0:
192,192,6250,1,0,0:0:0:0:
64,192,6299,1,0,0:0:0:0:
448,192,6348,1,0,0:0:0:0:
320,192,6397,1,0,0:0:0:0:
64,192,6447,1,0,0:0:0:0:
192,192,6496,1,0,0:0:0:0:
320,192,6546,1,0,0:0:0:0:
448,192,6595,1,0,0:0:0:0:
64,192,6644,1,0,0:0:0:0:
192,192,6694,1,0,0:0:0:0:
448,192,6743,1,0,0:0:0:0:
320,192,6792,1,0,0:0:0:0:
192,192,6842,1,0,0:0:0:0:
64,192,6891,1,0,0:0:0:0:
448,192,6941,1,0,0:0:0:0:
320,192,6990,1,0,0:0:0:0:
64,192,7039,1,0,0:0:0:0:
192,192,7088,1,0,0:0:0:0:
320,192,7138,1,0,0:0:0:0:
448,192,7187,1,0,0:0:0:0:
64,192,7236,1,0,0:0:0:0:
192,192,7286,1,0,0:0:0:0:
448,192,7335,1,0,0:0:0:0:
320,192,7384,1,0,0:0:0:0:
192,192,7434,1,0,0:0:0:0:
64,192,7483,1,0,0:0:0:0:
448,192,7533,1,0,0:0:0:0:
320,192,7582,1,0,0:0:0:0:
64,192,7631,1,0,0:0:0:0:
192,192,7681,1,0,0:0:0:0:
320,192,7730,1,0,0:0:0:0:
64,192,7779,1,0,0:0:0:0:
448,192,7828,1,0,0:0:0:0:
320,192,7878,1,0,0:0:0:0:
192,192,7927,1,0,0:0:0:0:
448,192,7976,1,0,0:0:0:0:
64,192,8026,1,0,0:0:0:0:
192,192,8075,1,0,0:0:0:0:
320,192,8125,1,0,0:0:0:0:
448,192,8174,1,0,0:0:0:0:
64,192,8223,1,0,0:0:0:0:
192,192,8273,1,0,0:0:0:0:
320,192,8322,1,0,0:0:0:0:
64,192,8371,1,0,0:0:0:0:
448,192,8421,1,0,0:0:0:0:
320,192,8470,1,0,0:0:0:0:
192,192,8520,1,0,0:0:0:0:
64,192,8568,1,0,0:0:0:0:
448,192,8618,1,0,0:0:0:0:
320,192,8667,1,0,0:0:0:0:
192,192,8717,1,0,0:0:0:0:
448,192,8766,1,0,0:0:0:0:
320,192,8815,1,0,0:0:0:0:
192,192,8865,1,0,0:0:0:0:
64,192,8914,1,0,0:0:0:0:
320,192,8963,1,0,0:0:0:0:
192,192,9013,1,0,0:0:0:0:
64,192,9062,1,0,0:0:0:0:
448,192,9112,1,0,0:0:0:0:
320,192,9161,1,0,0:0:0:0:
64,192,9210,1,0,0:0:0:0:
192,192,9260,1,0,0:0:0:0:
320,192,9309,1,0,0:0:0:0:
448,192,9358,1,0,0:0:0:0:
192,192,9407,1,0,0:0:0:0:
320,192,9457,1,0,0:0:0:0:
448,192,9506,1,0,0:0:0:0:
64,192,9555,1,0,0:0:0:0:
192,192,9605,1,0,0:0:0:0:
448,192,9654,1,0,0:0:0:0:
320,192,9704,1,0,0:0:0:0:
192,192,9753,1,0,0:0:0:0:
64,192,9802,1,0,0:0:0:0:
448,192,9852,1,0,0:0:0:0:
320,192,9901,1,0,0:0:0:0:
64,192,9950,1,0,0:0:0:0:
192,192,10000,1,0,0:0:0:0:
320,192,10049,1,0,0:0:0:0:
448,192,10098,1,0,0:0:0:0:
64,192,10147,1,0,0:0:0:0:
192,192,10197,1,0,0:0:0:0:
448,192,10246,1,0,0:0:0:0:
320,192,10296,1,0,0:0:0:0:
192,192,10345,1,0,0:0:0:0:
64,192,10394,1,0,0:0:0:0:
448,192,10444,1,0,0:0:0:0:
320,192,10493,1,0,0:0:0:0:
64,192,10542,1,0,0:0:0:0:
192,192,10592,1,0,0:0:0:0:
320,192,10641,1,0,0:0:0:0:
448,192,10691,1,0,0:0:0:0:
64,192,10740,1,0,0:0:0:0:
192,192,10789,1,0,0:0:0:0:
448,192,10838,1,0,0:0:0:0:
320,192,10888,1,0,0:0:0:0:
192,192,10937,1,0,0:0:0:0:
448,192,10986,1,0,0:0:0:0:
64,192,11036,1,0,0:0:0:0:
192,192,11085,1,0,0:0:0:0:
320,192,11134,1,0,0:0:0:0:
64,192,11184,1,0,0:0:0:0:
448,192,11233,1,0,0:0:0:0:
320,192,11283,1,0,0:0:0:0:
192,192,11332,1,0,0:0:0:0:
64,192,11381,1,0,0:0:0:0:
448,192,11431,1,0,0:0:0:0:
320,192,11480,1,0,0:0:0:0:
192,192,11529,1,0,0:0:0:0:
448,192,11578,1,0,0:0:0:0:
64,192,11628,1,0,0:0:0:0:
192,192,11677,1,0,0:0:0:0:
320,192,11726,1,0,0:0:0:0:
448,192,11776,1,0,0:0:0:0:
64,192,11825,1,0,0:0:0:0:
192,192,11875,1,0,0:0:0:0:
320,192,11924,1,0,0:0:0:0:
64,192,11973,1,0,0:0:0:0:
192,192,12023,1,0,0:0:0:0:
320,192,12072,1,0,0:0:0:0:
448,192,12121,1,0,0:0:0:0:
192,192,12171,1,0,0:0:0:0:
320,192,12220,1,0,0:0:0:0:
448,192,12270,1,0,0:0:0:0:
64,192,12318,1,0,0:0:0:0:
192,192,12368,1,0,0:0:0:0:
448,192,12417,1,0,0:0:0:0:
320,192,12467,1,0,0:0:0:0:
192,192,12516,1,0,0:0:0:0:
64,192,12565,1,0,0:0:0:0:
320,192,12615,1,0,0:0:0:0:
192,192,12664,1,0,0:0:0:0:
64,192,12713,1,0,0:0:0:0:
448,192,12763,1,0,0:0:0:0:
320,192,12812,1,0,0:0:0:0:
64,192,12862,1,0,0:0:0:0:
192,192,12911,1,0,0:0:0:0:
320,192,12960,1,0,0:0:0:0:
448,192,13010,1,0,0:0:0:0:
64,192,13059,1,0,0:0:0:0:
192,192,13108,1,0,0:0:0:0:
448,192,13157,1,0,0:0:0:0:
320,192,13207,1,0,0:0:0:0:
192,192,13256,1,0,0:0:0:0:
64,192,13305,1,0,0:0:0:0:
448,192,13355,1,0,0:0:0:0:
320,192,13404,1,0,0:0:0:0:
64,192,13454,1,0,0:0:0:0:
192,192,13503,1,0,0:0:0:0:
320,192,13552,1,0,0:0:0:0:
448,192,13602,1,0,0:0:0:0:
64,192,13651,1,0,0:0:0:0:
192,192,13700,1,0,0:0:0:0:
448,192,13750,1,0,0:0:0:0:
320,192,13799,1,0,0:0:0:0:
192,192,13848,1,0,0:0:0:0:
64,192,13897,1,0,0:0:0:0:
448,192,13947,1,0,0:0:0:0:
320,192,13996,1,0,0:0:0:0:
64,192,14046,1,0,0:0:0:0:
192,192,14095,1,0,0:0:0:0:
320,192,14144,1,0,0:0:0:0:
64,192,14194,1,0,0:0:0:0:
448,192,14243,1,0,0:0:0:0:
320,192,14292,1,0,0:0:0:0:
192,192,14342,1,0,0:0:0:0:
448,192,14391,1,0,0:0:0:0:
64,192,14441,1,0,0:0:0:0:
192,192,14490,1,0,0:0:0:0:
320,192,14539,1,0,0:0:0:0:
448,192,14588,1,0,0:0:0:0:
64,192,14638,1,0,0:0:0:0:
192,192,14687,1,0,0:0:0:0:
320,192,14736,1,0,0:0:0:0:
64,192,14786,1,0,0:0:0:0:
448,192,14835,1,0,0:0:0:0:
320,192,14884,1,0,0:0:0:0:
192,192,14934,1,0,0:0:0:0:
64,192,14983,1,0,0:0:0:0:
448,192,15033,1,0,0:0:0:0:
320,192,15082,1,0,0:0:0:0:
192,192,15131,1,0,0:0:0:0:
448,192,15181,1,0,0:0:0:0:
320,192,15230,1,0,0:0:0:0:
192,192,15279,1,0,0:0:0:0:
64,192,15328,1,0,0:0:0:0:
320,192,15378,1,0,0:0:0:0:
192,192,15427,1,0,0:0:0:0:
64,192,15476,1,0,0:0:0:0:
448,192,15526,1,0,0:0:0:0:
320,192,15575,1,0,0:0:0:0:
64,192,15625,1,0,0:0:0:0:
192,192,15674,1,0,0:0:0:0:
320,192,15723,1,0,0:0:0:0:
448,192,15773,1,0,0:0:0:0:
192,192,15822,1,0,0:0:0:0:
320,192,15871,1,0,0:0:0:0:
448,192,15921,1,0,0:0:0:0:
64,192,15970,1,0,0:0:0:0:
192,192,16020,1,0,0:0:0:0:
448,192,16068,1,0,0:0:0:0:
320,192,16118,1,0,0:0:0:0:
192,192,16167,1,0,0:0:0:0:
64,192,16217,1,0,0:0:0:0:
448,192,16266,1,0,0:0:0:0:
320,192,16315,1,0,0:0:0:0:
64,192,16365,1,0,0:0:0:0:
192,192,16414,1,0,0:0:0:0:
320,192,16463,1,0,0:0:0:0:
448,192,16513,1,0,0:0:0:0:
64,192,16562,1,0,0:0:0:0:
192,192,16612,1,0,0:0:0:0:
448,192,16661,1,0,0:0:0:0:
320,192,16710,1,0,0:0:0:0:
192,192,16760,1,0,0:0:0:0:
64,192,16809,1,0,0:0:0:0:
448,192,16858,1,0,0:0:0:0:
320,192,16907,1,0,0:0:0:0:
64,192,16957,1,0,0:0:0:0:
192,192,17006,1,0,0:0:0:0:
320,192,17055,1,0,0:0:0:0:
448,192,17105,1,0,0:0:0:0:
64,192,17154,1,0,0:0:0:0:
192,192,17204,1,0,0:0:0:0:
448,192,17253,1,0,0:0:0:0:
320,192,17302,1,0,0:0:0:0:
192,192,17352,1,0,0:0:0:0:
448,192,17401,1,0,0:0:0:0:
64,192,17450,1,0,0:0:0:0:
192,192,17500,1,0,0:0:0:0:
320,192,17549,1,0,0:0:0:0:
64,192,17598,1,0,0:0:0:0:
448,192,17647,1,0,0:0:0:0:
320,192,17697,1,0,0:0:0:0:
192,192,17746,1,0,0:0:0:0:
64,192,17796,1,0,0:0:0:0:
448,192,17845,1,0,0:0:0:0:
320,192,17894,1,0,0:0:0:0:
192,192,17944,1,0,0:0:0:0:
448,192,17993,1,0,0:0:0:0:
64,192,18042,1,0,0:0:0:0:
192,192,18092,1,0,0:0:0:0:
320,192,18141,1,0,0:0:0:0:
448,192,18191,1,0,0:0:0:0:
64,192,18240,1,0,0:0:0:0:
192,192,18289,1,0,0:0:0:0:
320,192,18338,1,0,0:0:0:0:
64,192,18388,1,0,0:0:0:0:
192,192,18437,1,0,0:0:0:0:
320,192,18486,1,0,0:0:0:0:
448,192,18536,1,0,0:0:0:0:
192,192,18585,1,0,0:0:0:0:
320,192,18634,1,0,0:0:0:0:
448,192,18684,1,0,0:0:0:0:
64,192,18733,1,0,0:0:0:0:
192,192,18783,1,0,0:0:0:0:
448,192,18832,1,0,0:0:0:0:
320,192,18881,1,0,0:0:0:0:
192,192,18931,1,0,0:0:0:0:
64,192,18980,1,0,0:0:0:0:
320,192,19029,1,0,0:0:0:0:
192,192,19078,1,0,0:0:0:0:
64,192,19128,1,0,0:0:0:0:
448,192,19177,1,0,0:0:0:0:
320,192,19226,1,0,0:0:0:0:
64,192,19276,1,0,0:0:0:0:
192,192,19325,1,0,0:0:0:0:
320,192,19375,1,0,0:0:0:0:
448,192,19424,1,0,0:0:0:0:
64,192,19473,1,0,0:0:0:0:
192,192,19523,1,0,0:0:0:0:
448,192,19572,1,0,0:0:0:0:
320,192,19621,1,0,0:0:0:0:
192,192,19671,1,0,0:0:0:0:
64,192,19720,1,0,0:0:0:0:
448,192,19770,1,0,0:0:0:0:
320,192,19818,1,0,0:0:0:0:
64,192,19868,1,0,0:0:0:0:
192,192,19917,1,0,0:0:0:0:
320,192,19967,1,0,0:0:0:0:
448,192,20016,1,0,0:0:0:0:
64,192,20065,1,0,0:0:0:0:
192,192,20115,1,0,0:0:0:0:
448,192,20164,1,0,0:0:0:0:
320,192,20213,1,0,0:0:0:0:
192,192,20263,1,0,0:0:0:0:
64,192,20312,1,0,0:0:0:0:
448,192,20362,1,0,0:0:0:0:
320,192,20411,1,0,0:0:0:0:
64,192,20460,1,0,0:0:0:0:
192,192,20510,1,0,0:0:0:0:
320,192,20559,1,0,0:0:0:0:
64,192,20608,1,0,0:0:0:0:
448,192,20657,1,0,0:0:0:0:
320,192,20707,1,0,0:0:0:0:
192,192,20756,1,0,0:0:0:0:
448,192,20805,1,0,0:0:0:0:
64,192,20855,1,0,0:0:0:0:
192,192,20904,1,0,0:0:0:0:
320,192,20954,1,0,0:0:0:0:
448,192,21003,1,0,0:0:0:0:
64,192,21052,1,0,0:0:0:0:
192,192,21102,1,0,0:0:0:0:
320,192,21151,1,0,0:0:0:0:
64,192,21200,1,0,0:0:0:0:
448,192,21250,1,0,0:0:0:0:
320,192,21299,1,0,0:0:0:0:
192,192,21348,1,0,0:0:0:0:
64,192,21397,1,0,0:0:0:0:
448,192,21447,1,0,0:0:0:0:
320,192,21496,1,0,0:0:0:0:
192,192,21546,1,0,0:0:0:0:
448,192,21595,1,0,0:0:0:0:
320,192,21644,1,0,0:0:0:0:
192,192,21694,1,0,0:0:0:0:
64,192,21743,1,0,0:0:0:0:
320,192,21792,1,0,0:0:0:0:
192,192,21842,1,0,0:0:0:0:
64,192,21891,1,0,0:0:0:0:
448,192,21941,1,0,0:0:0:0:
320,192,21990,1,0,0:0:0:0:
64,192,22039,1,0,0:0:0:0:
192,192,22088,1,0,0:0:0:0:
320,192,22138,1,0,0:0:0:0:
448,192,22187,1,0,0:0:0:0:
192,192,22236,1,0,0:0:0:0:
320,192,22286,1,0,0:0:0:0:
448,192,22335,1,0,0:0:0:0:
64,192,22384,1,0,0:0:0:0:
192,192,22434,1,0,0:0:0:0:
448,192,22483,1,0,0:0:0:0:
320,192,22533,1,0,0:0:0:0:
192,192,22582,1,0,0:0:0:0:
64,192,22631,1,0,0:0:0:0:
448,192,22681,1,0,0:0:0:0:
320,192,22730,1,0,0:0:0:0:
64,192,22779,1,0,0:0:0:0:
192,192,22828,1,0,0:0:0:0:
320,192,22878,1,0,0:0:0:0:
448,192,22927,1,0,0:0:0:0:
64,192,22976,1,0,0:0:0:0:
192,192,23026,1,0,0:0:0:0:
448,192,23075,1,0,0:0:0:0:
320,192,23125,1,0,0:0:0:0:
192,192,23174,1,0,0:0:0:0:
64,192,23223,1,0,0:0:0:0:
448,192,23273,1,0,0:0:0:0:
320,192,23322,1,0,0:0:0:0:
64,192,23371,1,0,0:0:0:0:
192,192,23421,1,0,0:0:0:0:
320,192,23470,1,0,0:0:0:0:
448,192,23520,1,0,0:0:0:0:
64,192,23568,1,0,0:0:0:0:
192,192,23618,1,0,0:0:0:0:
448,192,23667,1,0,0:0:0:0:
320,192,23717,1,0,0:0:0:0:
192,192,23766,1,0,0:0:0:0:
448,192,23815,1,0,0:0:0:0:
64,192,23865,1,0,0:0:0:0:
192,192,23914,1,0,0:0:0:0:
320,192,23963,1,0,0:0:0:0:
64,192,24013,1,0,0:0:0:0:
448,192,24062,1,0,0:0:0:0:
320,192,24112,1,0,0:0:0:0:
192,192,24161,1,0,0:0:0:0:
64,192,24210,1,0,0:0:0:0:
448,192,24260,1,0,0:0:0:0:
320,192,24309,1,0,0:0:0:0:
192,192,24358,1,0,0:0:0:0:
448,192,24407,1,0,0:0:0:0:
64,192,24457,1,0,0:0:0:0:
192,192,24506,1,0,0:0:0:0:
320,192,24555,1,0,0:0:0:0:
448,192,24605,1,0,0:0:0:0:
64,192,24654,1,0,0:0:0:0:
192,192,24704,1,0,0:0:0:0:
320,192,24753,1,0,0:0:0:0:
64,192,24802,1,0,0:0:0:0:
192,192,24852,1,0,0:0:0:0:
320,192,24901,1,0,0:0:0:0:
448,192,24950,1,0,0:0:0:0:
192,192,25000,1,0,0:0:0:0:
320,192,25049,1,0,0:0:0:0:
448,192,25098,1,0,0:0:0:0:
64,192,25147,1,0,0:0:0:0:
192,192,25197,1,0,0:0:0:0:
448,192,25246,1,0,0:0:0:0:
320,192,25296,1,0,0:0:0:0:
192,192,25345,1,0,0:0:0:0:
64,192,25394,1,0,0:0:0:0:
320,192,25444,1,0,0:0:0:0:
192,192,25493,1,0,0:0:0:0:
64,192,25542,1,0,0:0:0:0:
448,192,25592,1,0,0:0:0:0:
320,192,25641,1,0,0:0:0:0:
64,192,25691,1,0,0:0:0:0:
192,192,25740,1,0,0:0:0:0:
320,192,25789,1,0,0:0:0:0:
448,192,25838,1,0,0:0:0:0:
64,192,25888,1,0,0:0:0:0:
192,192,25937,1,0,0:0:0:0:
448,192,25986,1,0,0:0:0:0:
320,192,26036,1,0,0:0:0:0:
192,192,26085,1,0,0:0:0:0:
64,192,26134,1,0,0:0:0:0:
448,192,26184,1,0,0:0:0:0:
320,192,26233,1,0,0:0:0:0:
192,192,26283,1,0,0:0:0:0:
64,192,26332,1,0,0:0:0:0:
448,192,26381,1,0,0:0:0:0:
320,192,26431,1,0,0:0:0:0:
192,192,26480,1,0,0:0:0:0:
64,192,26529,1,0,0:0:0:0:
448,192,26578,1,0,0:0:0:0:
320,192,26628,1,0,0:0:0:0:
192,192,26677,1,0,0:0:0:0:
64,192,26726,1,0,0:0:0:0:
448,192,26776,1,0,0:0:0:0:
320,192,26825,1,0,0:0:0:0:
192,192,26875,1,0,0:0:0:0:
64,192,26924,1,0,0:0:0:0:
448,192,26973,1,0,0:0:0:0:
320,192,27023,1,0,0:0:0:0:
192,192,27072,1,0,0:0:0:0:
64,192,27121,1,0,0:0:0:0:
448,192,27171,1,0,0:0:0:0:
320,192,27220,1,0,0:0:0:0:
192,192,27270,1,0,0:0:0:0:
64,192,27318,1,0,0:0:0:0:
448,192,27368,1,0,0:0:0:0:
320,192,27417,1,0,0:0:0:0:
192,192,27467,1,0,0:0:0:0:
64,192,27516,1,0,0:0:0:0:
448,192,27565,1,0,0:0:0:0:
192,192,27615,1,0,0:0:0:0:
320,192,27664,1,0,0:0:0:0:
448,192,27713,1,0,0:0:0:0:
64,192,27763,1,0,0:0:0:0:
192,192,27812,1,0,0:0:0:0:
320,192,27862,1,0,0:0:0:0:
448,192,27911,1,0,0:0:0:0:
64,192,27960,1,0,0:0:0:0:
192,192,28010,1,0,0:0:0:0:
320,192,28059,1,0,0:0:0:0:
448,192,28108,1,0,0:0:0:0:
64,192,28157,1,0,0:0:0:0:
192,192,28207,1,0,0:0:0:0:
320,192,28256,1,0,0:0:0:0:
448,192,28305,1,0,0:0:0:0:
64,192,28355,1,0,0:0:0:0:
192,192,28404,1,0,0:0:0:0:
448,192,28454,1,0,0:0:0:0:
320,192,28503,1,0,0:0:0:0:
192,192,28552,1,0,0:0:0:0:
448,192,28602,1,0,0:0:0:0:
320,192,28651,1,0,0:0:0:0:
64,192,28700,1,0,0:0:0:0:
192,192,28750,1,0,0:0:0:0:
320,192,28799,1,0,0:0:0:0:
64,192,28848,1,0,0:0:0:0:
192,192,28897,1,0,0:0:0:0:
448,192,28947,1,0,0:0:0:0:
320,192,28996,1,0,0:0:0:0:
192,192,29046,1,0,0:0:0:0:
448,192,29095,1,0,0:0:0:0:
320,192,29144,1,0,0:0:0:0:
64,192,29194,1,0,0:0:0:0:
192,192,29243,1,0,0:0:0:0:
320,192,29292,1,0,0:0:0:0:
448,192,29342,1,0,0:0:0:0:
64,192,29391,1,0,0:0:0:0:
192,192,29441,1,0,0:0:0:0:
448,192,29490,1,0,0:0:0:0:
320,192,29539,1,0,0:0:0:0:
192,192,29588,1,0,0:0:0:0:
64,192,29638,1,0,0:0:0:0:
448,192,29687,1,0,0:0:0:0:
320,192,29736,1,0,0:0:0:0:
64,192,29786,1,0,0:0:0:0:
192,192,29835,1,0,0:0:0:0:
320,192,29884,1,0,0:0:0:0:
64,192,29934,1,0,0:0:0:0:
448,192,29983,1,0,0:0:0:0:
320,192,30033,1,0,0:0:0:0:
192,192,30082,1,0,0:0:0:0:
448,192,30131,1,0,0:0:0:0:
64,192,30181,1,0,0:0:0:0:
192,192,30230,1,0,0:0:0:0:
320,192,30279,1,0,0:0:0:0:
448,192,30328,1,0,0:0:0:0:
64,192,30378,1,0,0:0:0:0:
192,192,30427,1,0,0:0:0:0:
320,192,30476,1,0,0:0:0:0:
64,192,30526,1,0,0:0:0:0:
448,192,30575,1,0,0:0:0:0:
320,192,30625,1,0,0:0:0:0:
192,192,30674,1,0,0:0:0:0:
64,192,30723,1,0,0:0:0:0:
448,192,30773,1,0,0:0:0:0:
320,192,30822,1,0,0:0:0:0:
192,192,30871,1,0,0:0:0:0:
448,192,30921,1,0,0:0:0:0:
320,192,30970,1,0,0:0:0:0:
192,192,31020,1,0,0:0:0:0:
64,192,31068,1,0,0:0:0:0:
320,192,31118,1,0,0:0:0:0:
192,192,31167,1,0,0:0:0:0:
64,192,31217,1,0,0:0:0:0:
448,192,31266,1,0,0:0:0:0:
320,192,31315,1,0,0:0:0:0:
64,192,31365,1,0,0:0:0:0:
192,192,31414,1,0,0:0:0:0:
320,192,31463,1,0,0:0:0:0:
448,192,31513,1,0,0:0:0:0:
192,192,31562,1,0,0:0:0:0:
320,192,31612,1,0,0:0:0:0:
448,192,31661,1,0,0:0:0:0:
64,192,31710,1,0,0:0:0:0:
192,192,31760,1,0,0:0:0:0:
448,192,31809,1,0,0:0:0:0:
320,192,31858,1,0,0:0:0:0:
192,192,31907,1,0,0:0:0:0:
64,192,31957,1,0,0:0:0:0:
448,192,32006,1,0,0:0:0:0:
320,192,32055,1,0,0:0:0:0:
64,192,32105,1,0,0:0:0:0:
192,192,32154,1,0,0:0:0:0:
320,192,32204,1,0,0:0:0:0:
448,192,32253,1,0,0:0:0:0:
64,192,32302,1,0,0:0:0:0:
192,192,32352,1,0,0:0:0:0:
448,192,32401,1,0,0:0:0:0:
320,192,32450,1,0,0:0:0:0:
192,192,32500,1,0,0:0:0:0:
64,192,32549,1,0,0:0:0:0:
448,192,32598,1,0,0:0:0:0:
320,192,32647,1,0,0:0:0:0:
64,192,32697,1,0,0:0:0:0:
192,192,32746,1,0,0:0:0:0:
320,192,32796,1,0,0:0:0:0:
448,192,32845,1,0,0:0:0:0:
64,192,32894,1,0,0:0:0:0:
192,192,32944,1,0,0:0:0:0:
448,192,32993,1,0,0:0:0:0:
320,192,33042,1,0,0:0:0:0:
192,192,33092,1,0,0:0:0:0:
448,192,33141,1,0,0:0:0:0:
64,192,33191,1,0,0:0:0:0:
192,192,33240,1,0,0:0:0:0:
320,192,33289,1,0,0:0:0:0:
64,192,33338,1,0,0:0:0:0:
448,192,33388,1,0,0:0:0:0:
320,192,33437,1,0,0:0:0:0:
192,192,33486,1,0,0:0:0:0:
64,192,33536,1,0,0:0:0:0:
448,192,33585,1,0,0:0:0:0:
320,192,33634,1,0,0:0:0:0:
192,192,33684,1,0,0:0:0:0:
448,192,33733,1,0,0:0:0:0:
64,192,33783,1,0,0:0:0:0:
192,192,33832,1,0,0:0:0:0:
320,192,33881,1,0,0:0:0:0:
448,192,33931,1,0,0:0:0:0:
64,192,33980,1,0,0:0:0:0:
192,192,34029,1,0,0:0:0:0:
320,192,34078,1,0,0:0:0:0:
64,192,34128,1,0,0:0:0:0:
192,192,34177,1,0,0:0:0:0:
320,192,34226,1,0,0:0:0:0:
448,192,34276,1,0,0:0:0:0:
192,192,34325,1,0,0:0:0:0:
320,192,34375,1,0,0:0:0:0:
448,192,34424,1,0,0:0:0:0:
64,192,34473,1,0,0:0:0:0:
192,192,34523,1,0,0:0:0:0:
448,192,34572,1,0,0:0:0:0:
320,192,34621,1,0,0:0:0:0:
192,192,34671,1,0,0:0:0:0:
64,192,34720,1,0,0:0:0:0:
320,192,34770,1,0,0:0:0:0:
192,192,34818,1,0,0:0:0:0:
64,192,34868,1,0,0:0:0:0:
448,192,34917,1,0,0:0:0:0:
320,192,34967,1,0,0:0:0:0:
64,192,35016,1,0,0:0:0:0:
192,192,35065,1,0,0:0:0:0:
320,192,35115,1,0,0:0:0:0:
448,192,35164,1,0,0:0:0:0:
64,192,35213,1,0,0:0:0:0:
192,192,35263,1,0,0:0:0:0:
448,192,35312,1,0,0:0:0:0:
320,192,35362,1,0,0:0:0:0:
192,192,35411,1,0,0:0:0:0:
64,192,35460,1,0,0:0:0:0:
448,192,35510,1,0,0:0:0:0:
320,192,35559,1,0,0:0:0:0:
64,192,35608,1,0,0:0:0:0:
192,192,35657,1,0,0:0:0:0:
320,192,35707,1,0,0:0:0:0:
448,192,35756,1,0,0:0:0:0:
64,192,35805,1,0,0:0:0:0:
192,192,35855,1,0,0:0:0:0:
448,192,35904,1,0,0:0:0:0:
320,192,35954,1,0,0:0:0:0:
192,192,36003,1,0,0:0:0:0:
64,192,36052,1,0,0:0:0:0:
448,192,36102,1,0,0:0:0:0:
320,192,36151,1,0,0:0:0:0:
64,192,36200,1,0,0:0:0:0:
192,192,36250,1,0,0:0:0:0:
320,192,36299,1,0,0:0:0:0:
64,192,36348,1,0,0:0:0:0:
448,192,36397,1,0,0:0:0:0:
320,192,36447,1,0,0:0:0:0:
192,192,36496,1,0,0:0:0:0:
448,192,36546,1,0,0:0:0:0:
64,192,36595,1,0,0:0:0:0:
192,192,36644,1,0,0:0:0:0:
320,192,36694,1,0,0:0:0:0:
448,192,36743,1,0,0:0:0:0:
64,192,36792,1,0,0:0:0:0:
192,192,36842,1,0,0:0:0:0:
320,192,36891,1,0,0:0:0:0:
64,192,36941,1,0,0:0:0:0:
448,192,36990,1,0,0:0:0:0:
320,192,37039,1,0,0:0:0:0:
192,192,37088,1,0,0:0:0:0:
64,192,37138,1,0,0:0:0:0:
448,192,37187,1,0,0:0:0:0:
320,192,37236,1,0,0:0:0:0:
192,192,37286,1,0,0:0:0:0:
448,192,37335,1,0,0:0:0:0:
320,192,37384,1,0,0:0:0:0:
192,192,37434,1,0,0:0:0:0:
64,192,37483,1,0,0:0:0:0:
320,192,37533,1,0,0:0:0:0:
192,192,37582,1,0,0:0:0:0:
64,192,37631,1,0,0:0:0:0:
448,192,37681,1,0,0:0:0:0:
320,192,37730,1,0,0:0:0:0:
64,192,37779,1,0,0:0:0:0:
192,192,37828,1,0,0:0:0:0:
320,192,37878,1,0,0:0:0:0:
448,192,37927,1,0,0:0:0:0:
192,192,37976,1,0,0:0:0:0:
320,192,38026,1,0,0:0:0:0:
448,192,38075,1,0,0:0:0:0:
64,192,38125,1,0,0:0:0:0:
192,192,38174,1,0,0:0:0:0:
448,192,38223,1,0,0:0:0:0:
320,192,38273,1,0,0:0:0:0:
192,192,38322,1,0,0:0:0:0:
64,192,38371,1,0,0:0:0:0:
448,192,38421,1,0,0:0:0:0:
320,192,38470,1,0,0:0:0:0:
64,192,38520,1,0,0:0:0:0:
192,192,38568,1,0,0:0:0:0:
320,192,38618,1,0,0:0:0:0:
448,192,38667,1,0,0:0:0:0:
64,192,38717,1,0,0:0:0:0:
192,192,38766,1,0,0:0:0:0:
448,192,38815,1,0,0:0:0:0:
320,192,38865,1,0,0:0:0:0:
192,192,38914,1,0,0:0:0:0:
64,192,38963,1,0,0:0:0:0:
448,192,39013,1,0,0:0:0:0:
320,192,39062,1,0,0:0:0:0:
64,192,39112,1,0,0:0:0:0:
192,192,39161,1,0,0:0:0:0:
320,192,39210,1,0,0:0:0:0:
448,192,39260,1,0,0:0:0:0:
64,192,39309,1,0,0:0:0:0:
192,192,39358,1,0,0:0:0:0:
448,192,39407,1,0,0:0:0:0:
320,192,39457,1,0,0:0:0:0:
192,192,39506,1,0,0:0:0:0:
448,192,39555,1,0,0:0:0:0:
64,192,39605,1,0,0:0:0:0:
192,192,39654,1,0,0:0:0:0:
320,192,39704,1,0,0:0:0:0:
64,192,39753,1,0,0:0:0:0:
448,192,39802,1,0,0:0:0:0:
320,192,39852,1,0,0:0:0:0:
192,192,39901,1,0,0:0:0:0:
64,192,39950,1,0,0:0:0:0:
448,192,40000,1,0,0:0:0:0:
320,192,40049,1,0,0:0:0:0:
192,192,40098,1,0,0:0:0:0:
448,192,40147,1,0,0:0:0:0:
64,192,40197,1,0,0:0:0:0:
192,192,40246,1,0,0:0:0:0:
320,192,40296,1,0,0:0:0:0:
448,192,40345,1,0,0:0:0:0:
64,192,40394,1,0,0:0:0:0:
192,192,40444,1,0,0:0:0:0:
320,192,40493,1,0,0:0:0:0:
64,192,40542,1,0,0:0:0:0:
192,192,40592,1,0,0:0:0:0:
320,192,40641,1,0,0:0:0:0:
448,192,40691,1,0,0:0:0:0:
192,192,40740,1,0,0:0:0:0:
320,192,40789,1,0,0:0:0:0:
448,192,40838,1,0,0:0:0:0:
64,192,40888,1,0,0:0:0:0:
192,192,40937,1,0,0:0:0:0:
448,192,40986,1,0,0:0:0:0:
320,192,41036,1,0,0:0:0:0:
192,192,41085,1,0,0:0:0:0:
64,192,41134,1,0,0:0:0:0:
320,192,41184,1,0,0:0:0:0:
192,192,41233,1,0,0:0:0:0:
64,192,41283,1,0,0:0:0:0:
448,192,41332,1,0,0:0:0:0:
320,192,41381,1,0,0:0:0:0:
64,192,41431,1,0,0:0:0:0:
192,192,41480,1,0,0:0:0:0:
320,192,41529,1,0,0:0:0:0:
448,192,41578,1,0,0:0:0:0:
64,192,41628,1,0,0:0:0:0:
192,192,41677,1,0,0:0:0:0:
448,192,41726,1,0,0:0:0:0:
320,192,41776,1,0,0:0:0:0:
192,192,41825,1,0,0:0:0:0:
64,192,41875,1,0,0:0:0:0:
448,192,41924,1,0,0:0:0:0:
320,192,41973,1,0,0:0:0:0:
64,192,42023,1,0,0:0:0:0:
192,192,42072,1,0,0:0:0:0:
320,192,42121,1,0,0:0:0:0:
448,192,42171,1,0,0:0:0:0:
64,192,42220,1,0,0:0:0:0:
192,192,42270,1,0,0:0:0:0:
448,192,42318,1,0,0:0:0:0:
320,192,42368,1,0,0:0:0:0:
192,192,42417,1,0,0:0:0:0:
64,192,42467,1,0,0:0:0:0:
448,192,42516,1,0,0:0:0:0:
320,192,42565,1,0,0:0:0:0:
64,192,42615,1,0,0:0:0:0:
192,192,42664,1,0,0:0:0:0:
320,192,42713,1,0,0:0:0:0:
64,192,42763,1,0,0:0:0:0:
448,192,42812,1,0,0:0:0:0:
320,192,42862,1,0,0:0:0:0:
192,192,42911,1,0,0:0:0:0:
448,192,42960,1,0,0:0:0:0:
64,192,43010,1,0,0:0:0:0:
192,192,43059,1,0,0:0:0:0:
320,192,43108,1,0,0:0:0:0:
448,192,43157,1,0,0:0:0:0:
64,192,43207,1,0,0:0:0:0:
192,192,43256,1,0,0:0:0:0:
320,192,43305,1,0,0:0:0:0:
64,192,43355,1,0,0:0:0:0:
448,192,43404,1,0,0:0:0:0:
320,192,43454,1,0,0:0:0:0:
192,192,43503,1,0,0:0:0:0:
64,192,43552,1,0,0:0:0:0:
448,192,43602,1,0,0:0:0:0:
320,192,43651,1,0,0:0:0:0:
192,192,43700,1,0,0:0:0:0:
448,192,43750,1,0,0:0:0:0:
320,192,43799,1,0,0:0:0:0:
192,192,43848,1,0,0:0:0:0:
64,192,43897,1,0,0:0:0:0:
320,192,43947,1,0,0:0:0:0:
192,192,43996,1,0,0:0:0:0:
64,192,44046,1,0,0:0:0:0:
448,192,44095,1,0,0:0:0:0:
320,192,44144,1,0,0:0:0:0:
64,192,44194,1,0,0:0:0:0:
192,192,44243,1,0,0:0:0:0:
320,192,44292,1,0,0:0:0:0:
448,192,44342,1,0,0:0:0:0:
192,192,44391,1,0,0:0:0:0:
320,192,44441,1,0,0:0:0:0:
448,192,44490,1,0,0:0:0:0:
64,192,44539,1,0,0:0:0:0:
192,192,44588,1,0,0:0:0:0:
448,192,44638,1,0,0:0:0:0:
320,192,44687,1,0,0:0:0:0:
192,192,44736,1,0,0:0:0:0:
64,192,44786,1,0,0:0:0:0:
448,192,44835,1,0,0:0:0:0:
320,192,44884,1,0,0:0:0:0:
64,192,44934,1,0,0:0:0:0:
192,192,44983,1,0,0:0:0:0:
320,192,45033,1,0,0:0:0:0:
448,192,45082,1,0,0:0:0:0:
64,192,45131,1,0,0:0:0:0:
192,192,45181,1,0,0:0:0:0:
448,192,45230,1,0,0:0:0:0:
320,192,45279,1,0,0:0:0:0:
192,192,45328,1,0,0:0:0:0:
64,192,45378,1,0,0:0:0:0:
448,192,45427,1,0,0:0:0:0:
320,192,45476,1,0,0:0:0:0:
64,192,45526,1,0,0:0:0:0:
192,192,45575,1,0,0:0:0:0:
320,192,45625,1,0,0:0:0:0:
448,192,45674,1,0,0:0:0:0:
64,192,45723,1,0,0:0:0:0:
192,192,45773,1,0,0:0:0:0:
448,192,45822,1,0,0:0:0:0:
320,192,45871,1,0,0:0:0:0:
192,192,45921,1,0,0:0:0:0:
448,192,45970,1,0,0:0:0:0:
64,192,46020,1,0,0:0:0:0:
192,192,46068,1,0,0:0:0:0:
320,192,46118,1,0,0:0:0:0:
64,192,46167,1,0,0:0:0:0:
448,192,46217,1,0,0:0:0:0:
320,192,46266,1,0,0:0:0:0:
192,192,46315,1,0,0:0:0:0:
64,192,46365,1,0,0:0:0:0:
448,192,46414,1,0,0:0:0:0:
320,192,46463,1,0,0:0:0:0:
192,192,46513,1,0,0:0:0:0:
448,192,46562,1,0,0:0:0:0:
64,192,46612,1,0,0:0:0:0:
192,192,46661,1,0,0:0:0:0:
320,192,46710,1,0,0:0:0:0:
448,192,46760,1,0,0:0:0:0:
64,192,46809,1,0,0:0:0:0:
192,192,46858,1,0,0:0:0:0:
320,192,46907,1,0,0:0:0:0:
64,192,46957,1,0,0:0:0:0:
192,192,47006,1,0,0:0:0:0:
320,192,47055,1,0,0:0:0:0:
448,192,47105,1,0,0:0:0:0:
192,192,47154,1,0,0:0:0:0:
320,192,47204,1,0,0:0:0:0:
448,192,47253,1,0,0:0:0:0:
64,192,47302,1,0,0:0:0:0:
192,192,47352,1,0,0:0:0:0:
448,192,47401,1,0,0:0:0:0:
320,192,47450,1,0,0:0:0:0:
192,192,47500,1,0,0:0:0:0:
64,192,47549,1,0,0:0:0:0:
320,192,47598,1,0,0:0:0:0:
192,192,47647,1,0,0:0:0:0:
64,192,47697,1,0,0:0:0:0:
448,192,47746,1,0,0:0:0:0:
320,192,47796,1,0,0:0:0:0:
64,192,47845,1,0,0:0:0:0:
192,192,47894,1,0,0:0:0:0:
320,192,47944,1,0,0:0:0:0:
448,192,47993,1,0,0:0:0:0:
64,192,48042,1,0,0:0:0:0:
192,192,48092,1,0,0:0:0:0:
448,192,48141,1,0,0:0:0:0:
320,192,48191,1,0,0:0:0:0:
192,192,48240,1,0,0:0:0:0:
64,192,48289,1,0,0:0:0:0:
448,192,48338,1,0,0:0:0:0:
320,192,48388,1,0,0:0:0:0:
64,192,48437,1,0,0:0:0:0:
192,192,48486,1,0,0:0:0:0:
320,192,48536,1,0,0:0:0:0:
448,192,48585,1,0,0:0:0:0:
64,192,48634,1,0,0:0:0:0:
192,192,48684,1,0,0:0:0:0:
448,192,48733,1,0,0:0:0:0:
320,192,48783,1,0,0:0:0:0:
192,192,48832,1,0,0:0:0:0:
64,192,48881,1,0,0:0:0:0:
448,192,48931,1,0,0:0:0:0:
320,192,48980,1,0,0:0:0:0:
64,192,49029,1,0,0:0:0:0:
192,192,49078,1,0,0:0:0:0:
320,192,49128,1,0,0:0:0:0:
64,192,49177,1,0,0:0:0:0:
448,192,49226,1,0,0:0:0:0:
320,192,49276,1,0,0:0:0:0:
192,192,49325,1,0,0:0:0:0:
448,192,49375,1,0,0:0:0:0:
64,192,49424,1,0,0:0:0:0:
192,192,49473,1,0,0:0:0:0:
320,192,49523,1,0,0:0:0:0:
448,192,49572,1,0,0:0:0:0:
64,192,49621,1,0,0:0:0:0:
192,192,49671,1,0,0:0:0:0:
320,192,49720,1,0,0:0:0:0:
64,192,49770,1,0,0:0:0:0:
448,192,49818,1,0,0:0:0:0:
320,192,49868,1,0,0:0:0:0:
192,192,49917,1,0,0:0:0:0:
64,192,49967,1,0,0:0:0:0:
448,192,50016,1,0,0:0:0:0:
320,192,50065,1,0,0:0:0:0:
192,192,50115,1,0,0:0:0:0:
448,192,50164,1,0,0:0:0:0:
320,192,50213,1,0,0:0:0:0:
192,192,50263,1,0,0:0:0:0:
64,192,50312,1,0,0:0:0:0:
320,192,50362,1,0,0:0:0:0:
192,192,50411,1,0,0:0:0:0:
64,192,50460,1,0,0:0:0:0:
448,192,50510,1,0,0:0:0:0:
320,192,50559,1,0,0:0:0:0:
64,192,50608,1,0,0:0:0:0:
192,192,50657,1,0,0:0:0:0:
320,192,50707,1,0,0:0:0:0:
448,192,50756,1,0,0:0:0:0:
192,192,50805,1,0,0:0:0:0:
320,192,50855,1,0,0:0:0:0:
448,192,50904,1,0,0:0:0:0:
64,192,50954,1,0,0:0:0:0:
192,192,51003,1,0,0:0:0:0:
448,192,51052,1,0,0:0:0:0:
320,192,51102,1,0,0:0:0:0:
192,192,51151,1,0,0:0:0:0:
64,192,51200,1,0,0:0:0:0:
448,192,51250,1,0,0:0:0:0:
320,192,51299,1,0,0:0:0:0:
64,192,51348,1,0,0:0:0:0:
192,192,51397,1,0,0:0:0:0:
320,192,51447,1,0,0:0:0:0:
448,192,51496,1,0,0:0:0:0:
64,192,51546,1,0,0:0:0:0:
192,192,51595,1,0,0:0:0:0:
448,192,51644,1,0,0:0:0:0:
320,192,51694,1,0,0:0:0:0:
192,192,51743,1,0,0:0:0:0:
64,192,51792,1,0,0:0:0:0:
448,192,51842,1,0,0:0:0:0:
320,192,51891,1,0,0:0:0:0:
64,192,51941,1,0,0:0:0:0:
192,192,51990,1,0,0:0:0:0:
320,192,52039,1,0,0:0:0:0:
448,192,52088,1,0,0:0:0:0:
64,192,52138,1,0,0:0:0:0:
192,192,52187,1,0,0:0:0:0:
448,192,52236,1,0,0:0:0:0:
320,192,52286,1,0,0:0:0:0:
192,192,52335,1,0,0:0:0:0:
448,192,52384,1,0,0:0:0:0:
64,192,52434,1,0,0:0:0:0:
192,192,52483,1,0,0:0:0:0:
320,192,52533,1,0,0:0:0:0:
64,192,52582,1,0,0:0:0:0:
448,192,52631,1,0,0:0:0:0:
320,192,52681,1,0,0:0:0:0:
192,192,52730,1,0,0:0:0:0:
64,192,52779,1,0,0:0:0:0:
448,192,52828,1,0,0:0:0:0:
320,192,52878,1,0,0:0:0:0:
192,192,52927,1,0,0:0:0:0:
448,192,52976,1,0,0:0:0:0:
64,192,53026,1,0,0:0:0:0:
192,192,53075,1,0,0:0:0:0:
320,192,53125,1,0,0:0:0:0:
448,192,53174,1,0,0:0:0:0:
64,192,53223,1,0,0:0:0:0:
192,192,53273,1,0,0:0:0:0:
320,192,53322,1,0,0:0:0:0:
64,192,53371,1,0,0:0:0:0:
192,192,53421,1,0,0:0:0:0:
320,192,53470,1,0,0:0:0:0:
448,192,53520,1,0,0:0:0:0:
192,192,53568,1,0,0:0:0:0:
320,192,53618,1,0,0:0:0:0:
448,192,53667,1,0,0:0:0:0:
64,192,53717,1,0,0:0:0:0:
192,192,53766,1,0,0:0:0:0:
448,192,53815,1,0,0:0:0:0:
320,192,53865,1,0,0:0:0:0:
192,192,53914,1,0,0:0:0:0:
64,192,53963,1,0,0:0:0:0:
320,192,54013,1,0,0:0:0:0:
192,192,54062,1,0,0:0:0:0:
64,192,54112,1,0,0:0:0:0:
448,192,54161,1,0,0:0:0:0:
320,192,54210,1,0,0:0:0:0:
64,192,54260,1,0,0:0:0:0:
192,192,54309,1,0,0:0:0:0:
320,192,54358,1,0,0:0:0:0:
448,192,54407,1,0,0:0:0:0:
64,192,54457,1,0,0:0:0:0:
192,192,54506,1,0,0:0:0:0:
448,192,54555,1,0,0:0:0:0:
320,192,54605,1,0,0:0:0:0:
192,192,54654,1,0,0:0:0:0:
64,192,54704,1,0,0:0:0:0:
448,192,54753,1,0,0:0:0:0:
320,192,54802,1,0,0:0:0:0:
192,192,54852,1,0,0:0:0:0:
64,192,54901,1,0,0:0:0:0:
448,192,54950,1,0,0:0:0:0:
320,192,55000,1,0,0:0:0:0:
192,192,55049,1,0,0:0:0:0:
64,192,55098,1,0,0:0:0:0:
448,192,55147,1,0,0:0:0:0:
320,192,55197,1,0,0:0:0:0:
192,192,55246,1,0,0:0:0:0:
64,192,55296,1,0,0:0:0:0:
448,192,55345,1,0,0:0:0:0:
320,192,55394,1,0,0:0:0:0:
192,192,55444,1,0,0:0:0:0:
64,192,55493,1,0,0:0:0:0:
448,192,55542,1,0,0:0:0:0:
320,192,55592,1,0,0:0:0:0:
192,192,55641,1,0,0:0:0:0:
64,192,55691,1,0,0:0:0:0:
448,192,55740,1,0,0:0:0:0:
320,192,55789,1,0,0:0:0:0:
192,192,55838,1,0,0:0:0:0:
64,192,55888,1,0,0:0:0:0:
448,192,55937,1,0,0:0:0:0:
320,192,55986,1,0,0:0:0:0:
192,192,56036,1,0,0:0:0:0:
64,192,56085,1,0,0:0:0:0:
448,192,56134,1,0,0:0:0:0:
192,192,56184,1,0,0:0:0:0:
320,192,56233,1,0,0:0:0:0:
448,192,56283,1,0,0:0:0:0:
64,192,56332,1,0,0:0:0:0:
192,192,56381,1,0,0:0:0:0:
320,192,56431,1,0,0:0:0:0:
448,192,56480,1,0,0:0:0:0:
64,192,56529,1,0,0:0:0:0:
192,192,56578,1,0,0:0:0:0:
320,192,56628,1,0,0:0:0:0:
448,192,56677,1,0,0:0:0:0:
64,192,56726,1,0,0:0:0:0:
192,192,56776,1,0,0:0:0:0:
320,192,56825,1,0,0:0:0:0:
448,192,56875,1,0,0:0:0:0:
64,192,56924,1,0,0:0:0:0:
192,192,56973,1,0,0:0:0:0:
448,192,57023,1,0,0:0:0:0:
320,192,57072,1,0,0:0:0:0:
192,192,57121,1,0,0:0:0:0:
448,192,57171,1,0,0:0:0:0:
320,192,57220,1,0,0:0:0:0:
64,192,57270,1,0,0:0:0:0:
192,192,57318,1,0,0:0:0:0:
320,192,57368,1,0,0:0:0:0:
64,192,57417,1,0,0:0:0:0:
192,192,57467,1,0,0:0:0:0:
448,192,57516,1,0,0:0:0:0:
320,192,57565,1,0,0:0:0:0:
192,192,57615,1,0,0:0:0:0:
448,192,57664,1,0,0:0:0:0:
320,192,57713,1,0,0:0:0:0:
64,192,57763,1,0,0:0:0:0:
192,192,57812,1,0,0:0:0:0:
320,192,57862,1,0,0:0:0:0:
448,192,57911,1,0,0:0:0:0:
64,192,57960,1,0,0:0:0:0:
192,192,58010,1,0,0:0:0:0:
448,192,58059,1,0,0:0:0:0:
320,192,58108,1,0,0:0:0:0:
192,192,58157,1,0,0:0:0:0:
64,192,58207,1,0,0:0:0:0:
448,192,58256,1,0,0:0:0:0:
320,192,58305,1,0,0:0:0:0:
64,192,58355,1,0,0:0:0:0:
192,192,58404,1,0,0:0:0:0:
320,192,58454,1,0,0:0:0:0:
64,192,58503,1,0,0:0:0:0:
448,192,58552,1,0,0:0:0:0:
320,192,58602,1,0,0:0:0:0:
192,192,58651,1,0,0:0:0:0:
448,192,58700,1,0,0:0:0:0:
64,192,58750,1,0,0:0:0:0:
192,192,58799,1,0,0:0:0:0:
320,192,58848,1,0,0:0:0:0:
448,192,58897,1,0,0:0:0:0:
64,192,58947,1,0,0:0:0:0:
192,192,58996,1,0,0:0:0:0:
320,192,59046,1,0,0:0:0:0:
64,192,59095,1,0,0:0:0:0:
448,192,59144,1,0,0:0:0:0:
320,192,59194,1,0,0:0:0:0:
192,192,59243,1,0,0:0:0:0:
64,192,59292,1,0,0:0:0:0:
448,192,59342,1,0,0:0:0:0:
320,192,59391,1,0,0:0:0:0:
192,192,59441,1,0,0:0:0:0:
448,192,59490,1,0,0:0:0:0:
320,192,59539,1,0,0:0:0:0:
192,192,59588,1,0,0:0:0:0:
64,192,59638,1,0,0:0:0:0:
320,192,59687,1,0,0:0:0:0:
192,192,59736,1,0,0:0:0:0:
64,192,59786,1,0,0:0:0:0:
448,192,59835,1,0,0:0:0:0:
320,192,59884,1,0,0:0:0:0:
64,192,59934,1,0,0:0:0:0:
192,192,59983,1,0,0:0:0:0:
320,192,60033,1,0,0:0:0:0:
448,192,60082,1,0,0:0:0:0:
192,192,60131,1,0,0:0:0:0:
320,192,60181,1,0,0:0:0:0:
448,192,60230,1,0,0:0:0:0:
64,192,60279,1,0,0:0:0:0:
192,192,60328,1,0,0:0:0:0:
448,192,60378,1,0,0:0:0:0:
320,192,60427,1,0,0:0:0:0:
192,192,60476,1,0,0:0:0:0:
64,192,60526,1,0,0:0:0:0:
448,192,60575,1,0,0:0:0:0:
320,192,60625,1,0,0:0:0:0:
64,192,60674,1,0,0:0:0:0:
192,192,60723,1,0,0:0:0:0:
320,192,60773,1,0,0:0:0:0:
448,192,60822,1,0,0:0:0:0:
64,192,60871,1,0,0:0:0:0:
192,192,60921,1,0,0:0:0:0:
448,192,60970,1,0,0:0:0:0:
320,192,61020,1,0,0:0:0:0:
192,192,61068,1,0,0:0:0:0:
64,192,61118,1,0,0:0:0:0:
448,192,61167,1,0,0:0:0:0:
320,192,61217,1,0,0:0:0:0:
64,192,61266,1,0,0:0:0:0:
192,192,61315,1,0,0:0:0:0:
320,192,61365,1,0,0:0:0:0:
448,192,61414,1,0,0:0:0:0:
64,192,61463,1,0,0:0:0:0:
192,192,61513,1,0,0:0:0:0:
448,192,61562,1,0,0:0:0:0:
320,192,61612,1,0,0:0:0:0:
192,192,61661,1,0,0:0:0:0:
448,192,61710,1,0,0:0:0:0:
64,192,61760,1,0,0:0:0:0:
192,192,61809,1,0,0:0:0:0:
320,192,61858,1,0,0:0:0:0:
64,192,61907,1,0,0:0:0:0:
448,192,61957,1,0,0:0:0:0:
320,192,62006,1,0,0:0:0:0:
192,192,62055,1,0,0:0:0:0:
64,192,62105,1,0,0:0:0:0:
448,192,62154,1,0,0:0:0:0:
320,192,62204,1,0,0:0:0:0:
192,192,62253,1,0,0:0:0:0:
448,192,62302,1,0,0:0:0:0:
64,192,62352,1,0,0:0:0:0:
192,192,62401,1,0,0:0:0:0:
320,192,62450,1,0,0:0:0:0:
448,192,62500,1,0,0:0:0:0:
64,192,62549,1,0,0:0:0:0:
192,192,62598,1,0,0:0:0:0:
320,192,62647,1,0,0:0:0:0:
64,192,62697,1,0,0:0:0:0:
192,192,62746,1,0,0:0:0:0:
320,192,62796,1,0,0:0:0:0:
448,192,62845,1,0,0:0:0:0:
192,192,62894,1,0,0:0:0:0:
320,192,62944,1,0,0:0:0:0:
448,192,62993,1,0,0:0:0:0:
64,192,63042,1,0,0:0:0:0:
192,192,63092,1,0,0:0:0:0:
448,192,63141,1,0,0:0:0:0:
320,192,63191,1,0,0:0:0:0:
192,192,63240,1,0,0:0:0:0:
64,192,63289,1,0,0:0:0:0:
320,192,63338,1,0,0:0:0:0:
192,192,63388,1,0,0:0:0:0:
64,192,63437,1,0,0:0:0:0:
448,192,63486,1,0,0:0:0:0:
320,192,63536,1,0,0:0:0:0:
64,192,63585,1,0,0:0:0:0:
192,192,63634,1,0,0:0:0:0:
320,192,63684,1,0,0:0:0:0:
448,192,63733,1,0,0:0:0:0:
64,192,63783,1,0,0:0:0:0:
192,192,63832,1,0,0:0:0:0:
448,192,63881,1,0,0:0:0:0:
320,192,63931,1,0,0:0:0:0:
192,192,63980,1,0,0:0:0:0:
64,192,64029,1,0,0:0:0:0:
448,192,64078,1,0,0:0:0:0:
320,192,64128,1,0,0:0:0:0:
64,192,64177,1,0,0:0:0:0:
192,192,64226,1,0,0:0:0:0:
320,192,64276,1,0,0:0:0:0:
448,192,64325,1,0,0:0:0:0:
64,192,64375,1,0,0:0:0:0:
192,192,64424,1,0,0:0:0:0:
448,192,64473,1,0,0:0:0:0:
320,192,64523,1,0,0:0:0:0:
192,192,64572,1,0,0:0:0:0:
64,192,64621,1,0,0:0:0:0:
448,192,64671,1,0,0:0:0:0:
320,192,64720,1,0,0:0:0:0:
64,192,64770,1,0,0:0:0:0:
192,192,64818,1,0,0:0:0:0:
320,192,64868,1,0,0:0:0:0:
64,192,64917,1,0,0:0:0:0:
448,192,64967,1,0,0:0:0:0:
320,192,65016,1,0,0:0:0:0:
192,192,65065,1,0,0:0:0:0:
448,192,65115,1,0,0:0:0:0:
64,192,65164,1,0,0:0:0:0:
192,192,65213,1,0,0:0:0:0:
320,192,65263,1,0,0:0:0:0:
448,192,65312,1,0,0:0:0:0:
64,192,65362,1,0,0:0:0:0:
192,192,65411,1,0,0:0:0:0:
320,192,65460,1,0,0:0:0:0:
64,192,65510,1,0,0:0:0:0:
448,192,65559,1,0,0:0:0:0:
320,192,65608,1,0,0:0:0:0:
192,192,65657,1,0,0:0:0:0:
64,192,65707,1,0,0:0:0:0:
448,192,65756,1,0,0:0:0:0:
320,192,65805,1,0,0:0:0:0:
192,192,65855,1,0,0:0:0:0:
448,192,65904,1,0,0:0:0:0:
320,192,65954,1,0,0:0:0:0:
192,192,66003,1,0,0:0:0:0:
64,192,66052,1,0,0:0:0:0:
320,192,66102,1,0,0:0:0:0:
192,192,66151,1,0,0:0:0:0:
64,192,66200,1,0,0:0:0:0:
448,192,66250,1,0,0:0:0:0:
320,192,66299,1,0,0:0:0:0:
64,192,66348,1,0,0:0:0:0:
192,192,66397,1,0,0:0:0:0:
320,192,66447,1,0,0:0:0:0:
448,192,66496,1,0,0:0:0:0:
192,192,66546,1,0,0:0:0:0:
320,192,66595,1,0,0:0:0:0:
448,192,66644,1,0,0:0:0:0:
64,192,66694,1,0,0:0:0:0:
192,192,66743,1,0,0:0:0:0:
448,192,66792,1,0,0:0:0:0:
320,192,66842,1,0,0:0:0:0:
192,192,66891,1,0,0:0:0:0:
64,192,66941,1,0,0:0:0:0:
448,192,66990,1,0,0:0:0:0:
320,192,67039,1,0,0:0:0:0:
64,192,67088,1,0,0:0:0:0:
192,192,67138,1,0,0:0:0:0:
320,192,67187,1,0,0:0:0:0:
448,192,67236,1,0,0:0:0:0:
64,192,67286,1,0,0:0:0:0:
192,192,67335,1,0,0:0:0:0:
448,192,67384,1,0,0:0:0:0:
320,192,67434,1,0,0:0:0:0:
192,192,67483,1,0,0:0:0:0:
64,192,67533,1,0,0:0:0:0:
448,192,67582,1,0,0:0:0:0:
320,192,67631,1,0,0:0:0:0:
64,192,67681,1,0,0:0:0:0:
192,192,67730,1,0,0:0:0:0:
320,192,67779,1,0,0:0:0:0:
448,192,67828,1,0,0:0:0:0:
64,192,67878,1,0,0:0:0:0:
192,192,67927,1,0,0:0:0:0:
448,192,67976,1,0,0:0:0:0:
320,192,68026,1,0,0:0:0:0:
192,192,68075,1,0,0:0:0:0:
448,192,68125,1,0,0:0:0:0:
64,192,68174,1,0,0:0:0:0:
192,192,68223,1,0,0:0:0:0:
320,192,68273,1,0,0:0:0:0:
64,192,68322,1,0,0:0:0:0:
448,192,68371,1,0,0:0:0:0:
320,192,68421,1,0,0:0:0:0:
192,192,68470,1,0,0:0:0:0:
64,192,68520,1,0,0:0:0:0:
448,192,68568,1,0,0:0:0:0:
320,192,68618,1,0,0:0:0:0:
192,192,68667,1,0,0:0:0:0:
448,192,68717,1,0,0:0:0:0:
64,192,68766,1,0,0:0:0:0:
192,192,68815,1,0,0:0:0:0:
320,192,68865,1,0,0:0:0:0:
448,192,68914,1,0,0:0:0:0:
64,192,68963,1,0,0:0:0:0:
192,192,69013,1,0,0:0:0:0:
320,192,69062,1,0,0:0:0:0:
64,192,69112,1,0,0:0:0:0:
192,192,69161,1,0,0:0:0:0:
320,192,69210,1,0,0:0:0:0:
448,192,69260,1,0,0:0:0:0:
192,192,69309,1,0,0:0:0:0:
320,192,69358,1,0,0:0:0:0:
448,192,69407,1,0,0:0:0:0:
64,192,69457,1,0,0:0:0:0:
192,192,69506,1,0,0:0:0:0:
448,192,69555,1,0,0:0:0:0:
320,192,69605,1,0,0:0:0:0:
192,192,69654,1,0,0:0:0:0:
64,192,69704,1,0,0:0:0:0:
320,192,69753,1,0,0:0:0:0:
192,192,69802,1,0,0:0:0:0:
64,192,69852,1,0,0:0:0:0:
448,192,69901,1,0,0:0:0:0:
320,192,69950,1,0,0:0:0:0:
64,192,70000,1,0,0:0:0:0:
192,192,70049,1,0,0:0:0:0:
320,192,70098,1,0,0:0:0:0:
448,192,70147,1,0,0:0:0:0:
64,192,70197,1,0,0:0:0:0:
192,192,70246,1,0,0:0:0:0:
448,192,70296,1,0,0:0:0:0:
320,192,70345,1,0,0:0:0:0:
192,192,70394,1,0,0:0:0:0:
64,192,70444,1,0,0:0:0:0:
448,192,70493,1,0,0:0:0:0:
320,192,70542,1,0,0:0:0:0:
64,192,70592,1,0,0:0:0:0:
192,192,70641,1,0,0:0:0:0:
320,192,70691,1,0,0:0:0:0:
448,192,70740,1,0,0:0:0:0:
64,192,70789,1,0,0:0:0:0:
192,192,70838,1,0,0:0:0:0:
448,192,70888,1,0,0:0:0:0:
320,192,70937,1,0,0:0:0:0:
192,192,70986,1,0,0:0:0:0:
64,192,71036,1,0,0:0:0:0:
448,192,71085,1,0,0:0:0:0:
320,192,71134,1,0,0:0:0:0:
64,192,71184,1,0,0:0:0:0:
192,192,71233,1,0,0:0:0:0:
320,192,71283,1,0,0:0:0:0:
64,192,71332,1,0,0:0:0:0:
448,192,71381,1,0,0:0:0:0:
320,192,71431,1,0,0:0:0:0:
192,192,71480,1,0,0:0:0:0:
448,192,71529,1,0,0:0:0:0:
64,192,71578,1,0,0:0:0:0:
192,192,71628,1,0,0:0:0:0:
320,192,71677,1,0,0:0:0:0:
448,192,71726,1,0,0:0:0:0:
64,192,71776,1,0,0:0:0:0:
192,192,71825,1,0,0:0:0:0:
320,192,71875,1,0,0:0:0:0:
64,192,71924,1,0,0:0:0:0:
448,192,71973,1,0,0:0:0:0:
320,192,72023,1,0,0:0:0:0:
192,192,72072,1,0,0:0:0:0:
64,192,72121,1,0,0:0:0:0:
448,192,72171,1,0,0:0:0:0:
320,192,72220,1,0,0:0:0:0:
192,192,72270,1,0,0:0:0:0:
448,192,72318,1,0,0:0:0:0:
320,192,72368,1,0,0:0:0:0:
192,192,72417,1,0,0:0:0:0:
64,192,72467,1,0,0:0:0:0:
320,192,72516,1,0,0:0:0:0:
192,192,72565,1,0,0:0:0:0:
64,192,72615,1,0,0:0:0:0:
448,192,72664,1,0,0:0:0:0:
320,192,72713,1,0,0:0:0:0:
64,192,72763,1,0,0:0:0:0:
192,192,72812,1,0,0:0:0:0:
320,192,72862,1,0,0:0:0:0:
448,192,72911,1,0,0:0:0:0:
192,192,72960,1,0,0:0:0:0:
320,192,73010,1,0,0:0:0:0:
448,192,73059,1,0,0:0:0:0:
64,192,73108,1,0,0:0:0:0:
192,192,73157,1,0,0:0:0:0:
448,192,73207,1,0,0:0:0:0:
320,192,73256,1,0,0:0:0:0:
192,192,73305,1,0,0:0:0:0:
64,192,73355,1,0,0:0:0:0:
448,192,73404,1,0,0:0:0:0:
320,192,73454,1,0,0:0:0:0:
64,192,73503,1,0,0:0:0:0:
192,192,73552,1,0,0:0:0:0:
320,192,73602,1,0,0:0:0:0:
448,192,73651,1,0,0:0:0:0:
64,192,73700,1,0,0:0:0:0:
192,192,73750,1,0,0:0:0:0:
448,192,73799,1,0,0:0:0:0:
320,192,73848,1,0,0:0:0:0:
192,192,73897,1,0,0:0:0:0:
64,192,73947,1,0,0:0:0:0:
448,192,73996,1,0,0:0:0:0:
320,192,74046,1,0,0:0:0:0:
64,192,74095,1,0,0:0:0:0:
192,192,74144,1,0,0:0:0:0:
320,192,74194,1,0,0:0:0:0:
448,192,74243,1,0,0:0:0:0:
64,192,74292,1,0,0:0:0:0:
192,192,74342,1,0,0:0:0:0:
448,192,74391,1,0,0:0:0:0:
320,192,74441,1,0,0:0:0:0:
192,192,74490,1,0,0:0:0:0:
448,192,74539,1,0,0:0:0:0:
64,192,74588,1,0,0:0:0:0:
192,192,74638,1,0,0:0:0:0:
320,192,74687,1,0,0:0:0:0:
64,192,74736,1,0,0:0:0:0:
448,192,74786,1,0,0:0:0:0:
320,192,74835,1,0,0:0:0:0:
192,192,74884,1,0,0:0:0:0:
64,192,74934,1,0,0:0:0:0:
448,192,74983,1,0,0:0:0:0:
320,192,75033,1,0,0:0:0:0:
192,192,75082,1,0,0:0:0:0:
448,192,75131,1,0,0:0:0:0:
64,192,75181,1,0,0:0:0:0:
192,192,75230,1,0,0:0:0:0:
320,192,75279,1,0,0:0:0:0:
448,192,75328,1,0,0:0:0:0:
64,192,75378,1,0,0:0:0:0:
192,192,75427,1,0,0:0:0:0:
320,192,75476,1,0,0:0:0:0:
64,192,75526,1,0,0:0:0:0:
192,192,75575,1,0,0:0:0:0:
320,192,75625,1,0,0:0:0:0:
448,192,75674,1,0,0:0:0:0:
192,192,75723,1,0,0:0:0:0:
320,192,75773,1,0,0:0:0:0:
448,192,75822,1,0,0:0:0:0:
64,192,75871,1,0,0:0:0:0:
192,192,75921,1,0,0:0:0:0:
448,192,75970,1,0,0:0:0:0:
320,192,76020,1,0,0:0:0:0:
192,192,76068,1,0,0:0:0:0:
64,192,76118,1,0,0:0:0:0:
320,192,76167,1,0,0:0:0:0:
192,192,76217,1,0,0:0:0:0:
64,192,76266,1,0,0:0:0:0:
448,192,76315,1,0,0:0:0:0:
320,192,76365,1,0,0:0:0:0:
64,192,76414,1,0,0:0:0:0:
192,192,76463,1,0,0:0:0:0:
320,192,76513,1,0,0:0:0:0:
448,192,76562,1,0,0:0:0:0:
64,192,76612,1,0,0:0:0:0:
192,192,76661,1,0,0:0:0:0:
448,192,76710,1,0,0:0:0:0:
320,192,76760,1,0,0:0:0:0:
192,192,76809,1,0,0:0:0:0:
64,192,76858,1,0,0:0:0:0:
448,192,76907,1,0,0:0:0:0:
320,192,76957,1,0,0:0:0:0:
64,192,77006,1,0,0:0:0:0:
192,192,77055,1,0,0:0:0:0:
320,192,77105,1,0,0:0:0:0:
448,192,77154,1,0,0:0:0:0:
64,192,77204,1,0,0:0:0:0:
192,192,77253,1,0,0:0:0:0:
448,192,77302,1,0,0:0:0:0:
320,192,77352,1,0,0:0:0:0:
192,192,77401,1,0,0:0:0:0:
64,192,77450,1,0,0:0:0:0:
448,192,77500,1,0,0:0:0:0:
320,192,77549,1,0,0:0:0:0:
64,192,77598,1,0,0:0:0:0:
192,192,77647,1,0,0:0:0:0:
320,192,77697,1,0,0:0:0:0:
64,192,77746,1,0,0:0:0:0:
448,192,77796,1,0,0:0:0:0:
320,192,77845,1,0,0:0:0:0:
192,192,77894,1,0,0:0:0:0:
448,192,77944,1,0,0:0:0:0:
64,192,77993,1,0,0:0:0:0:
192,192,78042,1,0,0:0:0:0:
320,192,78092,1,0,0:0:0:0:
448,192,78141,1,0,0:0:0:0:
64,192,78191,1,0,0:0:0:0:
192,192,78240,1,0,0:0:0:0:
320,192,78289,1,0,0:0:0:0:
64,192,78338,1,0,0:0:0:0:
448,192,78388,1,0,0:0:0:0:
320,192,78437,1,0,0:0:0:0:
192,192,78486,1,0,0:0:0:0:
64,192,78536,1,0,0:0:0:0:
448,192,78585,1,0,0:0:0:0:
320,192,78634,1,0,0:0:0:0:
192,192,78684,1,0,0:0:0:0:
448,192,78733,1,0,0:0:0:0:
320,192,78783,1,0,0:0:0:0:
192,192,78832,1,0,0:0:0:0:
64,192,78881,1,0,0:0:0:0:
320,192,78931,1,0,0:0:0:0:
192,192,78980,1,0,0:0:0:0:
64,192,79029,1,0,0:0:0:0:
448,192,79078,1,0,0:0:0:0:
320,192,79128,1,0,0:0:0:0:
64,192,79177,1,0,0:0:0:0:
192,192,79226,1,0,0:0:0:0:
320,192,79276,1,0,0:0:0:0:
448,192,79325,1,0,0:0:0:0:
192,192,79375,1,0,0:0:0:0:
320,192,79424,1,0,0:0:0:0:
448,192,79473,1,0,0:0:0:0:
64,192,79523,1,0,0:0:0:0:
192,192,79572,1,0,0:0:0:0:
448,192,79621,1,0,0:0:0:0:
320,192,79671,1,0,0:0:0:0:
192,192,79720,1,0,0:0:0:0:
64,192,79770,1,0,0:0:0:0:
448,192,79818,1,0,0:0:0:0:
320,192,79868,1,0,0:0:0:0:
64,192,79917,1,0,0:0:0:0:
192,192,79967,1,0,0:0:0:0:
320,192,80016,1,0,0:0:0:0:
448,192,80065,1,0,0:0:0:0:
64,192,80115,1,0,0:0:0:0:
192,192,80164,1,0,0:0:0:0:
448,192,80213,1,0,0:0:0:0:
320,192,80263,1,0,0:0:0:0:
192,192,80312,1,0,0:0:0:0:
64,192,80362,1,0,0:0:0:0:
448,192,80411,1,0,0:0:0:0:
320,192,80460,1,0,0:0:0:0:
64,192,80510,1,0,0:0:0:0:
192,192,80559,1,0,0:0:0:0:
320,192,80608,1,0,0:0:0:0:
448,192,80657,1,0,0:0:0:0:
64,192,80707,1,0,0:0:0:0:
192,192,80756,1,0,0:0:0:0:
448,192,80805,1,0,0:0:0:0:
320,192,80855,1,0,0:0:0:0:
192,192,80904,1,0,0:0:0:0:
448,192,80954,1,0,0:0:0:0:
64,192,81003,1,0,0:0:0:0:
192,192,81052,1,0,0:0:0:0:
320,192,81102,1,0,0:0:0:0:
64,192,81151,1,0,0:0:0:0:
448,192,81200,1,0,0:0:0:0:
320,192,81250,1,0,0:0:0:0:
192,192,81299,1,0,0:0:0:0:
64,192,81348,1,0,0:0:0:0:
448,192,81397,1,0,0:0:0:0:
320,192,81447,1,0,0:0:0:0:
192,192,81496,1,0,0:0:0:0:
448,192,81546,1,0,0:0:0:0:
64,192,81595,1,0,0:0:0:0:
192,192,81644,1,0,0:0:0:0:
320,192,81694,1,0,0:0:0:0:
448,192,81743,1,0,0:0:0:0:
64,192,81792,1,0,0:0:0:0:
192,192,81842,1,0,0:0:0:0:
320,192,81891,1,0,0:0:0:0:
64,192,81941,1,0,0:0:0:0:
192,192,81990,1,0,0:0:0:0:
320,192,82039,1,0,0:0:0:0:
448,192,82088,1,0,0:0:0:0:
192,192,82138,1,0,0:0:0:0:
320,192,82187,1,0,0:0:0:0:
448,192,82236,1,0,0:0:0:0:
64,192,82286,1,0,0:0:0:0:
192,192,82335,1,0,0:0:0:0:
448,192,82384,1,0,0:0:0:0:
320,192,82434,1,0,0:0:0:0:
192,192,82483,1,0,0:0:0:0:
64,192,82533,1,0,0:0:0:0:
320,192,82582,1,0,0:0:0:0:
192,192,82631,1,0,0:0:0:0:
64,192,82681,1,0,0:0:0:0:
448,192,82730,1,0,0:0:0:0:
320,192,82779,1,0,0:0:0:0:
64,192,82828,1,0,0:0:0:0:
192,192,82878,1,0,0:0:0:0:
320,192,82927,1,0,0:0:0:0:
448,192,82976,1,0,0:0:0:0:
64,192,83026,1,0,0:0:0:0:
192,192,83075,1,0,0:0:0:0:
448,192,83125,1,0,0:0:0:0:
320,192,83174,1,0,0:0:0:0:
192,192,83223,1,0,0:0:0:0:
64,192,83273,1,0,0:0:0:0:
448,192,83322,1,0,0:0:0:0:
320,192,83371,1,0,0:0:0:0:
192,192,83421,1,0,0:0:0:0:
64,192,83470,1,0,0:0:0:0:
448,192,83520,1,0,0:0:0:0:
320,192,83568,1,0,0:0:0:0:
192,192,83618,1,0,0:0:0:0:
64,192,83667,1,0,0:0:0:0:
448,192,83717,1,0,0:0:0:0:
320,192,83766,1,0,0:0:0:0:
192,192,83815,1,0,0:0:0:0:
64,192,83865,1,0,0:0:0:0:
448,192,83914,1,0,0:0:0:0:
320,192,83963,1,0,0:0:0:0:
192,192,84013,1,0,0:0:0:0:
64,192,84062,1,0,0:0:0:0:
448,192,84112,1,0,0:0:0:0:
320,192,84161,1,0,0:0:0:0:
192,192,84210,1,0,0:0:0:0:
64,192,84260,1,0,0:0:0:0:
448,192,84309,1,0,0:0:0:0:
320,192,84358,1,0,0:0:0:0:
192,192,84407,1,0,0:0:0:0:
64,192,84457,1,0,0:0:0:0:
448,192,84506,1,0,0:0:0:0:
320,192,84555,1,0,0:0:0:0:
192,192,84605,1,0,0:0:0:0:
64,192,84654,1,0,0:0:0:0:
448,192,84704,1,0,0:0:0:0:
192,192,84753,1,0,0:0:0:0:
320,192,84802,1,0,0:0:0:0:
448,192,84852,1,0,0:0:0:0:
64,192,84901,1,0,0:0:0:0:
192,192,84950,1,0,0:0:0:0:
320,192,85000,1,0,0:0:0:0:
448,192,85049,1,0,0:0:0:0:
64,192,85098,1,0,0:0:0:0:
192,192,85147,1,0,0:0:0:0:
320,192,85197,1,0,0:0:0:0:
448,192,85246,1,0,0:0:0:0:
64,192,85296,1,0,0:0:0:0:
192,192,85345,1,0,0:0:0:0:
320,192,85394,1,0,0:0:0:0:
448,192,85444,1,0,0:0:0:0:
64,192,85493,1,0,0:0:0:0:
192,192,85542,1,0,0:0:0:0:
448,192,85592,1,0,0:0:0:0:
320,192,85641,1,0,0:0:0:0:
192,192,85691,1,0,0:0:0:0:
448,192,85740,1,0,0:0:0:0:
320,192,85789,1,0,0:0:0:0:
64,192,85838,1,0,0:0:0:0:
192,192,85888,1,0,0:0:0:0:
320,192,85937,1,0,0:0:0:0:
64,192,85986,1,0,0:0:0:0:
192,192,86036,1,0,0:0:0:0:
448,192,86085,1,0,0:0:0:0:
320,192,86134,1,0,0:0:0:0:
192,192,86184,1,0,0:0:0:0:
448,192,86233,1,0,0:0:0:0:
320,192,86283,1,0,0:0:0:0:
64,192,86332,1,0,0:0:0:0:
192,192,86381,1,0,0:0:0:0:
320,192,86431,1,0,0:0:0:0:
448,192,86480,1,0,0:0:0:0:
64,192,86529,1,0,0:0:0:0:
192,192,86578,1,0,0:0:0:0:
448,192,86628,1,0,0:0:0:0:
320,192,86677,1,0,0:0:0:0:
192,192,86726,1,0,0:0:0:0:
64,192,86776,1,0,0:0:0:0:
448,192,86825,1,0,0:0:0:0:
320,192,86875,1,0,0:0:0:0:
64,192,86924,1,0,0:0:0:0:
192,192,86973,1,0,0:0:0:0:
320,192,87023,1,0,0:0:0:0:
64,192,87072,1,0,0:0:0:0:
448,192,87121,1,0,0:0:0:0:
320,192,87171,1,0,0:0:0:0:
192,192,87220,1,0,0:0:0:0:
448,192,87270,1,0,0:0:0:0:
64,192,87318,1,0,0:0:0:0:
192,192,87368,1,0,0:0:0:0:
320,192,87417,1,0,0:0:0:0:
448,192,87467,1,0,0:0:0:0:
64,192,87516,1,0,0:0:0:0:
192,192,87565,1,0,0:0:0:0:
320,192,87615,1,0,0:0:0:0:
64,192,87664,1,0,0:0:0:0:
448,192,87713,1,0,0:0:0:0:
320,192,87763,1,0,0:0:0:0:
192,192,87812,1,0,0:0:0:0:
64,192,87862,1,0,0:0:0:0:
448,192,87911,1,0,0:0:0:0:
320,192,87960,1,0,0:0:0:0:
192,192,88010,1,0,0:0:0:0:
448,192,88059,1,0,0:0:0:0:
320,192,88108,1,0,0:0:0:0:
192,192,88157,1,0,0:0:0:0:
64,192,88207,1,0,0:0:0:0:
320,192,88256,1,0,0:0:0:0:
192,192,88305,1,0,0:0:0:0:
64,192,88355,1,0,0:0:0:0:
448,192,88404,1,0,0:0:0:0:
320,192,88454,1,0,0:0:0:0:
64,192,88503,1,0,0:0:0:0:
192,192,88552,1,0,0:0:0:0:
320,192,88602,1,0,0:0:0:0:
448,192,88651,1,0,0:0:0:0:
192,192,88700,1,0,0:0:0:0:
320,192,88750,1,0,0:0:0:0:
