osu file format v14

[General]
AudioFilename: audio.mp3
AudioLeadIn: 0
PreviewTime: 58641
Countdown: 0
SampleSet: Soft
StackLeniency: 0.4
Mode: 0
LetterboxInBreaks: 0
WidescreenStoryboard: 0

[Editor]
Bookmarks: 6663,11796,18213,19497,23347,28481,41315,51582,57839,81742,84309,93293,94576,98427,103560
DistanceSpacing: 0.9
BeatDivisor: 4
GridSize: 4
TimelineZoom: 1

[Metadata]
Title:Love Love Sensation short ver,
TitleUnicode:らぶらぶセンセーション short ver,
Artist:solfa feat.nao
ArtistUnicode:solfa feat.nao
Creator:Log Off Now
Version:Happy Wedding
Source:らぶらぶシスターズ~花嫁&姉妹達とのドキドキハーレム生活~
Tags:Love Love Sisters ~Hanayome & Shimai-tachi to no Doki Doki Harem Seikatsu~ Pajamas EX eroge visual novel opening left momochikun rizen
BeatmapID:1194953
BeatmapSetID:565367

[Difficulty]
HPDrainRate:6.2
CircleSize:4
OverallDifficulty:8.5
ApproachRate:9
SliderMultiplier:1.8
SliderTickRate:1

[Events]
//Background and Video events
0,0,"lovelovesensationbg.jpg",0,0
//Break Periods
//Storyboard Layer 0 (Background)
//Storyboard Layer 1 (Fail)
//Storyboard Layer 2 (Pass)
//Storyboard Layer 3 (Foreground)
//Storyboard Sound Samples

[TimingPoints]
246,320.855614973262,4,2,1,40,1,0
5379,-100,4,2,2,50,0,0
6342,-83.3333333333333,4,2,3,50,0,0
6582,-83.3333333333333,4,2,3,5,0,0
6663,-100,4,2,4,60,0,0
6823,-100,4,2,2,60,0,0
11796,-100,4,2,4,60,0,0
11957,-100,4,2,2,60,0,0
17090,-100,4,2,3,60,0,0
18213,-111.111111111111,4,2,1,50,0,0
27759,-111.111111111111,4,2,1,25,0,0
27839,-111.111111111111,4,2,2,30,0,0
28000,-111.111111111111,4,2,2,35,0,0
28160,-111.111111111111,4,2,2,40,0,0
28320,-111.111111111111,4,2,2,45,0,0
28481,-111.111111111111,4,2,3,50,0,0
28641,-111.111111111111,4,2,2,50,0,0
33614,-111.111111111111,4,2,3,50,0,0
33775,-111.111111111111,4,2,2,50,0,0
40994,-111.111111111111,4,2,3,50,0,0
41315,-125,4,2,4,50,0,0
41957,-125,4,2,2,50,0,0
42438,-125,4,2,3,50,0,0
43882,-125,4,2,4,50,0,0
44524,-125,4,2,2,50,0,0
45005,-125,4,2,3,50,0,0
46449,-125,4,2,4,50,0,0
47090,-125,4,2,2,50,0,0
47572,-125,4,2,3,50,0,0
49016,-125,4,2,4,50,0,0
49657,-125,4,2,2,50,0,0
50139,-125,4,2,3,50,0,0
51582,-200,4,2,1,30,0,0
56716,-100,4,2,2,50,0,0
58641,320.855614973262,4,2,4,60,1,1
58801,-100,4,2,2,60,0,1
63774,-100,4,2,4,60,0,1
63935,-100,4,2,2,60,0,1
67945,-100,4,2,3,60,0,1
68266,-100,4,2,2,40,0,1
68427,-100,4,2,2,45,0,1
68587,-100,4,2,2,50,0,1
68747,-100,4,2,2,55,0,1
68908,-100,4,2,4,60,0,1
69068,-100,4,2,2,60,0,1
74042,-100,4,2,4,60,0,1
74202,-100,4,2,2,60,0,1
76608,-100,4,2,4,60,0,1
76769,-100,4,2,2,60,0,1
83988,-100,4,2,3,60,0,1
84309,-100,4,2,4,60,0,0
84469,-100,4,2,2,60,0,0
89443,-100,4,2,4,60,0,0
89603,-100,4,2,2,60,0,0
93293,-100,4,2,2,40,0,0
93614,-100,4,2,2,45,0,0
93935,-100,4,2,2,50,0,0
94255,-100,4,2,2,55,0,0
94576,-100,4,2,3,60,0,0
100993,-100,4,2,1,30,0,0
101635,-100,4,2,1,25,0,0
102277,-100,4,2,1,20,0,0
102919,-100,4,2,1,15,0,0
103560,-100,4,2,1,10,0,0

[Colours]
Combo1 : 62,158,255
Combo2 : 255,255,159
Combo3 : 251,198,255
Combo4 : 139,209,248

[HitObjects]
84,145,246,5,2,0:0:0:0:
320,73,887,1,2,0:0:0:0:
356,169,1208,1,0,0:0:0:0:
220,61,1529,5,2,0:0:0:0:
220,61,2171,1,2,0:0:0:0:
256,157,2491,1,2,0:0:0:0:
90,231,2812,5,2,0:0:0:0:
264,281,3133,1,0,0:0:0:0:
201,215,3294,1,2,0:0:0:0:
138,150,3454,1,2,0:0:0:0:
156,295,3775,1,0,0:0:0:0:
252,136,4096,5,2,0:0:0:0:
249,123,5379,5,8,0:0:0:0:
243,154,5459,1,8,0:0:0:0:
238,185,5539,1,8,0:3:0:0:
232,216,5619,1,8,0:3:0:0:
227,247,5699,1,4,0:0:0:0:
95,215,5860,5,8,0:0:0:0:
101,246,5940,1,8,0:0:0:0:
106,277,6020,1,4,0:3:0:0:
112,308,6100,1,4,0:3:0:0:
117,339,6181,2,0,L|128:399,1,45,4|4,0:3|0:3,0:0:0:0:
272,366,6342,6,2,P|331:356|298:280,1,161.999995056153,12|0,0:0|0:0,0:0:0:0:
279,265,6663,6,0,L|164:272,1,90,14|0,0:0|0:0,0:0:0:0:
57,158,6983,1,8,0:0:0:0:
220,171,7144,2,0,L|334:178,1,90,2|4,0:0|0:0,0:0:0:0:
168,106,7465,2,0,P|138:155|143:202,1,90,6|8,0:0|0:0,0:0:0:0:
239,341,7786,2,0,L|353:348,1,90,2|4,0:0|0:0,0:0:0:0:
220,171,8106,5,2,0:0:0:0:
367,256,8267,1,10,0:0:0:0:
188,274,8427,1,0,0:0:0:0:
349,163,8588,2,0,B|363:113|363:113|353:53,1,90,6|4,0:0|0:0,0:0:0:0:
202,169,8909,2,0,B|187:218|187:218|197:278,1,90,8|0,0:0|0:0,0:0:0:0:
335,346,9229,6,0,L|461:336,1,90,6|0,0:0|0:0,0:0:0:0:
370,202,9550,1,8,0:0:0:0:
215,280,9711,2,0,P|208:332|224:406,1,90,2|4,0:0|0:0,0:0:0:0:
357,225,10032,2,0,P|362:176|355:128,1,90,6|8,0:0|0:0,0:0:0:0:
156,28,10352,2,0,L|42:35,1,90,2|4,0:0|0:0,0:0:0:0:
131,148,10673,5,2,0:0:0:0:
285,27,10834,1,10,0:0:0:0:
338,151,10994,1,2,0:0:0:0:
189,26,11155,1,8,0:3:0:0:
204,170,11315,1,8,0:0:0:0:
206,194,11395,1,8,0:0:0:0:
207,219,11475,1,8,0:0:0:0:
357,272,11636,1,8,0:0:0:0:
357,272,11716,1,8,0:0:0:0:
357,272,11796,6,0,L|365:162,1,90,14|0,0:0|0:0,0:0:0:0:
376,29,12117,1,8,0:0:0:0:
459,160,12278,1,0,0:0:0:0:
300,114,12438,2,0,P|245:106|188:134,1,90,6|4,0:0|0:0,0:0:0:0:
96,233,12759,2,0,P|41:241|-16:213,1,90,10|0,0:0|0:0,0:0:0:0:
145,148,13080,6,0,B|175:218|175:218|164:333,1,180,6|8,0:0|0:0,0:0:0:0:
261,196,13561,1,0,0:0:0:0:
336,339,13721,2,0,L|245:331,1,90,6|4,0:0|0:0,0:0:0:0:
365,239,14042,2,0,L|456:231,1,90,10|0,0:0|0:0,0:0:0:0:
328,61,14363,6,0,L|336:152,1,90,6|0,0:0|0:0,0:0:0:0:
359,326,14684,1,8,0:0:0:0:
483,231,14844,1,8,0:0:0:0:
483,231,14924,1,8,0:0:0:0:
483,231,15005,1,8,0:3:0:0:
317,253,15165,1,8,0:0:0:0:
317,253,15245,1,8,0:0:0:0:
317,253,15326,1,8,0:0:0:0:
419,130,15486,1,8,0:3:0:0:
449,315,15647,5,8,0:0:0:0:
333,155,15807,1,4,0:3:0:0:
332,132,15887,1,4,0:3:0:0:
331,110,15967,1,4,0:0:0:0:
241,279,16128,1,8,0:0:0:0:
408,216,16288,1,0,0:0:0:0:
219,172,16449,1,4,0:0:0:0:
366,327,16609,5,12,0:0:0:0:
331,110,16770,1,12,0:0:0:0:
331,110,17090,5,6,0:0:0:0:
291,372,17251,1,6,0:0:0:0:
291,372,17893,1,0,0:0:0:0:
291,372,18213,6,0,L|280:264,1,80.9999975280763,0|0,3:0|0:0,0:0:0:0:
188,320,18534,2,0,L|199:212,1,80.9999975280763,0|0,3:0|0:0,0:0:0:0:
100,264,18855,1,0,3:0:0:0:
108,168,19016,1,0,0:0:0:0:
116,72,19176,2,0,P|152:60|224:83,1,80.9999975280763,0|0,3:0|0:0,0:0:0:0:
214,77,19417,1,0,0:0:0:0:
234,89,19497,6,0,P|273:94|312:82,1,80.9999975280763,0|0,3:0|0:0,0:0:0:0:
402,46,19818,2,0,P|400:89|398:134,1,80.9999975280763,0|0,3:0|0:0,0:0:0:0:
394,224,20139,1,0,3:0:0:0:
306,265,20299,1,0,0:0:0:0:
217,224,20459,2,0,L|130:210,1,80.9999975280763,0|0,3:0|0:0,0:0:0:0:
260,112,20780,6,0,P|287:149|279:202,1,80.9999975280763,0|0,3:0|0:0,0:0:0:0:
172,136,21101,1,0,3:0:0:0:
234,43,21262,2,0,P|280:41|317:66,1,80.9999975280763,0|0,0:0|3:0,0:0:0:0:
379,164,21582,1,0,0:0:0:0:
408,41,21743,1,0,3:0:0:0:
472,160,21903,1,0,0:0:0:0:
471,172,21983,1,0,0:0:0:0:
469,184,22064,6,0,L|459:280,1,80.9999975280763,0|0,3:0|0:0,0:0:0:0:
363,257,22385,2,0,L|373:353,1,80.9999975280763,0|0,3:0|0:0,0:0:0:0:
278,311,22705,2,0,P|231:302|169:314,1,80.9999975280763,0|0,3:0|0:0,0:0:0:0:
110,348,23026,1,0,3:0:0:0:
117,250,23187,1,2,0:3:0:0:
278,311,23347,6,0,P|325:320|387:308,1,80.9999975280763,4|0,3:2|0:0,0:0:0:0:
426,248,23668,2,0,L|419:143,1,80.9999975280763,0|0,3:0|0:0,0:0:0:0:
416,69,23989,1,0,3:0:0:0:
324,101,24149,1,0,0:0:0:0:
233,64,24310,2,0,L|132:52,1,80.9999975280763,0|0,3:0|0:0,0:0:0:0:
68,104,24631,6,0,P|57:148|76:197,1,80.9999975280763,0|0,3:0|0:0,0:0:0:0:
141,241,24951,2,0,P|149:280|138:318,1,80.9999975280763,0|0,3:0|0:0,0:0:0:0:
45,347,25272,1,0,3:0:0:0:
4,258,25433,1,0,0:0:0:0:
65,181,25593,2,0,B|97:161|97:161|142:164,1,80.9999975280763,0|0,3:0|0:0,0:0:0:0:
164,166,25834,1,0,0:0:0:0:
188,168,25914,6,0,P|232:179|282:164,1,80.9999975280763,0|0,3:0|0:0,0:0:0:0:
355,94,26235,1,0,3:0:0:0:
408,216,26395,2,0,L|405:309,1,80.9999975280763,0|0,0:0|3:0,0:0:0:0:
285,241,26716,2,0,L|282:160,1,80.9999975280763,0|0,0:0|3:0,0:0:0:0:
276,32,27037,1,0,0:0:0:0:
276,32,27117,1,0,0:0:0:0:
275,32,27197,6,0,P|240:50|199:51,1,80.9999975280763,0|0,3:0|0:0,0:0:0:0:
93,10,27518,2,0,B|80:68|80:68|92:162,1,121.499996292114,0|0,3:0|0:0,0:0:0:0:
91,170,27839,2,8,L|76:241,3,40.4999987640381
78,250,28160,1,8,0:0:0:0:
110,245,28240,1,8,0:0:0:0:
142,240,28320,1,8,0:0:0:0:
174,235,28400,1,8,0:0:0:0:
206,229,28481,6,0,L|314:241,1,80.9999975280763,6|0,0:0|0:0,0:0:0:0:
438,254,28802,1,8,0:0:0:0:
329,126,28962,1,0,0:0:0:0:
360,249,29123,2,0,P|365:306|349:352,1,80.9999975280763,4|4,0:0|0:0,0:0:0:0:
262,211,29443,1,8,0:0:0:0:
348,112,29604,1,0,0:0:0:0:
229,40,29764,6,0,B|188:46|188:46|148:41,1,80.9999975280763,4|0,0:0|0:0,0:0:0:0:
306,14,30085,1,8,0:0:0:0:
296,185,30245,2,0,P|266:144|264:94,1,80.9999975280763,0|4,0:0|0:0,0:0:0:0:
389,194,30566,1,0,0:0:0:0:
354,337,30727,1,8,0:0:0:0:
473,258,30887,1,4,0:0:0:0:
298,274,31048,6,0,B|241:286|241:286|180:283|180:283|133:293,1,161.999995056153,4|8,0:0|0:0,0:0:0:0:
9,299,31529,1,0,0:0:0:0:
104,209,31689,1,4,0:0:0:0:
83,351,31850,1,4,0:0:0:0:
107,191,32010,1,8,0:0:0:0:
219,266,32171,1,0,0:0:0:0:
309,110,32331,5,4,0:0:0:0:
343,267,32491,1,0,0:0:0:0:
227,186,32652,1,8,0:0:0:0:
393,147,32812,1,0,0:0:0:0:
225,105,32973,1,4,0:0:0:0:
227,273,33133,1,4,0:0:0:0:
227,273,33213,1,4,0:0:0:0:
227,273,33294,1,8,0:0:0:0:
310,186,33454,1,8,0:3:0:0:
294,323,33614,6,0,P|211:356|156:318,1,161.999995056153,6|8,0:0|0:0,0:0:0:0:
116,184,34096,1,0,0:0:0:0:
38,320,34256,1,4,0:0:0:0:
184,238,34417,1,4,0:0:0:0:
33,205,34577,2,0,P|21:148|45:94,1,80.9999975280763,8|0,0:0|0:0,0:0:0:0:
173,63,34898,6,0,L|279:74,1,80.9999975280763,4|0,0:0|0:0,0:0:0:0:
167,160,35219,1,8,0:0:0:0:
94,76,35379,2,0,P|96:32|127:-3,1,80.9999975280763,0|4,0:0|0:0,0:0:0:0:
275,84,35700,1,0,0:0:0:0:
157,180,35860,1,8,0:0:0:0:
301,202,36021,1,4,0:0:0:0:
146,196,36181,6,0,B|125:252|125:252|142:360,1,161.999995056153,4|8,0:0|0:0,0:0:0:0:
227,258,36663,2,0,L|230:169,1,80.9999975280763,0|4,0:0|0:0,0:0:0:0:
231,42,36983,1,4,0:0:0:0:
320,131,37144,2,0,P|374:146|422:128,1,80.9999975280763,8|0,0:0|0:0,0:0:0:0:
495,46,37465,6,0,L|484:227,1,161.999995056153,4|8,0:0|0:0,0:0:0:0:
350,265,37946,1,0,0:0:0:0:
320,131,38106,1,4,0:0:0:0:
400,177,38267,1,4,0:0:0:0:
250,281,38427,1,8,0:0:0:0:
357,350,38588,1,8,0:3:0:0:
288,202,38748,6,0,B|209:179|209:230|126:206,1,161.999995056153,4|8,0:0|0:0,0:0:0:0:
30,116,39229,2,0,L|24:20,1,80.9999975280763,0|4,0:0|0:0,0:0:0:0:
121,105,39550,1,4,0:0:0:0:
43,212,39711,2,0,L|37:308,1,80.9999975280763,8|0,0:0|0:0,0:0:0:0:
144,209,40032,5,8,0:0:0:0:
30,116,40192,1,8,0:3:0:0:
202,75,40352,1,4,0:0:0:0:
147,228,40513,5,8,0:0:0:0:
111,67,40673,1,4,0:3:0:0:
149,247,40834,1,4,0:0:0:0:
107,47,40994,5,12,0:0:0:0:
248,157,41155,1,2,0:0:0:0:
30,116,41315,5,14,0:0:0:0:
318,56,41636,1,14,0:0:0:0:
318,56,41957,5,8,0:0:0:0:
98,27,42117,1,8,0:0:0:0:
299,135,42278,1,8,0:0:0:0:
96,108,42438,6,0,P|55:105|20:112,1,72,6|0,0:0|0:0,0:0:0:0:
125,261,42759,2,0,L|161:186,1,72,8|0,0:0|0:0,0:0:0:0:
245,42,43080,1,2,0:0:0:0:
303,216,43240,1,8,0:0:0:0:
189,115,43401,1,2,0:0:0:0:
365,144,43561,1,0,0:0:0:0:
365,144,43882,5,14,0:0:0:0:
99,98,44203,1,14,0:0:0:0:
99,98,44524,5,8,0:0:0:0:
145,300,44684,1,8,0:0:0:0:
185,83,44844,1,8,0:0:0:0:
74,265,45005,6,0,P|66:299|88:354,1,72,6|0,0:0|0:0,0:0:0:0:
195,225,45326,2,0,L|190:153,1,72,8|0,0:0|0:0,0:0:0:0:
278,261,45647,1,2,0:0:0:0:
190,137,45807,1,8,0:0:0:0:
353,208,45967,1,2,0:0:0:0:
196,307,46128,1,8,0:3:0:0:
273,173,46288,1,2,0:0:0:0:
289,342,46449,5,14,0:0:0:0:
267,88,46770,1,14,0:0:0:0:
267,88,47090,5,8,0:0:0:0:
90,201,47251,1,8,0:0:0:0:
307,157,47411,1,8,0:0:0:0:
115,56,47572,6,0,P|104:89|116:140,1,72,6|0,0:0|0:0,0:0:0:0:
186,265,47893,2,0,L|192:193,1,72,8|0,0:0|0:0,0:0:0:0:
209,29,48213,1,2,0:0:0:0:
326,150,48374,1,8,0:0:0:0:
108,125,48534,1,2,0:0:0:0:
267,88,48695,1,0,0:0:0:0:
267,88,49016,5,14,0:0:0:0:
18,131,49336,1,14,0:0:0:0:
18,131,49657,5,8,0:0:0:0:
218,161,49818,1,8,0:0:0:0:
54,43,49978,1,8,0:0:0:0:
269,28,50139,6,0,L|366:34,1,72,6|0,0:0|0:0,0:0:0:0:
218,161,50459,1,8,0:0:0:0:
218,161,50780,1,2,0:0:0:0:
363,259,50941,5,4,0:3:0:0:
395,256,51021,1,4,0:3:0:0:
427,254,51101,1,2,0:0:0:0:
294,106,51262,1,12,0:0:0:0:
294,106,51582,6,0,L|300:203,1,90,0|2,0:0|0:0,0:0:0:0:
348,260,52224,2,0,L|342:357,1,90,2|0,0:0|0:0,0:0:0:0:
264,371,52866,1,0,0:0:0:0:
187,345,53187,1,2,0:0:0:0:
153,271,53508,1,2,0:0:0:0:
171,192,53828,1,2,0:0:0:0:
129,122,54149,6,0,P|66:116|56:220,1,180,2|2,0:0|0:0,0:0:0:0:
110,263,55112,1,0,0:0:0:0:
185,292,55433,2,0,L|283:282,1,90,2|0,0:0|0:0,0:0:0:0:
339,331,56074,2,0,L|428:340,1,90
501,375,56716,1,0,0:0:0:0:
437,193,56877,5,12,0:0:0:0:
501,375,57037,1,12,0:0:0:0:
147,251,57358,5,12,0:0:0:0:
342,309,57518,1,12,0:0:0:0:
349,30,57839,5,12,0:0:0:0:
349,30,58641,5,14,0:0:0:0:
356,179,58801,2,0,L|361:268,1,90,2|8,0:0|0:0,0:0:0:0:
242,177,59122,2,0,P|198:169|155:181,1,90,2|4,0:0|0:0,0:0:0:0:
83,311,59443,1,6,0:0:0:0:
23,187,59603,1,8,0:0:0:0:
177,279,59763,6,0,B|218:284|218:284|265:275,1,90,2|4,0:0|0:0,0:0:0:0:
344,156,60084,1,2,0:0:0:0:
409,266,60245,2,0,L|414:355,1,90,10|4,0:0|0:0,0:0:0:0:
489,204,60566,2,0,P|400:163|319:218,1,180,2|8,0:0|0:0,0:0:0:0:
332,197,61207,5,6,0:0:0:0:
399,91,61368,2,0,L|394:2,1,90,2|8,0:0|0:0,0:0:0:0:
270,69,61689,2,0,P|224:80|167:64,1,90,2|4,0:0|0:0,0:0:0:0:
53,150,62009,2,0,P|99:139|156:155,1,90,6|8,0:0|0:0,0:0:0:0:
294,84,62330,6,0,L|285:183,1,90,2|4,0:0|0:0,0:0:0:0:
276,313,62651,1,2,0:0:0:0:
380,162,62812,2,0,L|371:261,1,90,10|4,0:0|0:0,0:0:0:0:
465,151,63132,1,2,0:0:0:0:
291,193,63293,1,4,0:0:0:0:
366,326,63453,1,10,0:0:0:0:
366,326,63774,6,0,B|333:234|411:234|360:130,2,180,14|8|4,0:0|0:0|0:0,0:0:0:0:
291,193,64576,1,6,0:0:0:0:
450,282,64737,1,10,0:0:0:0:
276,328,64897,1,2,0:0:0:0:
399,214,65058,6,0,P|450:197|502:214,1,90,4|0,0:0|0:0,0:0:0:0:
455,372,65378,2,0,L|450:275,1,90,8|4,0:0|0:0,0:0:0:0:
437,113,65699,1,8,0:3:0:0:
334,241,65860,1,8,0:0:0:0:
332,254,65940,1,8,0:0:0:0:
330,267,66020,1,8,0:0:0:0:
328,281,66100,1,8,0:0:0:0:
326,294,66180,1,4,0:0:0:0:
268,158,66341,5,14,0:0:0:0:
485,205,66501,1,14,0:0:0:0:
255,9,66822,5,6,0:0:0:0:
356,296,67143,1,6,0:0:0:0:
485,61,67464,1,6,0:0:0:0:
268,158,67785,5,6,0:0:0:0:
485,61,67945,1,6,0:0:0:0:
485,61,68266,5,8,0:0:0:0:
447,76,68346,1,8,0:0:0:0:
408,86,68426,1,8,0:0:0:0:
368,86,68506,1,8,0:0:0:0:
329,76,68586,1,8,0:0:0:0:
290,63,68667,1,8,0:0:0:0:
250,59,68747,1,8,0:0:0:0:
210,64,68827,1,8,0:0:0:0:
171,76,68908,5,14,0:0:0:0:
220,205,69068,2,0,L|213:300,1,90,2|8,0:0|0:0,0:0:0:0:
62,207,69389,2,0,P|50:164|63:115,1,90,2|4,0:0|0:0,0:0:0:0:
222,189,69710,1,6,0:0:0:0:
58,237,69870,1,8,0:0:0:0:
213,112,70031,6,0,P|220:68|207:25,1,90,2|4,0:0|0:0,0:0:0:0:
140,162,70352,1,2,0:0:0:0:
296,194,70512,2,0,L|402:186,1,90,10|4,0:0|0:0,0:0:0:0:
509,282,70833,2,0,L|311:296,1,180,2|8,0:0|0:0,0:0:0:0:
329,294,71475,5,6,0:0:0:0:
396,161,71636,2,0,P|409:122|402:72,1,90,2|8,0:0|0:0,0:0:0:0:
267,38,71956,2,0,L|170:51,1,90,2|4,0:0|0:0,0:0:0:0:
213,199,72277,2,0,L|310:212,1,90,6|8,0:0|0:0,0:0:0:0:
460,238,72598,6,0,P|471:303|458:340,1,90,2|4,0:0|0:0,0:0:0:0:
386,178,72919,1,2,0:0:0:0:
257,289,73079,2,0,L|262:387,1,90,10|4,0:0|0:0,0:0:0:0:
368,261,73400,1,2,0:0:0:0:
261,178,73560,1,4,0:0:0:0:
335,345,73721,1,10,0:0:0:0:
335,345,74042,6,0,P|392:348|455:247,2,180,14|8|4,0:0|0:0|0:0,0:0:0:0:
245,195,74844,1,6,0:0:0:0:
368,261,75004,1,10,0:0:0:0:
191,348,75165,1,2,0:0:0:0:
136,202,75325,6,0,L|145:97,1,90,4|4,0:0|0:0,0:0:0:0:
253,218,75646,2,0,L|262:323,1,90,8|4,0:0|0:0,0:0:0:0:
342,164,75967,1,8,0:3:0:0:
136,202,76127,1,8,0:0:0:0:
113,206,76207,1,8,0:0:0:0:
90,211,76287,1,8,0:0:0:0:
179,91,76447,1,4,0:0:0:0:
229,260,76608,6,0,P|317:259|333:152,1,180,14|8,0:0|0:0,0:0:0:0:
185,69,77090,1,2,0:0:0:0:
145,232,77250,1,6,0:0:0:0:
273,198,77411,1,6,0:0:0:0:
315,331,77571,1,10,0:0:0:0:
145,257,77731,1,2,0:0:0:0:
278,168,77892,6,0,B|334:153|334:153|460:173,1,180,6|8,0:0|0:0,0:0:0:0:
378,299,78373,2,0,B|322:314|322:314|196:294,1,180,6|4,0:0|0:0,0:0:0:0:
98,187,78854,2,0,P|86:134|175:132,1,135,8|0,0:0|0:0,0:0:0:0:
179,119,79175,6,0,B|270:150|270:95|363:123,1,180,4|8,0:0|0:0,0:0:0:0:
493,220,79657,1,2,0:0:0:0:
424,61,79817,1,6,0:0:0:0:
351,207,79977,1,6,0:0:0:0:
492,137,80138,1,10,0:0:0:0:
446,285,80298,1,2,0:0:0:0:
329,193,80459,6,0,P|270:175|204:191,1,90,6|4,0:0|0:0,0:0:0:0:
147,294,80780,1,10,0:0:0:0:
80,194,80940,2,0,B|66:132|66:132|80:6,1,180,6|4,0:0|0:0,0:0:0:0:
172,126,81421,2,0,L|161:224,1,90,10|0,0:0|0:0,0:0:0:0:
139,372,81742,5,8,0:0:0:0:
139,372,82063,1,8,0:0:0:0:
275,217,82223,1,4,0:0:0:0:
62,266,82384,5,8,0:0:0:0:
286,318,82544,1,4,0:0:0:0:
168,142,82705,1,8,0:0:0:0:
208,330,82865,1,4,0:0:0:0:
331,125,83026,5,8,0:0:0:0:
397,303,83186,1,8,0:3:0:0:
243,206,83346,1,4,0:0:0:0:
447,176,83507,1,8,0:0:0:0:
238,80,83667,5,4,0:3:0:0:
202,83,83747,1,4,0:3:0:0:
166,86,83827,1,4,0:0:0:0:
416,59,83988,1,12,0:0:0:0:
416,59,84309,6,0,L|411:161,1,90,14|0,0:0|0:0,0:0:0:0:
405,306,84630,1,8,0:0:0:0:
272,229,84790,2,0,P|226:216|174:234,1,90,2|4,0:0|0:0,0:0:0:0:
37,266,85111,2,0,P|83:279|135:261,1,90,6|8,0:0|0:0,0:0:0:0:
171,145,85432,2,0,L|177:30,1,90,2|4,0:0|0:0,0:0:0:0:
100,188,85753,5,2,0:0:0:0:
252,133,85913,1,10,0:0:0:0:
79,104,86074,1,0,0:0:0:0:
227,214,86234,2,0,L|316:209,1,90,6|4,0:0|0:0,0:0:0:0:
398,84,86555,2,0,L|308:79,1,90,8|0,0:0|0:0,0:0:0:0:
162,170,86876,6,0,P|149:221|169:270,1,90,6|0,0:0|0:0,0:0:0:0:
284,349,87197,1,8,0:0:0:0:
316,190,87357,2,0,L|308:74,1,90,2|4,0:0|0:0,0:0:0:0:
170,56,87678,2,0,L|162:172,1,90,6|8,0:0|0:0,0:0:0:0:
276,259,87999,2,0,P|336:267|373:245,1,90,2|4,0:0|0:0,0:0:0:0:
495,164,88320,5,2,0:0:0:0:
326,134,88480,1,10,0:0:0:0:
472,265,88641,1,2,0:0:0:0:
414,79,88801,1,8,0:3:0:0:
383,199,88961,1,8,0:0:0:0:
379,221,89041,1,8,0:0:0:0:
375,244,89121,1,8,0:0:0:0:
251,314,89282,1,8,0:0:0:0:
251,314,89362,1,8,0:0:0:0:
251,314,89443,6,0,L|243:198,1,90,14|0,0:0|0:0,0:0:0:0:
237,65,89763,1,8,0:0:0:0:
368,172,89924,1,0,0:0:0:0:
223,145,90084,2,0,B|171:138|171:138|105:148,1,90,6|4,0:0|0:0,0:0:0:0:
59,272,90405,2,0,B|111:279|111:279|177:269,1,90,10|0,0:0|0:0,0:0:0:0:
249,142,90726,6,0,P|298:122|291:225,1,180,6|8,0:0|0:0,0:0:0:0:
166,266,91207,1,0,0:0:0:0:
136,118,91368,2,0,L|145:21,1,90,6|4,0:0|0:0,0:0:0:0:
241,157,91689,2,0,L|250:254,1,90,10|0,0:0|0:0,0:0:0:0:
377,156,92009,2,0,L|386:59,1,90,6|0,0:0|0:0,0:0:0:0:
248,142,92330,5,10,0:0:0:0:
148,42,92491,1,2,0:0:0:0:
295,58,92651,2,0,L|392:67,1,90,6|4,0:0|0:0,0:0:0:0:
327,210,92972,2,0,L|230:219,1,90,10|0,0:0|0:0,0:0:0:0:
88,171,93293,6,8,L|43:166,3,45
137,87,93614,2,8,L|181:82,3,45
184,199,93935,5,8,0:0:0:0:
222,214,94015,1,8,0:0:0:0:
261,224,94095,1,8,0:0:0:0:
301,224,94175,1,8,0:0:0:0:
340,214,94255,1,8,0:0:0:0:
379,201,94336,1,8,0:0:0:0:
419,197,94416,1,8,0:0:0:0:
459,202,94496,1,8,0:0:0:0:
493,223,94576,5,6,0:0:0:0:
493,223,95218,5,6,0:0:0:0:
385,78,95539,1,0,0:0:0:0:
346,327,95860,1,6,0:0:0:0:
346,327,96501,5,6,0:0:0:0:
177,264,96822,1,0,0:0:0:0:
405,175,97143,1,6,0:0:0:0:
261,302,97464,5,8,0:3:0:0:
261,302,97624,1,8,0:3:0:0:
247,161,97785,2,0,L|239:44,1,90,8|8,0:3|0:3,0:0:0:0:
348,252,98106,2,0,L|340:369,1,90,4|8,0:3|0:0,0:0:0:0:
161,221,98427,5,6,0:0:0:0:
256,192,98507,12,0,104844,0:0:0:0:
