osu file format v14

[General]
AudioFilename: audio.mp3
AudioLeadIn: 0
PreviewTime: 58641
Countdown: 0
SampleSet: Soft
StackLeniency: 0.7
Mode: 0
LetterboxInBreaks: 0
WidescreenStoryboard: 0

[Editor]
Bookmarks: 6663,18213,19497,28481,41315,51582,57839,81742,84309,93293,94576,98427,103560
DistanceSpacing: 1
BeatDivisor: 4
GridSize: 4
TimelineZoom: 1

[Metadata]
Title:Love Love Sensation short ver,
TitleUnicode:らぶらぶセンセーション short ver,
Artist:solfa feat.nao
ArtistUnicode:solfa feat.nao
Creator:Log Off Now
Version:Easy
Source:らぶらぶシスターズ~花嫁&姉妹達とのドキドキハーレム生活~
Tags:Love Love Sisters ~Hanayome & Shimai-tachi to no Doki Doki Harem Seikatsu~ Pajamas EX eroge visual novel opening left momochikun rizen
BeatmapID:1196312
BeatmapSetID:565367

[Difficulty]
HPDrainRate:3
CircleSize:3
OverallDifficulty:3
ApproachRate:3
SliderMultiplier:0.9
SliderTickRate:1

[Events]
//Background and Video events
0,0,"lovelovesensationbg.jpg",0,0
//Break Periods
2,51462,57201
//Storyboard Layer 0 (Background)
//Storyboard Layer 1 (Fail)
//Storyboard Layer 2 (Pass)
//Storyboard Layer 3 (Foreground)
//Storyboard Sound Samples

[TimingPoints]
246,320.855614973262,4,2,1,40,1,0
5379,-100,4,2,2,50,0,0
6663,-100,4,2,4,60,0,0
6823,-100,4,2,2,60,0,0
11796,-100,4,2,4,60,0,0
11957,-100,4,2,2,60,0,0
17090,-100,4,2,3,60,0,0
18213,-100,4,2,1,50,0,0
27839,-100,4,2,2,30,0,0
28160,-100,4,2,2,40,0,0
28481,-100,4,2,3,50,0,0
28641,-100,4,2,2,50,0,0
33614,-100,4,2,3,50,0,0
33775,-100,4,2,2,50,0,0
40994,-100,4,2,3,50,0,0
41315,-100,4,2,4,50,0,0
41957,-100,4,2,2,50,0,0
42438,-100,4,2,3,50,0,0
43882,-100,4,2,4,50,0,0
44524,-100,4,2,2,50,0,0
45005,-100,4,2,3,50,0,0
46449,-100,4,2,4,50,0,0
47090,-100,4,2,2,50,0,0
47572,-100,4,2,3,50,0,0
49016,-100,4,2,4,50,0,0
49657,-100,4,2,2,50,0,0
50139,-100,4,2,3,50,0,0
58641,320.855614973262,4,2,4,60,1,1
58801,-100,4,2,2,60,0,1
63774,-100,4,2,4,60,0,1
63935,-100,4,2,2,60,0,1
67945,-100,4,2,3,60,0,1
68266,-100,4,2,2,40,0,1
68587,-100,4,2,2,50,0,1
68908,-100,4,2,4,60,0,1
69068,-100,4,2,2,60,0,1
74042,-100,4,2,4,60,0,1
74202,-100,4,2,2,60,0,1
76608,-100,4,2,4,60,0,1
76769,-100,4,2,2,60,0,1
83988,-100,4,2,3,60,0,1
84309,-100,4,2,4,60,0,0
84469,-100,4,2,2,60,0,0
89443,-100,4,2,4,60,0,0
89603,-100,4,2,2,60,0,0
93293,-100,4,2,2,40,0,0
93614,-100,4,2,2,45,0,0
93935,-100,4,2,2,50,0,0
94255,-100,4,2,2,55,0,0
94576,-100,4,2,3,60,0,0
100993,-100,4,2,1,30,0,0
101635,-100,4,2,1,25,0,0
102277,-100,4,2,1,20,0,0
102919,-100,4,2,1,15,0,0
103560,-100,4,2,1,10,0,0

[Colours]
Combo1 : 62,158,255
Combo2 : 255,255,159
Combo3 : 251,198,255
Combo4 : 139,209,248

[HitObjects]
84,52,246,5,2,0:0:0:0:
132,224,887,2,0,P|172:272|268:220,1,180,2|2,0:0|0:0,0:0:0:0:
296,52,2171,1,2,0:0:0:0:
440,160,2812,2,0,B|460:248|460:248|440:344,1,180,2|2,0:0|0:0,0:0:0:0:
256,192,4096,12,8,5379,0:0:0:0:
72,240,6663,6,0,B|138:272|138:212|217:249,1,135,14|2,0:0|0:0,0:0:0:0:
270,302,7465,1,6,0:0:0:0:
353,268,7786,2,0,L|373:126,1,135,2|10,0:0|0:0,0:0:0:0:
386,45,8588,1,6,0:0:0:0:
230,131,9229,6,0,B|234:175|234:175|261:209|261:209|266:268,1,135,6|2,0:0|0:0,0:0:0:0:
231,340,10032,1,6,0:0:0:0:
145,313,10352,2,0,P|120:263|130:168,1,135,2|10,0:0|0:0,0:0:0:0:
151,99,11155,1,8,0:3:0:0:
319,162,11796,5,14,0:0:0:0:
167,259,12438,2,0,B|123:267|123:267|63:255,1,90,6|10,0:0|0:0,0:0:0:0:
10,199,13080,1,6,0:0:0:0:
164,104,13721,6,0,B|208:96|208:96|268:108,1,90,6|10,0:0|0:0,0:0:0:0:
304,180,14363,2,0,P|300:224|300:272,1,90,6|8,0:0|0:0,0:0:0:0:
353,342,15005,1,8,0:3:0:0:
442,345,15326,1,8,0:0:0:0:
488,268,15647,6,0,B|500:184|500:184|480:120,2,135,8|8|12,0:0|0:0|0:0,0:0:0:0:
356,236,17090,2,0,L|352:176,1,45,6|6,0:0|0:0,0:0:0:0:
111,70,18213,6,0,B|92:157|92:157|123:260,1,180,0|0,3:0|3:0,0:0:0:0:
264,350,19497,2,0,B|283:263|283:263|252:160,1,180,0|0,3:0|3:0,0:0:0:0:
142,36,20780,2,0,P|71:28|-3:43,2,135,0|0|0,3:0|0:0|3:0,0:0:0:0:
185,115,22064,2,0,B|214:196|144:196|186:293,1,180,0|0,3:0|3:0,0:0:0:0:
262,335,23026,1,0,3:0:0:0:
344,298,23347,6,0,B|363:211|363:211|332:108,1,180,4|0,3:2|3:0,0:0:0:0:
177,39,24631,2,0,B|158:126|158:126|189:229,1,180,0|0,3:0|3:0,0:0:0:0:
313,338,25914,2,0,P|384:346|458:331,2,135,0|0|0,3:0|0:0|3:0,0:0:0:0:
244,279,27197,2,0,B|284:185|214:185|243:104,1,180,0|8,3:0|0:0,0:0:0:0:
323,63,28160,1,8,0:0:0:0:
412,80,28481,6,0,L|408:184,1,90,6|8,0:0|0:0,0:0:0:0:
344,232,29123,2,0,P|284:244|240:228,1,90,4|8,0:0|0:0,0:0:0:0:
176,196,29764,2,0,B|132:172|132:172|40:188,2,135,4|0|8,0:0|0:0|0:0,0:0:0:0:
180,288,31048,1,4,0:0:0:0:
337,200,31689,6,0,L|333:110,1,90,4|8,0:0|0:0,0:0:0:0:
377,31,32331,2,0,P|445:47|509:35,2,135,4|0|8,0:0|0:0|0:0,0:0:0:0:
286,32,33614,1,6,0:0:0:0:
422,149,34256,6,0,L|418:238,1,90,4|8,0:0|0:0,0:0:0:0:
366,313,34898,2,0,B|318:333|318:333|222:309,2,135,4|0|8,0:0|0:0|0:0,0:0:0:0:
331,229,36181,6,0,P|287:189|167:185,1,180,4|4,0:0|0:0,0:0:0:0:
108,248,37144,1,8,0:0:0:0:
37,191,37465,2,0,L|45:11,1,180,4|4,0:0|0:0,0:0:0:0:
127,48,38427,1,8,0:0:0:0:
209,84,38748,6,0,L|217:264,1,180,4|4,0:0|0:0,0:0:0:0:
282,326,39711,1,8,0:0:0:0:
367,298,40032,2,0,P|427:286|499:314,2,135,8|8|12,0:0|0:0|0:0,0:0:0:0:
306,230,41315,6,0,L|301:125,1,90,14|14,0:0|0:0,0:0:0:0:
298,49,41957,2,0,B|234:29|234:29|158:41,2,135,8|6|0,0:0|0:0|0:0,0:0:0:0:
377,91,43240,1,8,0:0:0:0:
319,261,43882,6,0,P|263:273|215:261,1,90,14|14,0:0|0:0,0:0:0:0:
168,202,44524,2,0,B|188:138|188:138|176:62,2,135,8|6|0,0:0|0:0|0:0,0:0:0:0:
90,248,45807,2,0,L|105:343,1,90,8|8,0:0|0:3,0:0:0:0:
190,310,46449,6,0,P|251:294|288:301,1,90,14|14,0:0|0:0,0:0:0:0:
363,272,47090,2,0,B|428:287|428:287|503:270,2,135,8|6|0,0:0|0:0|0:0,0:0:0:0:
297,209,48374,1,8,0:0:0:0:
121,170,49016,6,0,B|111:130|111:130|118:81,1,90,14|14,0:0|0:0,0:0:0:0:
192,30,49657,2,0,B|258:14|258:14|323:29,2,135,8|6|0,0:0|0:0|0:0,0:0:0:0:
195,120,50941,1,4,0:3:0:0:
121,170,51262,1,12,0:0:0:0:
446,206,58641,6,0,B|362:242|362:178|270:214,1,180,14|4,0:0|0:0,0:0:0:0:
194,262,59603,1,8,0:0:0:0:
130,198,59924,2,0,L|122:102,1,90,4|10,0:0|0:0,0:0:0:0:
114,18,60566,1,2,0:0:0:0:
288,61,61207,6,0,L|390:53,1,90,6|8,0:0|0:0,0:0:0:0:
448,109,61849,2,0,P|457:152|450:200,1,90,4|8,0:0|0:0,0:0:0:0:
382,256,62491,2,0,B|390:299|390:299|380:347,2,90,4|10|2,0:0|0:0|0:0,0:0:0:0:
316,194,63453,1,10,0:0:0:0:
240,242,63774,6,0,P|195:261|60:243,1,180,14|4,0:0|0:0,0:0:0:0:
38,161,64737,1,10,0:0:0:0:
103,98,65058,2,0,B|191:52|191:131|286:84,1,180,4|8,0:0|0:3,0:0:0:0:
345,145,66020,1,8,0:0:0:0:
300,224,66341,6,0,P|221:213|148:228,1,135,14|6,0:0|0:0,0:0:0:0:
127,302,67143,1,6,0:0:0:0:
207,343,67464,2,0,P|286:354|359:339,1,135,6|6,0:0|0:0,0:0:0:0:
383,266,68266,1,8,0:0:0:0:
376,176,68587,1,8,0:0:0:0:
314,111,68908,6,0,B|233:88|233:154|137:118,1,180,14|4,0:0|0:0,0:0:0:0:
59,77,69870,1,8,0:0:0:0:
35,163,70191,2,0,L|41:266,1,90,4|10,0:0|0:0,0:0:0:0:
44,343,70833,1,2,0:0:0:0:
215,289,71475,6,0,B|270:275|270:275|325:293|325:293|406:274,1,180,6|4,0:0|0:0,0:0:0:0:
428,196,72437,1,8,0:0:0:0:
419,106,72758,2,0,B|464:93|464:93|511:99,2,90,4|10|2,0:0|0:0|0:0,0:0:0:0:
344,157,73721,1,10,0:0:0:0:
267,109,74042,6,0,P|175:87|88:124,1,180,14|4,0:0|0:0,0:0:0:0:
47,191,75004,1,10,0:0:0:0:
114,250,75325,2,0,L|205:263,1,90,4|8,0:0|0:0,0:0:0:0:
268,200,75967,2,0,L|357:187,1,90,8|8,0:3|0:0,0:0:0:0:
426,129,76608,5,14,0:0:0:0:
400,307,77250,2,0,L|311:294,1,90,6|10,0:0|0:0,0:0:0:0:
239,238,77892,2,0,B|151:257|151:257|100:246,2,135,6|6|8,0:0|0:0|0:0,0:0:0:0:
271,153,79175,5,4,0:0:0:0:
108,75,79817,2,0,L|112:170,1,90,6|10,0:0|0:0,0:0:0:0:
183,220,80459,2,0,B|178:310|178:310|196:359,2,135,6|6|10,0:0|0:0|0:0,0:0:0:0:
229,143,81742,6,0,P|270:128|328:134,1,90,8|8,0:0|0:0,0:0:0:0:
362,207,82384,2,0,P|406:209|448:194,1,90,8|8,0:0|0:0,0:0:0:0:
493,115,83026,2,0,B|501:69|501:69|493:22,2,90,8|4|4,0:0|0:0|0:3,0:0:0:0:
403,101,83988,1,12,0:0:0:0:
313,87,84309,6,0,B|259:82|259:82|221:98|221:98|166:92,1,135,14|2,0:0|0:0,0:0:0:0:
94,72,85111,1,6,0:0:0:0:
33,138,85432,2,0,P|21:185|55:283,1,135,2|10,0:0|0:0,0:0:0:0:
103,333,86234,1,6,0:0:0:0:
272,273,86876,6,0,B|324:267|324:267|359:278|359:278|417:271,1,135,6|2,0:0|0:0,0:0:0:0:
474,216,87678,1,6,0:0:0:0:
420,143,87999,2,0,P|377:128|285:139,1,135,2|10,0:0|0:0,0:0:0:0:
225,200,88801,1,8,0:3:0:0:
86,85,89443,5,14,0:0:0:0:
36,257,90084,2,0,B|28:301|28:301|42:360,1,90,6|10,0:0|0:0,0:0:0:0:
125,370,90726,1,6,0:0:0:0:
284,285,91368,6,0,L|289:191,1,90,6|10,0:0|0:0,0:0:0:0:
207,156,92009,2,0,L|202:62,1,90,6|10,0:0|0:0,0:0:0:0:
282,22,92651,1,6,0:0:0:0:
372,23,92972,1,10,0:0:0:0:
427,94,93293,2,0,B|434:156|434:156|415:207|415:207|422:276,1,180,8|8,0:0|0:0,0:0:0:0:
433,359,94255,1,8,0:0:0:0:
347,332,94576,5,6,0:0:0:0:
188,245,95218,2,0,L|181:155,1,90,6|0,0:0|0:0,0:0:0:0:
117,91,95860,1,6,0:0:0:0:
289,40,96501,6,0,L|379:46,1,90,6|0,0:0|0:0,0:0:0:0:
464,75,97143,1,6,0:0:0:0:
436,160,97464,2,0,B|446:208|446:208|437:250,2,90,8|4|4,0:3|0:3|0:3,0:0:0:0:
349,132,98427,1,6,0:0:0:0:
256,192,98587,12,0,104844,0:0:0:0:
