osu file format v14

[General]
AudioFilename: audio.mp3
AudioLeadIn: 0
PreviewTime: 58641
Countdown: 0
SampleSet: Soft
StackLeniency: 0.7
Mode: 0
LetterboxInBreaks: 0
WidescreenStoryboard: 0

[Editor]
Bookmarks: 6663,18213,19497,28481,41315,51582,57839,77731,81742,84309,93293,94576,98427,103560
DistanceSpacing: 1
BeatDivisor: 4
GridSize: 16
TimelineZoom: 1

[Metadata]
Title:Love Love Sensation short ver,
TitleUnicode:らぶらぶセンセーション short ver,
Artist:solfa feat.nao
ArtistUnicode:solfa feat.nao
Creator:Log Off Now
Version:Rizen's Normal
Source:らぶらぶシスターズ~花嫁&姉妹達とのドキドキハーレム生活~
Tags:Love Love Sisters ~Hanayome & Shimai-tachi to no Doki Doki Harem Seikatsu~ Pajamas EX eroge visual novel opening left momochikun rizen
BeatmapID:1222284
BeatmapSetID:565367

[Difficulty]
HPDrainRate:4
CircleSize:3.3
OverallDifficulty:4
ApproachRate:5
SliderMultiplier:1
SliderTickRate:1

[Events]
//Background and Video events
0,0,"lovelovesensationbg.jpg",0,0
//Break Periods
2,51582,55677
//Storyboard Layer 0 (Background)
//Storyboard Layer 1 (Fail)
//Storyboard Layer 2 (Pass)
//Storyboard Layer 3 (Foreground)
//Storyboard Sound Samples

[TimingPoints]
246,320.855614973262,4,2,1,40,1,0
5379,-100,4,2,2,50,0,0
6663,-100,4,2,4,60,0,0
6823,-100,4,2,2,60,0,0
11796,-100,4,2,4,60,0,0
11957,-100,4,2,2,60,0,0
17090,-100,4,2,3,60,0,0
18213,-100,4,2,1,50,0,0
27839,-100,4,2,2,50,0,0
28481,-100,4,2,3,50,0,0
28641,-100,4,2,2,50,0,0
33614,-100,4,2,3,50,0,0
33775,-100,4,2,2,50,0,0
40994,-100,4,2,3,50,0,0
41315,-100,4,2,4,50,0,0
41957,-100,4,2,2,50,0,0
42438,-100,4,2,3,50,0,0
43882,-100,4,2,4,50,0,0
44524,-100,4,2,2,50,0,0
45005,-100,4,2,3,50,0,0
46449,-100,4,2,4,50,0,0
47090,-100,4,2,2,50,0,0
47572,-100,4,2,3,50,0,0
49016,-100,4,2,4,50,0,0
49657,-100,4,2,2,50,0,0
50139,-100,4,2,3,50,0,0
56877,-100,4,2,2,50,0,0
58641,320.855614973262,4,2,4,60,1,1
58801,-100,4,2,2,60,0,1
63774,-100,4,2,4,60,0,1
63935,-100,4,2,2,60,0,1
67945,-100,4,2,3,60,0,1
68266,-100,4,2,2,40,0,1
68587,-100,4,2,2,50,0,1
68908,-100,4,2,4,60,0,1
69068,-100,4,2,2,60,0,1
74042,-100,4,2,4,60,0,1
74202,-100,4,2,2,60,0,1
76608,-100,4,2,4,60,0,1
76769,-100,4,2,2,60,0,1
83988,-100,4,2,3,60,0,1
84309,-100,4,2,4,60,0,0
84469,-100,4,2,2,60,0,0
89443,-100,4,2,4,60,0,0
89603,-100,4,2,2,60,0,0
93293,-100,4,2,2,40,0,0
93614,-100,4,2,2,45,0,0
93935,-100,4,2,2,50,0,0
94255,-100,4,2,2,55,0,0
94576,-100,4,2,3,60,0,0
100993,-100,4,2,1,30,0,0
101635,-100,4,2,1,25,0,0
102277,-100,4,2,1,20,0,0
102919,-100,4,2,1,15,0,0
103560,-100,4,2,1,10,0,0

[Colours]
Combo1 : 62,158,255
Combo2 : 255,255,159
Combo3 : 251,198,255
Combo4 : 139,209,248

[HitObjects]
98,233,246,5,2,0:0:0:0:
286,168,887,2,0,P|336:171|386:180,1,100,2|0,0:0|0:0,0:0:0:0:
481,210,1529,1,2,0:0:0:0:
405,24,2171,1,2,0:0:0:0:
309,54,2491,1,2,0:0:0:0:
213,24,2812,5,2,0:0:0:0:
117,57,3133,2,0,P|92:60|67:64,2,50,0|2|2,0:0|0:0|0:0,0:0:0:0:
193,123,3775,1,0,0:0:0:0:
256,192,4096,12,8,5379,0:0:0:0:
274,276,6342,6,0,P|275:251|274:226,1,50,12|0,0:0|0:0,0:0:0:0:
256,179,6663,6,0,P|304:190|352:177,1,100,14|8,0:0|0:0,0:0:0:0:
392,147,7144,2,0,P|439:134|488:145,2,100,2|6|2,0:0|0:0|0:0,0:0:0:0:
305,96,8106,1,2,0:0:0:0:
305,96,8267,2,0,P|303:71|304:46,1,50,10|0,0:0|0:0,0:0:0:0:
268,10,8588,2,0,P|220:21|172:8,1,100,6|8,0:0|0:0,0:0:0:0:
108,85,9229,6,0,P|60:71|12:82,1,100,6|8,0:0|0:0,0:0:0:0:
0,130,9711,2,0,P|9:178|11:228,2,100,2|6|2,0:0|0:0|0:0,0:0:0:0:
89,174,10673,1,2,0:0:0:0:
89,174,10834,2,0,P|113:176|138:172,1,50,10|2,0:0|0:0,0:0:0:0:
188,165,11155,2,0,B|222:161|222:161|261:167|261:167|287:165,1,100,8|8,0:3|0:0,0:0:0:0:
330,139,11636,1,8,0:0:0:0:
330,139,11796,6,0,P|324:189|328:239,1,100,14|8,0:0|0:0,0:0:0:0:
381,322,12438,2,0,P|356:318|331:318,1,50,6|4,0:0|0:0,0:0:0:0:
281,325,12759,2,0,P|256:328|231:328,1,50,10|0,0:0|0:0,0:0:0:0:
189,300,13080,2,0,P|139:292|91:304,1,100,6|8,0:0|0:0,0:0:0:0:
7,251,13721,1,6,0:0:0:0:
23,152,14042,1,10,0:0:0:0:
42,53,14363,6,0,P|91:45|139:57,1,100,6|8,0:0|0:0,0:0:0:0:
169,97,14844,1,8,0:0:0:0:
169,97,15005,2,0,P|218:89|266:101,1,100,8|8,0:3|0:0,0:0:0:0:
363,125,15647,6,0,P|388:120|413:121,1,50,8|4,0:0|0:3,0:0:0:0:
397,219,16128,2,0,P|420:226|441:239,1,50,8|0,0:0|0:0,0:0:0:0:
379,317,16609,1,12,0:0:0:0:
379,317,16770,1,12,0:0:0:0:
280,304,17090,1,6,0:0:0:0:
280,304,17251,1,6,0:0:0:0:
53,116,18213,6,0,P|99:98|149:101,1,100,0|0,3:0|3:0,0:0:0:0:
211,179,18855,2,0,P|164:196|114:193,1,100,0|0,3:0|3:0,0:0:0:0:
79,228,19336,1,0,0:0:0:0:
79,228,19497,2,0,P|86:277|87:327,1,100,0|0,3:0|3:0,0:0:0:0:
178,370,20139,2,0,P|179:320|186:270,1,100,0|0,3:0|3:0,0:0:0:0:
280,303,20780,6,0,P|329:308|379:304,1,100,0|0,3:0|3:0,0:0:0:0:
413,266,21262,1,0,0:0:0:0:
378,172,21582,2,0,P|377:147|381:122,1,50,0|0,0:0|3:0,0:0:0:0:
370,77,21903,1,0,0:0:0:0:
370,77,22064,2,0,P|320:82|270:78,1,100,0|0,3:0|3:0,0:0:0:0:
180,121,22705,2,0,P|130:117|80:122,1,100,0|0,3:0|3:0,0:0:0:0:
46,159,23187,1,2,0:3:0:0:
46,159,23347,6,0,P|47:208|43:258,1,100,4|0,3:2|3:0,0:0:0:0:
133,215,23989,2,0,P|131:264|135:314,1,100,0|0,3:0|3:0,0:0:0:0:
170,350,24470,1,0,0:0:0:0:
170,350,24631,2,0,P|219:342|269:344,1,100,0|0,3:0|3:0,0:0:0:0:
324,260,25272,2,0,P|274:252|224:254,1,100,0|0,3:0|3:0,0:0:0:0:
133,214,25914,6,0,P|127:164|129:114,1,100,0|0,3:0|3:0,0:0:0:0:
155,71,26395,1,0,0:0:0:0:
255,77,26716,2,0,P|280:83|305:83,1,50,0|0,0:0|3:0,0:0:0:0:
348,58,27037,2,0,P|340:107|344:156,1,100,0|0,0:0|0:0,0:0:0:0:
361,204,27518,2,0,P|368:253|364:302,1,100,0|8,3:0|0:0,0:0:0:0:
274,255,28160,2,0,P|250:255|225:260,1,50,8|8,0:0|0:0,0:0:0:0:
185,290,28481,6,0,P|136:302|87:297,1,100,6|8,0:0|0:0,0:0:0:0:
34,211,29123,2,0,L|42:111,1,100,4|8,0:0|0:0,0:0:0:0:
85,84,29604,1,0,0:0:0:0:
85,84,29764,2,0,P|134:96|183:91,1,100,4|8,0:0|0:0,0:0:0:0:
227,68,30245,2,0,P|276:63|324:75,1,100,0|0,0:0|0:0,0:0:0:0:
362,108,30727,1,8,0:0:0:0:
459,83,31048,6,0,P|447:131|444:181,1,100,4|8,0:0|0:0,0:0:0:0:
480,274,31689,2,0,P|489:297|493:321,2,50,4|4|8,0:0|0:0|0:0,0:0:0:0:
432,256,32171,1,0,0:0:0:0:
432,256,32331,2,0,P|384:272|334:274,1,100,4|8,0:0|0:0,0:0:0:0:
288,254,32812,2,0,P|240:238|190:236,1,100,0|4,0:0|0:0,0:0:0:0:
143,252,33294,1,8,0:0:0:0:
125,153,33614,6,0,P|172:136|221:134,1,100,6|8,0:0|0:0,0:0:0:0:
321,120,34256,1,4,0:0:0:0:
321,120,34417,2,0,P|325:96|324:71,1,50,4|8,0:0|0:0,0:0:0:0:
422,54,34898,2,0,P|425:103|414:152,1,100,4|8,0:0|0:0,0:0:0:0:
386,194,35379,2,0,P|382:243|393:292,1,100
427,329,35860,1,8,0:0:0:0:
339,377,36181,6,0,P|289:369|239:369,2,100,4|8|4,0:0|0:0|0:0,0:0:0:0:
393,292,37144,1,8,0:0:0:0:
336,209,37465,2,0,P|385:201|435:201,2,100,4|8|4,0:0|0:0|0:0,0:0:0:0:
237,225,38427,2,0,P|213:227|188:226,1,50,8|8,0:0|0:3,0:0:0:0:
137,222,38748,6,0,P|140:271|132:320,2,100,4|8|4,0:0|0:0|0:0,0:0:0:0:
65,151,39711,1,8,0:0:0:0:
76,51,40032,6,0,P|51:49|27:57,2,50,8|8|4,0:0|0:3|0:0,0:0:0:0:
122,67,40513,2,0,P|169:50|218:57,1,100,8|4,0:0|0:0,0:0:0:0:
265,74,40994,1,12,0:0:0:0:
329,150,41315,6,0,P|319:199|314:248,1,100,14|14,0:0|0:0,0:0:0:0:
364,336,41957,2,0,P|388:333|413:334,2,50,8|8|8,0:0|0:0|0:0,0:0:0:0:
316,354,42438,2,0,P|267:359|217:355,1,100,6|8,0:0|0:0,0:0:0:0:
127,309,43080,1,2,0:0:0:0:
127,309,43240,2,0,P|121:259|112:210,1,100,8|0,0:0|0:0,0:0:0:0:
66,121,43882,6,0,P|115:126|165:122,1,100,14|14,0:0|0:0,0:0:0:0:
264,138,44524,2,0,P|269:113|270:88,2,50,8|8|8,0:0|0:0|0:0,0:0:0:0:
244,184,45005,2,0,P|240:233|252:281,1,100,6|8,0:0|0:0,0:0:0:0:
338,333,45647,1,2,0:0:0:0:
338,333,45808,2,0,P|333:358|332:383,2,50,8|0|8,0:0|0:0|0:3,0:0:0:0:
418,273,46449,6,0,P|422:224|410:176,1,100,14|14,0:0|0:0,0:0:0:0:
397,75,47090,2,0,P|421:76|446:82,2,50,8|8|8,0:0|0:0|0:0,0:0:0:0:
350,94,47572,2,0,P|301:106|252:102,1,100,6|8,0:0|0:0,0:0:0:0:
162,58,48213,1,2,0:0:0:0:
162,58,48374,2,0,P|174:106|170:155,1,100,8|0,0:0|0:0,0:0:0:0:
127,183,48855,1,0,0:0:0:0:
127,183,49016,6,0,P|115:231|119:280,1,100,14|14,0:0|0:0,0:0:0:0:
204,332,49657,2,0,P|202:356|204:381,2,50,8|8|8,0:0|0:0|0:0,0:0:0:0:
248,307,50139,2,0,P|295:321|344:315,1,100,6|8,0:0|0:0,0:0:0:0:
424,256,50780,1,2,0:0:0:0:
424,256,50941,2,0,P|448:253|473:257,2,50,4|2|12,0:3|0:0|0:0,0:0:0:0:
193,153,56877,6,0,P|188:128|190:103,1,50,12|12,0:0|0:0,0:0:0:0:
287,124,57358,2,0,P|311:119|336:121,1,50,12|12,0:0|0:0,0:0:0:0:
317,219,57839,1,12,0:0:0:0:
118,371,58641,5,14,0:0:0:0:
118,371,58801,2,0,P|113:346|115:321,1,50,0|8,0:0|0:0,0:0:0:0:
149,285,59122,2,0,P|198:291|248:290,2,100,2|6|2,0:0|0:0|0:0,0:0:0:0:
82,210,60084,1,2,0:0:0:0:
82,210,60245,2,0,P|83:185|78:160,1,50,10|4,0:0|0:0,0:0:0:0:
55,116,60566,2,0,P|104:117|154:110,1,100,2|8,0:0|0:0,0:0:0:0:
250,131,61207,5,6,0:0:0:0:
250,131,61367,2,0,P|274:129|299:129,1,50,0|8,0:0|0:0,0:0:0:0:
349,139,61689,2,0,P|398:137|448:143,2,100,2|6|2,0:0|0:0|0:0,0:0:0:0:
306,229,62650,1,2,0:0:0:0:
306,229,62812,2,0,P|282:231|257:231,1,50,10|4,0:0|0:0,0:0:0:0:
215,259,63132,2,0,P|198:242|182:223,1,50,2|4,0:0|0:0,0:0:0:0:
158,177,63453,1,10,0:0:0:0:
67,218,63774,6,0,P|61:267|48:315,2,100,14|8|4,0:0|0:0|0:0,0:0:0:0:
59,168,64576,2,0,P|57:144|57:119,1,50,6|10,0:0|0:0,0:0:0:0:
90,80,64897,1,2,0:0:0:0:
90,80,65058,2,0,P|135:62|185:64,1,100,4|8,0:0|0:0,0:0:0:0:
282,86,65699,2,0,P|306:85|331:79,2,50,8|8|8,0:3|0:0|0:0,0:0:0:0:
270,135,66181,1,4,0:0:0:0:
270,135,66341,6,0,P|271:159|279:183,1,50,14|14,0:0|0:0,0:0:0:0:
370,144,66822,1,6,0:0:0:0:
453,199,67143,1,6,0:0:0:0:
445,299,67464,2,0,P|399:283|365:248,1,100,6|6,0:0|0:0,0:0:0:0:
320,271,67945,2,0,P|285:306|239:322,1,100,6|8,0:0|0:0,0:0:0:0:
151,274,68587,2,0,P|126:269|101:268,1,50,8|8,0:0|0:0,0:0:0:0:
66,231,68908,5,14,0:0:0:0:
66,231,69068,2,0,P|69:207|71:182,1,50,0|8,0:0|0:0,0:0:0:0:
46,139,69389,2,0,P|33:92|44:44,2,100,2|6|2,0:0|0:0|0:0,0:0:0:0:
133,90,70351,1,2,0:0:0:0:
133,90,70512,2,0,P|154:77|178:71,1,50,10|4,0:0|0:0,0:0:0:0:
227,63,70833,2,0,P|276:66|323:83,1,100,2|8,0:0|0:0,0:0:0:0:
395,150,71475,5,6,0:0:0:0:
395,150,71636,2,0,P|420:149|445:144,1,50,0|8,0:0|0:0,0:0:0:0:
484,113,71956,2,0,P|471:66|473:16,2,100,2|6|2,0:0|0:0|0:0,0:0:0:0:
497,212,72919,1,0,0:0:0:0:
497,212,73078,2,0,P|494:236|486:260,1,50,10|4,0:0|0:0,0:0:0:0:
436,262,73400,2,0,P|421:282|402:298,1,50,2|4,0:0|0:0,0:0:0:0:
354,286,73720,1,10,0:0:0:0:
268,234,74041,6,0,P|218:227|172:244,2,100,14|8|4,0:0|0:0|0:0,0:0:0:0:
279,281,74843,2,0,P|281:306|292:329,1,50,6|10,0:0|0:0,0:0:0:0:
267,372,75164,1,2,0:0:0:0:
267,372,75325,2,0,P|217:379|171:362,1,100,4|8,0:0|0:0,0:0:0:0:
86,309,75967,2,0,P|61:310|37:302,2,50,8|8|8,0:3|0:0|0:0,0:0:0:0:
116,269,76448,1,4,0:0:0:0:
116,269,76608,6,0,P|121:220|104:174,1,100,14|8,0:0|0:0,0:0:0:0:
70,136,77090,1,2,0:0:0:0:
70,136,77250,2,0,P|65:111|63:86,2,50,6|6|10,0:0|0:0|0:0,0:0:0:0:
163,100,77892,2,0,P|210:85|259:91,1,100,6|8,0:0|0:0,0:0:0:0:
295,126,78373,2,0,P|342:111|391:117,1,100,6|4,0:0|0:0,0:0:0:0:
423,156,78854,1,8,0:0:0:0:
351,226,79175,6,0,P|303:211|254:217,1,100,4|8,0:0|0:0,0:0:0:0:
212,245,79657,1,2,0:0:0:0:
212,245,79817,2,0,P|188:246|163:241,2,50,6|6|10,0:0|0:0|0:0,0:0:0:0:
269,327,80459,2,0,P|221:341|172:335,1,100,6|10,0:0|0:0,0:0:0:0:
127,358,80940,2,0,P|87:328|62:284,1,100,6|4,0:0|0:0,0:0:0:0:
14,273,81421,1,10,0:0:0:0:
2,173,81742,5,8,0:0:0:0:
91,128,82063,1,8,0:0:0:0:
106,29,82384,1,8,0:0:0:0:
205,16,82705,1,8,0:0:0:0:
258,100,83026,2,0,P|270:121|276:145,1,50
281,196,83346,2,0,P|280:220|285:245,1,50
309,288,83667,1,0,0:0:0:0:
400,244,83988,2,0,P|417:226|429:204,1,50,12|0,0:0|0:0,0:0:0:0:
467,171,84309,6,0,P|494:211|501:261,1,100,14|8,0:0|0:0,0:0:0:0:
482,305,84790,2,0,P|444:337|395:348,2,100,2|6|2,0:0|0:0|0:0,0:0:0:0:
400,244,85752,1,2,0:0:0:0:
400,244,85913,2,0,P|376:238|352:239,1,50,10|0,0:0|0:0,0:0:0:0:
307,263,86234,2,0,P|259:274|211:261,1,100,6|8,0:0|0:0,0:0:0:0:
163,349,86876,6,0,P|115:335|66:346,1,100,6|8,0:0|0:0,0:0:0:0:
31,311,87357,2,0,P|18:263|28:214,2,100,2|6|2,0:0|0:0|0:0,0:0:0:0:
118,261,88319,1,2,0:0:0:0:
118,261,88480,2,0,P|122:237|135:216,1,50,10|2,0:0|0:0,0:0:0:0:
178,188,88801,2,0,B|174:154|174:154|180:115|180:115|178:89,1,100,8|8,0:3|0:0,0:0:0:0:
152,45,89282,1,8,0:0:0:0:
152,45,89442,6,0,P|197:66|244:53,1,100,14|8,0:0|0:0,0:0:0:0:
341,70,90084,2,0,P|365:64|390:63,1,50,6|4,0:0|0:0,0:0:0:0:
423,101,90405,2,0,P|446:108|468:120,1,50,10|0,0:0|0:0,0:0:0:0:
474,170,90726,2,0,P|429:190|382:178,1,100,6|8,0:0|0:0,0:0:0:0:
288,144,91367,1,6,0:0:0:0:
191,169,91688,1,10,0:0:0:0:
93,193,92009,6,0,P|101:242|89:290,1,100,6|10,0:0|0:0,0:0:0:0:
62,332,92490,1,2,0:0:0:0:
62,332,92651,2,0,P|111:324|159:336,1,100,6|10,0:0|0:0,0:0:0:0:
255,365,93293,2,0,P|303:352|352:360,1,100,8|8,0:0|0:0,0:0:0:0:
398,342,93774,1,8,0:0:0:0:
398,342,93935,2,0,P|398:317|393:293,1,50,8|8,0:0|0:0,0:0:0:0:
421,251,94255,2,0,P|421:226|416:202,1,50,8|8,0:0|0:0,0:0:0:0:
438,156,94576,5,6,0:0:0:0:
255,74,95218,2,0,P|231:75|206:69,1,50,6|0,0:0|0:0,0:0:0:0:
164,96,95539,2,0,P|141:84|123:67,1,50,0|0,0:0|0:0,0:0:0:0:
74,56,95860,1,6,0:0:0:0:
38,252,96501,2,0,P|62:246|87:247,1,50,6|0,0:0|0:0,0:0:0:0:
134,264,96822,2,0,P|158:269|183:268,1,50,0|0,0:0|0:0,0:0:0:0:
216,231,97143,6,0,P|264:218|313:226,1,100,6|8,0:0|0:3,0:0:0:0:
340,185,97624,1,8,0:3:0:0:
340,185,97785,2,0,P|305:149|287:102,1,100,4|8,0:3|0:0,0:0:0:0:
193,136,98427,1,6,0:0:0:0:
256,192,98587,12,0,104844,0:0:0:0:
