osu file format v14

[General]
AudioFilename: audio.mp3
AudioLeadIn: 0
PreviewTime: 58641
Countdown: 0
SampleSet: Soft
StackLeniency: 0.2
Mode: 0
LetterboxInBreaks: 0
WidescreenStoryboard: 0

[Editor]
Bookmarks: 6663,18213,19497,28481,41315,51582,57839,81742,84309,93293,94576,98427,103560
DistanceSpacing: 1.09
BeatDivisor: 4
GridSize: 4
TimelineZoom: 1

[Metadata]
Title:Love Love Sensation short ver,
TitleUnicode:らぶらぶセンセーション short ver,
Artist:solfa feat.nao
ArtistUnicode:solfa feat.nao
Creator:Log Off Now
Version:Left's Insane
Source:らぶらぶシスターズ~花嫁&姉妹達とのドキドキハーレム生活~
Tags:Love Love Sisters ~Hanayome & Shimai-tachi to no Doki Doki Harem Seikatsu~ Pajamas EX eroge visual novel opening left momochikun rizen
BeatmapID:1207212
BeatmapSetID:565367

[Difficulty]
HPDrainRate:6
CircleSize:4
OverallDifficulty:7.7
ApproachRate:9
SliderMultiplier:1.7
SliderTickRate:1

[Events]
//Background and Video events
0,0,"lovelovesensationbg.jpg",0,0
//Break Periods
//Storyboard Layer 0 (Background)
//Storyboard Layer 1 (Fail)
//Storyboard Layer 2 (Pass)
//Storyboard Layer 3 (Foreground)
//Storyboard Sound Samples

[TimingPoints]
246,320.855614973262,4,2,1,40,1,0
246,-181.818181818182,4,2,1,40,0,0
5379,-100,4,2,2,50,0,0
6342,-76.9230769230769,4,2,2,50,0,0
6663,-76.9230769230769,4,2,4,60,0,0
6823,-100,4,2,2,60,0,0
11796,-100,4,2,4,60,0,0
11957,-100,4,2,2,60,0,0
17090,-100,4,2,3,60,0,0
18213,-107.52688172043,4,2,1,50,0,0
27839,-107.52688172043,4,2,2,50,0,0
28481,-100,4,2,3,50,0,0
28641,-100,4,2,2,50,0,0
33614,-100,4,2,3,50,0,0
33775,-100,4,2,2,50,0,0
40994,-100,4,2,3,50,0,0
41315,-83.3333333333333,4,2,4,50,0,0
41957,-100,4,2,2,50,0,0
42438,-100,4,2,3,50,0,0
43882,-83.3333333333333,4,2,4,50,0,0
44524,-100,4,2,2,50,0,0
45005,-100,4,2,3,50,0,0
46449,-83.3333333333333,4,2,4,50,0,0
47090,-100,4,2,2,50,0,0
47572,-100,4,2,3,50,0,0
49016,-83.3333333333333,4,2,4,50,0,0
49657,-100,4,2,2,50,0,0
50139,-100,4,2,3,50,0,0
51502,-100,4,2,3,5,0,0
51582,-153.846153846154,4,2,1,50,0,0
54149,-181.818181818182,4,2,1,30,0,0
56716,-100,4,2,2,60,0,0
58000,-200,4,2,1,30,0,0
58481,-200,4,2,1,5,0,0
58641,320.855614973262,4,2,4,75,1,1
58801,-90.9090909090909,4,2,2,75,0,1
63774,-90.9090909090909,4,2,4,75,0,1
63935,-90.9090909090909,4,2,2,75,0,1
65378,-76.9230769230769,4,2,2,75,0,1
65699,-66.6666666666667,4,2,2,75,0,1
66341,-90.9090909090909,4,2,2,75,0,1
67945,-90.9090909090909,4,2,3,75,0,1
68266,-90.9090909090909,4,2,2,75,0,1
68587,-90.9090909090909,4,2,2,75,0,1
68908,-90.9090909090909,4,2,4,75,0,1
69068,-90.9090909090909,4,2,2,75,0,1
74042,-90.9090909090909,4,2,4,75,0,1
74202,-90.9090909090909,4,2,2,75,0,1
76608,-90.9090909090909,4,2,4,75,0,1
76769,-90.9090909090909,4,2,2,75,0,1
83988,-90.9090909090909,4,2,3,75,0,1
84309,-100,4,2,4,60,0,0
84469,-100,4,2,2,60,0,0
89443,-100,4,2,4,60,0,0
89603,-100,4,2,2,60,0,0
93293,-100,4,2,2,40,0,0
93614,-100,4,2,2,45,0,0
93935,-100,4,2,2,50,0,0
94255,-100,4,2,2,55,0,0
94576,-100,4,2,3,60,0,0
100993,-100,4,2,1,30,0,0
101635,-100,4,2,1,25,0,0
102277,-100,4,2,1,20,0,0
102919,-100,4,2,1,15,0,0
103560,-100,4,2,1,10,0,0

[Colours]
Combo1 : 62,158,255
Combo2 : 255,255,159
Combo3 : 251,198,255
Combo4 : 139,209,248

[HitObjects]
105,86,246,5,2,0:0:0:0:
125,172,887,1,2,0:0:0:0:
211,149,1208,1,0,0:0:0:0:
362,282,1529,5,2,0:0:0:0:
378,106,2171,1,2,0:0:0:0:
370,193,2491,1,2,0:0:0:0:
142,277,2812,5,2,0:0:0:0:
287,257,3133,1,0,0:0:0:0:
222,319,3294,1,2,0:0:0:0:
222,319,3454,1,2,0:0:0:0:
207,210,3775,1,0,0:0:0:0:
107,287,4096,6,0,P|-11:299|50:235,1,280.500008560181,2|0,0:0|0:0,0:0:0:0:
43,236,5379,5,8,0:0:0:0:
45,257,5459,1,8,0:0:0:0:
48,278,5540,2,0,L|56:349,2,42.5,8|0|0,0:3|0:0|0:0,0:0:0:0:
120,99,5860,1,8,0:0:0:0:
122,78,5940,1,8,0:0:0:0:
125,57,6021,2,0,L|133:-14,2,42.5,4|0|0,0:3|0:0|0:0,0:0:0:0:
0,164,6342,6,0,B|55:154|55:154|101:182|101:182|192:165,1,165.749992412568,8|0,0:0|0:0,0:0:0:0:
212,109,6663,2,0,P|180:211|291:264,1,220.999989883423,14|8,0:0|0:0,0:0:0:0:
345,187,7144,6,0,L|243:181,1,85,2|4,0:0|0:0,0:0:0:0:
184,357,7465,2,0,L|268:352,1,85,6|8,0:0|0:0,0:0:0:0:
358,174,7786,6,0,L|170:161,1,170,2|2,0:0|0:0,0:0:0:0:
44,212,8267,2,0,P|80:232|139:221,1,85,10|0,0:0|0:0,0:0:0:0:
123,43,8588,2,0,B|93:14|93:14|100:162,1,170,6|8,0:0|0:0,0:0:0:0:
419,298,9229,6,0,P|348:218|266:242,1,170,6|8,0:0|0:0,0:0:0:0:
242,315,9711,2,0,L|354:307,1,85,2|4,0:0|0:0,0:0:0:0:
378,197,10032,2,0,P|390:153|387:105,1,85,6|8,0:0|0:0,0:0:0:0:
148,48,10352,6,0,B|143:108|143:108|160:148|160:148|154:232,1,170,2|2,0:0|0:0,0:0:0:0:
63,77,10834,2,0,P|58:126|98:186,1,85,10|2,0:0|0:0,0:0:0:0:
243,259,11155,2,0,P|258:221|235:142,1,85,8|8,0:3|0:0,0:0:0:0:
248,163,11395,1,8,0:0:0:0:
240,150,11475,1,8,0:0:0:0:
162,308,11636,1,8,0:0:0:0:
177,328,11716,1,8,0:0:0:0:
192,348,11796,6,0,L|392:332,1,170,14|8,0:0|0:0,0:0:0:0:
361,334,12438,2,0,P|376:285|364:238,1,85,6|4,0:0|0:0,0:0:0:0:
230,195,12759,2,0,L|337:186,1,85,10|0,0:0|0:0,0:0:0:0:
435,59,13080,6,0,L|251:45,1,170,6|8,0:0|0:0,0:0:0:0:
351,164,13561,1,0,0:0:0:0:
439,45,13721,2,0,L|326:37,1,85,6|4,0:0|0:0,0:0:0:0:
272,182,14042,2,0,P|329:178|368:140,1,85,10|0,0:0|0:0,0:0:0:0:
203,116,14363,6,0,B|173:89|173:89|184:245,1,170,6|8,0:0|0:0,0:0:0:0:
338,251,14844,2,0,L|334:314,2,42.5,8|8|8,0:0|0:0|0:3,0:0:0:0:
346,148,15165,1,8,0:0:0:0:
348,127,15245,1,8,0:0:0:0:
349,105,15325,1,8,0:0:0:0:
256,194,15486,1,8,0:3:0:0:
427,207,15647,5,8,0:0:0:0:
237,193,15807,2,0,L|163:182,2,42.5,4|4|4,0:3|0:3|0:0,0:0:0:0:
368,134,16128,5,8,0:0:0:0:
300,260,16288,1,0,0:0:0:0:
278,113,16609,5,12,0:0:0:0:
385,280,16770,1,12,0:0:0:0:
214,237,17090,5,6,0:0:0:0:
459,150,17250,1,6,0:0:0:0:
459,150,17893,5,0,0:0:0:0:
286,217,18213,6,0,L|267:41,2,158.10000494545,0|0|0,3:0|3:0|3:0,0:0:0:0:
369,177,19016,1,0,0:0:0:0:
369,177,19176,2,0,L|356:68,1,79.050002472725,0|0,3:0|0:0,0:0:0:0:
225,285,19497,6,0,P|293:310|371:253,2,158.10000494545,0|0|0,3:0|3:0|3:0,0:0:0:0:
164,215,20299,1,0,0:0:0:0:
93,274,20459,1,0,3:0:0:0:
156,346,20620,1,0,0:0:0:0:
254,256,20780,6,0,B|261:199|261:199|252:160|252:160|259:94,1,158.10000494545,0|0,3:0|3:0,0:0:0:0:
164,215,21262,2,0,P|124:228|67:213,1,79.050002472725,0|0,0:0|3:0,0:0:0:0:
230,86,21582,2,0,L|243:199,1,79.050002472725,0|0,0:0|3:0,0:0:0:0:
375,262,21903,1,0,0:0:0:0:
375,262,22064,6,0,L|390:100,2,158.10000494545,0|0|0,3:0|3:0|3:0,0:0:0:0:
375,262,23026,2,0,P|328:245|275:262,1,79.050002472725,0|2,3:0|0:3,0:0:0:0:
436,330,23347,6,0,B|471:351|471:351|460:200,2,158.10000494545,4|0|0,3:2|3:0|3:0,0:0:0:0:
351,274,24149,1,0,0:0:0:0:
287,345,24310,2,0,P|233:365|199:357,1,79.050002472725,0|0,3:0|0:0,0:0:0:0:
64,234,24631,6,0,L|74:71,2,158.10000494545,0|0|0,3:0|3:0|3:0,0:0:0:0:
146,273,25433,1,0,0:0:0:0:
151,183,25593,1,0,3:0:0:0:
158,94,25754,1,0,0:0:0:0:
228,234,25914,6,0,P|293:248|366:171,1,158.10000494545,0|0,3:0|3:0,0:0:0:0:
158,94,26395,2,0,L|148:206,1,79.050002472725,0|0,0:0|3:0,0:0:0:0:
220,312,26716,2,0,L|230:200,1,79.050002472725,0|0,0:0|3:0,0:0:0:0:
150,172,27037,1,0,0:0:0:0:
304,221,27197,6,0,P|241:233|201:231,1,79.050002472725,0|0,3:0|0:0,0:0:0:0:
72,184,27518,2,0,P|135:172|175:174,1,79.050002472725,0|0,3:0|0:0,0:0:0:0:
226,233,27839,1,8,0:0:0:0:
278,106,28000,1,8,0:0:0:0:
276,96,28080,1,8,0:0:0:0:
275,86,28160,1,8,0:0:0:0:
274,76,28240,1,8,0:0:0:0:
273,66,28320,1,8,0:0:0:0:
272,56,28401,1,8,0:0:0:0:
271,47,28481,5,6,0:0:0:0:
189,86,28641,1,0,0:0:0:0:
294,115,28802,2,0,L|280:4,1,85,8|0,0:0|0:0,0:0:0:0:
179,102,29123,2,0,P|165:171|172:216,2,85,4|4|8,0:0|0:0|0:0,0:0:0:0:
255,14,29604,1,0,0:0:0:0:
333,102,29764,5,4,0:0:0:0:
333,102,29925,2,0,P|347:171|340:216,1,85,0|8,0:0|0:0,0:0:0:0:
230,275,30245,2,0,L|54:264,1,170,0|0,0:0|0:0,0:0:0:0:
234,292,30727,2,0,L|149:287,1,85,8|4,0:0|0:0,0:0:0:0:
71,119,31048,6,0,P|58:66|74:17,2,85,4|0|8,0:0|0:0|0:0,0:0:0:0:
231,78,31529,2,0,L|140:69,1,85,0|4,0:0|0:0,0:0:0:0:
100,206,31850,1,4,0:0:0:0:
100,206,32010,2,0,L|191:197,1,85,8|0,0:0|0:0,0:0:0:0:
356,115,32331,5,4,0:0:0:0:
344,283,32491,2,0,L|350:186,1,85,0|8,0:0|0:0,0:0:0:0:
263,315,32812,2,0,P|208:328|160:329,1,85,0|4,0:0|0:0,0:0:0:0:
349,198,33133,1,4,0:0:0:0:
349,198,33213,1,4,0:0:0:0:
349,198,33294,2,0,P|404:211|452:212,1,85,8|8,0:0|0:3,0:0:0:0:
264,75,33614,6,0,B|268:130|268:130|253:183|253:183|260:261,1,170,6|8,0:0|0:0,0:0:0:0:
426,297,34096,1,0,0:0:0:0:
426,297,34256,2,0,L|432:206,1,85,4|4,0:0|0:0,0:0:0:0:
345,186,34577,2,0,L|339:270,1,85,8|0,0:0|0:0,0:0:0:0:
438,361,34898,6,0,B|443:295|443:295|453:278|453:278|444:258|444:258|448:165,1,170,4|8,0:0|0:0,0:0:0:0:
395,100,35379,2,0,P|321:86|253:155,1,170
432,275,35860,2,0,L|434:163,1,85,8|4,0:0|0:0,0:0:0:0:
294,333,36181,6,0,P|239:349|203:343,1,85,4|0,0:0|0:0,0:0:0:0:
181,148,36502,2,0,P|236:132|272:138,1,85,8|0,0:0|0:0,0:0:0:0:
142,299,36823,2,0,P|126:243|132:208,1,85,4|4,0:0|0:0,0:0:0:0:
336,183,37144,2,0,P|352:238|346:274,1,85,8|0,0:0|0:0,0:0:0:0:
136,332,37465,6,0,B|108:291|108:291|124:137,1,170,4|8,0:0|0:0,0:0:0:0:
132,82,37946,1,0,0:0:0:0:
288,170,38106,2,0,P|339:170|378:142,1,85,4|4,0:0|0:0,0:0:0:0:
293,29,38427,1,8,0:0:0:0:
251,187,38588,1,8,0:3:0:0:
251,187,38748,6,0,P|335:203|413:143,2,170,4|8|4,0:0|0:0|0:0,0:0:0:0:
187,118,39550,1,4,0:0:0:0:
92,237,39711,2,0,L|100:325,1,85,8|0,0:0|0:0,0:0:0:0:
286,343,40032,5,8,0:0:0:0:
251,187,40192,1,8,0:3:0:0:
188,283,40352,1,4,0:0:0:0:
347,247,40513,5,8,0:0:0:0:
286,343,40673,1,4,0:3:0:0:
188,283,40834,1,4,0:0:0:0:
233,106,40994,2,0,P|252:148|239:212,1,85,12|2,0:0|0:0,0:0:0:0:
87,298,41315,6,0,P|147:292|225:269,1,101.999996887207,14|0,0:0|0:0,0:0:0:0:
447,121,41636,2,0,P|387:115|309:92,1,101.999996887207,14|0,0:0|0:0,0:0:0:0:
257,42,41957,1,8,0:0:0:0:
257,42,42117,1,8,0:0:0:0:
257,42,42278,1,8,0:0:0:0:
166,105,42438,6,0,B|173:171|173:171|165:205|165:205|175:292,1,170,6|8,0:0|0:0,0:0:0:0:
172,273,43080,1,2,0:0:0:0:
230,207,43240,2,0,P|192:187|117:205,1,85,8|2,0:0|0:0,0:0:0:0:
155,357,43561,2,0,P|197:359|249:318,1,85,0|0,0:0|0:0,0:0:0:0:
425,298,43882,6,0,P|365:292|287:269,1,101.999996887207,14|0,0:0|0:0,0:0:0:0:
65,121,44203,2,0,P|125:115|203:92,1,101.999996887207,14|0,0:0|0:0,0:0:0:0:
257,43,44524,1,8,0:0:0:0:
257,43,44684,1,8,0:0:0:0:
257,43,44845,1,8,0:0:0:0:
229,150,45005,6,0,P|142:147|35:103,1,170,6|8,0:0|0:0,0:0:0:0:
64,120,45647,1,2,0:0:0:0:
139,181,45807,2,0,P|159:138|154:92,1,85,8|2,0:0|0:0,0:0:0:0:
64,120,46128,1,8,0:3:0:0:
64,120,46288,1,2,0:0:0:0:
86,289,46449,6,0,B|126:290|126:290|147:282|147:282|220:284,1,101.999996887207,14|0,0:0|0:0,0:0:0:0:
431,119,46770,2,0,B|391:118|391:118|370:126|370:126|297:124,1,101.999996887207,14|0,0:0|0:0,0:0:0:0:
263,208,47090,1,8,0:0:0:0:
263,208,47251,1,8,0:0:0:0:
263,208,47411,1,8,0:0:0:0:
185,52,47572,6,0,B|111:48|111:48|90:61|90:61|16:57,1,170,6|8,0:0|0:0,0:0:0:0:
190,64,48213,1,2,0:0:0:0:
142,210,48374,1,8,0:0:0:0:
142,210,48534,2,0,L|247:208,1,85,2|0,0:0|0:0,0:0:0:0:
303,154,48855,1,0,0:0:0:0:
426,289,49016,6,0,B|386:290|386:290|365:282|365:282|292:284,1,101.999996887207,14|0,0:0|0:0,0:0:0:0:
81,119,49337,2,0,B|121:118|121:118|142:126|142:126|215:124,1,101.999996887207,14|0,0:0|0:0,0:0:0:0:
257,58,49657,1,8,0:0:0:0:
257,58,49818,1,8,0:0:0:0:
257,58,49978,1,8,0:0:0:0:
86,222,50139,6,0,P|114:181|229:197,1,170,6|8,0:0|0:0,0:0:0:0:
296,346,50620,1,0,0:0:0:0:
163,247,50780,1,2,0:0:0:0:
310,138,50941,1,4,0:3:0:0:
307,159,51021,1,4,0:3:0:0:
306,181,51101,1,2,0:0:0:0:
296,346,51262,2,0,P|315:285|377:327,1,127.5,12|0,0:0|0:0,0:0:0:0:
377,310,51582,6,0,B|412:331|412:331|503:320,1,110.499994941712,0|2,0:0|0:0,0:0:0:0:
296,346,52224,2,0,P|288:293|328:231,1,110.499994941712,2|0,0:0|0:0,0:0:0:0:
400,205,52866,1,0,0:0:0:0:
361,118,53187,1,2,0:0:0:0:
270,153,53508,2,0,L|152:139,1,110.499994941712,2|2,0:0|0:0,0:0:0:0:
243,236,54149,6,0,B|294:255|332:221|332:221|375:182|431:212,1,187.000005706787,2|2,0:0|0:0,0:0:0:0:
416,205,55112,2,0,L|422:143,1,46.7500014266968,0|0,0:0|0:0,0:0:0:0:
417,327,55433,6,0,B|400:260|400:260|428:217|428:217|435:141,1,187.000005706787,2|0,0:0|0:0,0:0:0:0:
255,224,56716,5,0,0:0:0:0:
168,78,56877,1,12,0:0:0:0:
168,78,57037,2,0,L|173:178,1,85,12|0,0:0|0:0,0:0:0:0:
338,357,57358,1,12,0:0:0:0:
338,357,57518,2,0,L|343:257,1,85,12|0,0:0|0:0,0:0:0:0:
168,78,57839,1,12,0:0:0:0:
127,233,58000,6,0,P|198:246|249:202,1,127.5
168,78,58641,5,14,0:0:0:0:
168,78,58801,2,0,L|177:189,1,93.5000028533936,0|8,0:0|0:0,0:0:0:0:
334,289,59122,2,0,B|337:223|337:223|362:181|362:181|366:97,1,187.000005706787,2|6,0:0|0:0,0:0:0:0:
423,257,59603,1,8,0:0:0:0:
272,147,59763,1,2,0:0:0:0:
272,147,59924,6,0,P|221:141|173:172,1,93.5000028533936,4|2,0:0|0:0,0:0:0:0:
112,301,60245,2,0,L|104:189,1,93.5000028533936,10|4,0:0|0:0,0:0:0:0:
251,332,60566,2,0,L|275:117,1,187.000005706787,2|8,0:0|0:0,0:0:0:0:
271,146,61047,1,0,0:0:0:0:
341,249,61207,5,6,0:0:0:0:
173,276,61368,2,0,L|187:159,1,93.5000028533936,0|8,0:0|0:0,0:0:0:0:
256,312,61689,2,0,P|176:366|96:319,1,187.000005706787,2|6,0:0|0:0,0:0:0:0:
173,276,62170,1,8,0:0:0:0:
342,344,62330,6,0,L|474:335,1,93.5000028533936,2|4,0:0|0:0,0:0:0:0:
300,141,62651,1,2,0:0:0:0:
300,141,62812,2,0,P|285:188|305:256,1,93.5000028533936,10|4,0:0|0:0,0:0:0:0:
464,201,63132,2,0,L|332:192,1,93.5000028533936,2|4,0:0|0:0,0:0:0:0:
241,321,63453,2,0,L|373:312,1,93.5000028533936,10|0,0:0|0:0,0:0:0:0:
480,188,63774,6,0,L|275:171,2,187.000005706787,14|8|4,0:0|0:0|0:0,0:0:0:0:
416,270,64576,1,6,0:0:0:0:
360,95,64737,1,10,0:0:0:0:
293,172,64897,1,2,0:0:0:0:
293,172,65058,6,0,P|245:178|196:154,1,93.5000028533936,4|0,0:0|0:0,0:0:0:0:
280,231,65378,6,0,P|235:212|203:154,1,110.499994941712,8|4,0:0|0:0,0:0:0:0:
228,274,65699,6,0,P|198:235|208:154,1,127.500004863739,8|8,0:3|0:0,0:0:0:0:
220,145,65940,1,8,0:0:0:0:
239,136,66020,1,8,0:0:0:0:
368,193,66181,1,4,0:0:0:0:
153,232,66341,5,14,0:0:0:0:
153,232,66501,1,14,0:0:0:0:
458,261,66822,1,6,0:0:0:0:
153,232,67143,1,6,0:0:0:0:
458,261,67464,5,6,0:0:0:0:
153,232,67785,1,6,0:0:0:0:
153,232,67945,2,0,L|165:359,1,93.5000028533936,6|0,0:0|0:0,0:0:0:0:
225,186,68266,1,8,0:0:0:0:
200,161,68346,1,8,0:0:0:0:
168,147,68426,1,8,0:0:0:0:
133,148,68506,1,8,0:0:0:0:
101,162,68586,1,8,0:0:0:0:
161,325,68747,1,8,0:0:0:0:
334,252,68908,5,14,0:0:0:0:
232,92,69068,2,0,L|223:203,1,93.5000028533936,0|8,0:0|0:0,0:0:0:0:
356,266,69389,2,0,B|298:245|298:245|254:275|254:275|163:268,1,187.000005706787,2|6,0:0|0:0,0:0:0:0:
317,343,69870,1,8,0:0:0:0:
224,185,70031,1,2,0:0:0:0:
224,185,70191,6,0,B|209:154|209:154|221:57,1,93.5000028533936,4|2,0:0|0:0,0:0:0:0:
385,37,70512,2,0,L|396:147,1,93.5000028533936,10|4,0:0|0:0,0:0:0:0:
219,209,70833,2,0,B|190:156|190:156|210:22,1,187.000005706787,2|8,0:0|0:0,0:0:0:0:
208,30,71314,1,0,0:0:0:0:
300,132,71475,5,6,0:0:0:0:
300,132,71635,2,0,L|420:129,1,93.5000028533936,0|8,0:0|0:0,0:0:0:0:
208,242,71956,2,0,L|15:226,1,187.000005706787,2|6,0:0|0:0,0:0:0:0:
301,247,72437,1,8,0:0:0:0:
149,317,72598,6,0,P|113:230|167:153,1,187.000005706787,2|2,0:0|0:0,0:0:0:0:
390,108,73079,2,0,B|397:154|397:154|380:202,1,93.5000028533936,10|4,0:0|0:0,0:0:0:0:
208,242,73400,2,0,B|244:212|244:212|294:203,1,93.5000028533936,2|4,0:0|0:0,0:0:0:0:
411,334,73721,2,0,B|367:317|367:317|334:278,1,93.5000028533936,10|0,0:0|0:0,0:0:0:0:
304,81,74042,6,0,B|372:77|372:77|416:99|416:99|525:94,2,187.000005706787,14|8|4,0:0|0:0|0:0,0:0:0:0:
183,194,74844,1,6,0:0:0:0:
281,274,75004,2,0,P|334:256|369:202,1,93.5000028533936,10|2,0:0|0:0,0:0:0:0:
304,81,75325,6,0,B|261:49|261:49|278:196,1,187.000005706787,4|8,0:0|0:0,0:0:0:0:
96,226,75806,1,4,0:0:0:0:
187,361,75967,2,0,L|199:245,1,93.5000028533936,8|8,0:3|0:0,0:0:0:0:
198,248,76207,1,8,0:0:0:0:
200,228,76288,1,8,0:0:0:0:
224,55,76448,1,4,0:0:0:0:
385,134,76608,6,0,B|350:97|294:111|294:111|256:157|185:139,1,187.000005706787,14|8,0:0|0:0,0:0:0:0:
122,124,77090,1,2,0:0:0:0:
122,124,77250,2,0,L|136:234,1,93.5000028533936,6|6,0:0|0:0,0:0:0:0:
285,283,77571,1,10,0:0:0:0:
290,101,77731,1,2,0:0:0:0:
285,283,77892,6,0,B|296:213|296:213|279:175|279:175|293:85,1,187.000005706787,6|8,0:0|0:0,0:0:0:0:
375,308,78373,2,0,P|309:369|202:322,1,187.000005706787,6|4,0:0|0:0,0:0:0:0:
136,194,78854,2,0,L|151:289,1,93.5000028533936,8|0,0:0|0:0,0:0:0:0:
290,96,79175,6,0,L|284:291,1,187.000005706787,4|8,0:0|0:0,0:0:0:0:
458,185,79657,1,2,0:0:0:0:
458,185,79817,2,0,P|389:162|356:177,1,93.5000028533936,6|6,0:0|0:0,0:0:0:0:
222,230,80138,1,10,0:0:0:0:
400,249,80298,1,2,0:0:0:0:
222,230,80459,6,0,B|272:213|309:240|309:240|361:278|428:233,1,187.000005706787,6|10,0:0|0:0,0:0:0:0:
188,322,80940,2,0,P|130:255|171:149,1,187.000005706787,6|4,0:0|0:0,0:0:0:0:
178,337,81421,2,0,P|128:285|117:234,1,93.5000028533936,10|0,0:0|0:0,0:0:0:0:
300,216,81742,5,8,0:0:0:0:
300,216,82063,1,8,0:0:0:0:
274,334,82223,1,4,0:0:0:0:
208,184,82384,1,8,0:0:0:0:
181,331,82544,1,4,0:0:0:0:
122,154,82705,1,8,0:0:0:0:
85,330,82865,1,4,0:0:0:0:
260,267,83026,5,8,0:0:0:0:
62,236,83186,1,8,0:3:0:0:
208,184,83346,1,4,0:0:0:0:
85,330,83507,1,8,0:0:0:0:
150,260,83667,1,4,0:3:0:0:
150,260,83747,1,4,0:3:0:0:
150,260,83828,1,4,0:0:0:0:
348,344,83988,6,0,P|389:287|346:204,1,140.25000428009,12|0,0:0|0:0,0:0:0:0:
295,191,84309,6,0,B|349:194|349:194|404:171|404:171|496:179,1,170,14|8,0:0|0:0,0:0:0:0:
228,241,84790,2,0,P|213:201|228:142,1,85,2|4,0:0|0:0,0:0:0:0:
361,143,85111,2,0,P|378:186|363:237,1,85,6|8,0:0|0:0,0:0:0:0:
223,293,85432,6,0,B|196:254|196:254|213:97,1,170,2|2,0:0|0:0,0:0:0:0:
130,313,85913,2,0,P|110:273|125:204,1,85,10|0,0:0|0:0,0:0:0:0:
183,92,86234,2,0,B|209:131|209:131|194:277,1,170,6|8,0:0|0:0,0:0:0:0:
451,185,86876,6,0,P|396:211|297:141,1,170,6|8,0:0|0:0,0:0:0:0:
392,34,87357,2,0,L|383:148,1,85,2|4,0:0|0:0,0:0:0:0:
216,164,87678,2,0,L|225:278,1,85,6|8,0:0|0:0,0:0:0:0:
402,369,87999,6,0,L|393:255,1,85,2|4,0:0|0:0,0:0:0:0:
209,248,88320,1,2,0:0:0:0:
209,248,88480,2,0,L|218:134,1,85,10|2,0:0|0:0,0:0:0:0:
382,94,88801,2,0,P|331:72|292:80,1,85,8|8,0:3|0:0,0:0:0:0:
287,83,89042,1,8,0:0:0:0:
275,93,89122,1,8,0:0:0:0:
304,282,89282,1,8,0:0:0:0:
312,306,89362,1,8,0:0:0:0:
320,330,89443,6,0,B|322:267|322:267|331:248|331:248|322:230|322:230|324:153,1,170,14|8,0:0|0:0,0:0:0:0:
324,165,90084,2,0,P|367:186|414:176,1,85,6|4,0:0|0:0,0:0:0:0:
382,19,90405,2,0,L|375:107,1,85,10|0,0:0|0:0,0:0:0:0:
262,225,90726,6,0,L|71:212,1,170,6|8,0:0|0:0,0:0:0:0:
92,213,91207,1,0,0:0:0:0:
224,141,91368,2,0,B|183:124|183:124|129:141,1,85,6|4,0:0|0:0,0:0:0:0:
135,297,91689,2,0,B|176:314|176:314|230:297,1,85,10|0,0:0|0:0,0:0:0:0:
367,195,92009,6,0,B|399:168|399:168|380:322,1,170,6|10,0:0|0:0,0:0:0:0:
295,257,92491,1,2,0:0:0:0:
295,257,92651,2,0,P|273:208|279:160,1,85,6|4,0:0|0:0,0:0:0:0:
378,110,92972,2,0,L|365:207,1,85,10|0,0:0|0:0,0:0:0:0:
193,45,93293,5,8,0:0:0:0:
132,117,93453,1,8,0:0:0:0:
163,133,93533,1,8,0:0:0:0:
198,137,93613,1,8,0:0:0:0:
232,128,93694,1,8,0:0:0:0:
260,107,93774,1,8,0:0:0:0:
279,77,93854,1,8,0:0:0:0:
287,43,93935,2,0,L|276:-9,3,42.5,8|8|8|8,0:0|0:0|0:0|0:0,0:0:0:0:
193,45,94255,5,8,0:0:0:0:
196,91,94335,1,8,0:0:0:0:
198,137,94415,1,8,0:0:0:0:
200,183,94495,1,8,0:0:0:0:
203,229,94576,5,6,0:0:0:0:
310,204,95218,1,6,0:0:0:0:
320,94,95860,1,6,0:0:0:0:
218,50,96501,1,6,0:0:0:0:
146,134,97143,1,6,0:0:0:0:
146,134,97464,5,8,0:3:0:0:
218,50,97624,1,8,0:3:0:0:
320,94,97785,1,4,0:3:0:0:
310,204,97945,1,4,0:3:0:0:
203,229,98106,1,4,0:3:0:0:
146,134,98266,1,8,0:0:0:0:
320,94,98427,5,6,0:0:0:0:
256,192,98507,12,0,104844,0:0:0:0:
