osu file format v14

[General]
AudioFilename: audio.mp3
AudioLeadIn: 0
PreviewTime: 64075
Countdown: 0
SampleSet: Normal
StackLeniency: 0.7
Mode: 1
LetterboxInBreaks: 0
WidescreenStoryboard: 0

[Editor]
DistanceSpacing: 1.4
BeatDivisor: 4
GridSize: 4
TimelineZoom: 2.1

[Metadata]
Title:Love*Magic ! ~Wellcome to Minoir!!~
TitleUnicode:Love*Magic!~Wellcome to Minoir!!~
Artist:solfa feat.Tamura Yukari
ArtistUnicode:solfa feat.榊原ゆい
Creator:Kin
Version:Oni
Source:姫恋*シュクレーヌ!
Tags:Himekoi * Sucreine! Princess Sugar Amagasaki Urara 天ヶ咲 麗 Hashizaki Tooru 橋咲 透
BeatmapID:1221377
BeatmapSetID:576725

[Difficulty]
HPDrainRate:5
CircleSize:4
OverallDifficulty:5.5
ApproachRate:5
SliderMultiplier:1.4
SliderTickRate:1

[Events]
//Background and Video events
0,0,"img115_cg116a.png",0,0
//Break Periods
//Storyboard Layer 0 (Background)
//Storyboard Layer 1 (Fail)
//Storyboard Layer 2 (Pass)
//Storyboard Layer 3 (Foreground)
//Storyboard Sound Samples

[TimingPoints]
932,634.920634920635,4,1,0,10,1,0
11940,291.26213592233,4,1,0,80,1,0
32037,-114.942528735632,4,1,0,80,0,0
34075,-100,4,1,0,80,0,0
50677,-114.942528735632,4,1,0,80,0,0
51406,-133.333333333333,4,1,0,80,0,0
53007,-114.942528735632,4,1,0,80,0,0
53590,-100,4,1,0,80,0,0
64367,-100,4,1,0,80,0,1
82716,-114.942528735632,4,1,0,80,0,1
83007,-133.333333333333,4,1,0,80,0,1
87668,-114.942528735632,4,1,0,80,0,1
88250,-100,4,1,0,80,0,1
89998,-100,4,1,0,80,0,0

[HitObjects]
264,180,932,5,8,0:0:0:0:
264,180,1566,1,8,0:0:0:0:
264,180,1778,1,8,0:0:0:0:
264,180,2201,1,0,0:0:0:0:
264,180,2625,1,0,0:0:0:0:
264,180,3048,1,8,0:0:0:0:
264,180,3471,1,8,0:0:0:0:
416,56,4106,1,0,0:0:0:0:
384,80,4318,1,8,0:0:0:0:
288,164,4741,1,8,0:0:0:0:
508,24,5588,1,0,0:0:0:0:
400,92,6011,1,8,0:0:0:0:
236,192,6646,1,8,0:0:0:0:
288,160,6857,1,8,0:0:0:0:
396,100,7281,1,8,0:0:0:0:
284,164,7704,1,0,0:0:0:0:
380,100,8127,1,0,0:0:0:0:
284,164,8551,1,8,0:0:0:0:
88,156,9185,1,0,0:0:0:0:
168,160,9397,1,8,0:0:0:0:
296,140,9820,1,8,0:0:0:0:
320,168,11940,1,8,0:0:0:0:
320,168,12012,1,8,0:0:0:0:
368,164,12085,1,0,0:0:0:0:
416,156,12158,1,0,0:0:0:0:
320,168,12231,1,8,0:0:0:0:
416,180,12376,1,8,0:0:0:0:
416,180,12449,1,8,0:0:0:0:
416,180,12522,1,0,0:0:0:0:
416,180,12595,1,0,0:0:0:0:
416,180,12668,1,0,0:0:0:0:
416,180,12740,1,0,0:0:0:0:
416,180,12813,1,8,0:0:0:0:
276,44,13105,1,4,0:0:0:0:
360,96,13250,1,0,0:0:0:0:
416,180,13396,1,8,0:0:0:0:
456,92,13541,1,8,0:0:0:0:
384,160,13687,1,0,0:0:0:0:
336,160,13760,1,0,0:0:0:0:
272,164,13833,1,0,0:0:0:0:
356,216,13978,1,8,0:0:0:0:
260,224,14124,1,0,0:0:0:0:
212,228,14197,1,0,0:0:0:0:
164,232,14270,1,8,0:0:0:0:
256,196,14415,1,8,0:0:0:0:
348,160,14561,1,8,0:0:0:0:
444,152,14706,1,0,0:0:0:0:
436,144,14998,1,8,0:0:0:0:
396,172,15071,1,8,0:0:0:0:
348,160,15143,1,0,0:0:0:0:
260,204,15289,1,8,0:0:0:0:
356,192,15435,1,0,0:0:0:0:
452,184,15580,1,0,0:0:0:0:
460,84,15726,1,8,0:0:0:0:
364,68,15872,1,0,0:0:0:0:
256,124,16163,1,0,0:0:0:0:
352,136,16308,1,8,0:0:0:0:
448,144,16454,1,0,0:0:0:0:
352,160,16600,1,0,0:0:0:0:
388,252,16745,1,8,0:0:0:0:
456,180,16891,1,8,0:0:0:0:
360,160,17037,1,8,0:0:0:0:
312,152,17109,1,8,0:0:0:0:
264,140,17182,1,0,0:0:0:0:
216,152,17255,1,0,0:0:0:0:
264,160,17328,1,8,0:0:0:0:
360,144,17473,1,8,0:0:0:0:
312,152,17619,1,8,0:0:0:0:
412,144,17765,1,4,0:0:0:0:
412,144,18056,1,8,0:0:0:0:
320,180,18202,1,0,0:0:0:0:
276,200,18274,1,0,0:0:0:0:
276,200,18347,1,0,0:0:0:0:
368,164,18493,1,8,0:0:0:0:
464,152,18639,1,8,0:0:0:0:
368,176,18784,1,0,0:0:0:0:
464,148,18930,1,8,0:0:0:0:
424,176,19003,1,8,0:0:0:0:
372,176,19075,1,0,0:0:0:0:
420,160,19148,1,0,0:0:0:0:
464,152,19221,1,8,0:0:0:0:
432,244,19367,1,0,0:0:0:0:
240,212,19658,1,0,0:0:0:0:
424,176,19804,1,8,0:0:0:0:
420,160,19876,1,8,0:0:0:0:
464,148,19949,1,0,0:0:0:0:
420,160,20095,1,8,0:0:0:0:
480,164,20240,1,0,0:0:0:0:
420,160,20386,1,8,0:0:0:0:
420,160,20532,1,8,0:0:0:0:
372,152,20605,1,8,0:0:0:0:
324,148,20677,1,8,0:0:0:0:
228,164,20823,1,0,0:0:0:0:
328,172,20969,1,8,0:0:0:0:
452,192,21260,1,8,0:0:0:0:
452,192,21333,1,8,0:0:0:0:
492,164,21406,1,0,0:0:0:0:
492,164,21478,1,0,0:0:0:0:
452,192,21551,1,8,0:0:0:0:
352,188,21697,1,0,0:0:0:0:
452,192,21842,1,8,0:0:0:0:
492,164,21988,1,0,0:0:0:0:
492,164,22061,1,0,0:0:0:0:
452,192,22134,1,8,0:0:0:0:
360,164,22279,1,8,0:0:0:0:
448,120,22425,1,4,0:0:0:0:
448,120,22862,1,4,0:0:0:0:
448,120,23299,1,4,0:0:0:0:
260,168,23590,1,8,0:0:0:0:
356,156,23736,1,4,0:0:0:0:
356,156,24755,1,4,0:0:0:0:
260,172,24901,1,0,0:0:0:0:
168,100,25046,1,8,0:0:0:0:
152,196,25192,1,0,0:0:0:0:
144,244,25265,1,0,0:0:0:0:
144,296,25338,1,0,0:0:0:0:
152,200,25483,1,0,0:0:0:0:
248,184,25629,1,8,0:0:0:0:
344,172,25774,1,0,0:0:0:0:
260,120,25920,1,0,0:0:0:0:
456,112,26211,1,8,0:0:0:0:
368,156,26357,1,8,0:0:0:0:
324,176,26430,1,8,0:0:0:0:
324,176,26503,1,0,0:0:0:0:
228,176,26648,1,0,0:0:0:0:
320,208,26794,1,8,0:0:0:0:
416,180,26939,1,8,0:0:0:0:
380,88,27085,1,0,0:0:0:0:
432,148,27376,1,8,0:0:0:0:
336,172,27522,1,0,0:0:0:0:
336,172,27668,1,0,0:0:0:0:
336,172,27740,1,0,0:0:0:0:
336,172,27813,1,0,0:0:0:0:
416,180,27959,1,8,0:0:0:0:
416,180,28105,1,8,0:0:0:0:
388,184,28177,1,8,0:0:0:0:
348,156,28250,1,0,0:0:0:0:
264,108,28396,1,0,0:0:0:0:
360,104,28541,1,8,0:0:0:0:
272,148,28687,1,8,0:0:0:0:
276,248,28833,1,0,0:0:0:0:
284,152,28978,1,0,0:0:0:0:
300,200,29051,1,0,0:0:0:0:
304,152,29124,1,8,0:0:0:0:
384,212,29270,1,8,0:0:0:0:
112,124,29415,1,4,0:0:0:0:
304,157,29706,1,8,0:0:0:0:
364,234,29852,1,0,0:0:0:0:
330,198,29925,1,0,0:0:0:0:
330,198,29998,1,8,0:0:0:0:
330,198,30143,1,8,0:0:0:0:
330,198,30289,1,0,0:0:0:0:
231,197,30435,1,8,0:0:0:0:
264,232,30580,1,0,0:0:0:0:
180,180,30726,1,0,0:0:0:0:
278,179,30872,1,8,0:0:0:0:
375,179,31017,1,8,0:0:0:0:
472,165,31163,1,0,0:0:0:0:
374,161,31308,1,0,0:0:0:0:
337,193,31381,1,0,0:0:0:0:
312,84,31454,1,8,0:0:0:0:
392,139,31600,1,8,0:0:0:0:
233,263,31745,1,4,0:0:0:0:
286,125,32037,1,8,0:0:0:0:
286,125,32182,1,8,0:0:0:0:
286,125,32473,1,8,0:0:0:0:
286,125,32619,1,8,0:0:0:0:
286,125,32765,1,8,0:0:0:0:
286,125,33056,1,8,0:0:0:0:
286,125,33202,1,8,0:0:0:0:
286,125,33347,1,8,0:0:0:0:
286,125,33639,1,8,0:0:0:0:
286,125,33784,1,8,0:0:0:0:
447,235,34075,1,4,0:0:0:0:
326,79,34367,1,8,0:0:0:0:
400,142,34512,1,0,0:0:0:0:
400,142,34658,1,0,0:0:0:0:
400,142,34731,1,0,0:0:0:0:
400,142,34804,1,0,0:0:0:0:
400,142,34949,1,8,0:0:0:0:
408,239,35095,1,8,0:0:0:0:
447,149,35240,1,0,0:0:0:0:
400,142,35532,1,8,0:0:0:0:
302,148,35677,1,8,0:0:0:0:
394,180,35823,1,0,0:0:0:0:
347,163,35896,1,0,0:0:0:0:
347,163,35969,1,0,0:0:0:0:
379,70,36114,1,8,0:0:0:0:
229,198,36406,1,0,0:0:0:0:
303,135,36551,1,0,0:0:0:0:
303,135,36624,1,0,0:0:0:0:
351,139,36697,1,8,0:0:0:0:
442,173,36842,1,8,0:0:0:0:
343,178,36988,1,0,0:0:0:0:
276,98,37134,1,8,0:0:0:0:
152,160,37206,1,8,0:0:0:0:
202,161,37279,1,0,0:0:0:0:
299,150,37425,1,8,0:0:0:0:
211,193,37571,1,0,0:0:0:0:
307,178,37716,1,8,0:0:0:0:
403,161,37862,1,8,0:0:0:0:
351,139,38007,1,8,0:0:0:0:
441,177,38153,1,0,0:0:0:0:
355,127,38299,1,0,0:0:0:0:
399,147,38444,1,8,0:0:0:0:
205,179,38736,1,0,0:0:0:0:
302,189,38881,1,0,0:0:0:0:
189,160,39027,1,8,0:0:0:0:
285,169,39173,1,0,0:0:0:0:
334,175,39245,1,0,0:0:0:0:
285,169,39318,1,8,0:0:0:0:
382,177,39464,1,0,0:0:0:0:
464,124,39609,1,0,0:0:0:0:
388,186,39755,1,8,0:0:0:0:
305,132,39901,1,0,0:0:0:0:
345,158,39973,1,0,0:0:0:0:
345,158,40046,1,0,0:0:0:0:
420,94,40192,1,8,0:0:0:0:
354,167,40338,1,0,0:0:0:0:
387,132,40410,1,0,0:0:0:0:
345,158,40483,1,8,0:0:0:0:
387,245,40629,1,0,0:0:0:0:
349,134,40774,1,8,0:0:0:0:
345,158,40920,1,8,0:0:0:0:
438,129,41066,1,0,0:0:0:0:
301,269,41357,1,8,0:0:0:0:
369,198,41503,1,0,0:0:0:0:
402,163,41575,1,0,0:0:0:0:
436,127,41648,1,0,0:0:0:0:
485,212,41794,1,8,0:0:0:0:
436,127,41939,1,8,0:0:0:0:
500,155,42085,1,0,0:0:0:0:
305,177,42376,1,0,0:0:0:0:
402,163,42522,1,8,0:0:0:0:
402,163,42668,1,8,0:0:0:0:
402,163,42740,1,8,0:0:0:0:
449,150,42813,1,0,0:0:0:0:
449,150,42959,1,0,0:0:0:0:
449,150,43105,1,8,0:0:0:0:
449,150,43250,1,8,0:0:0:0:
402,163,43396,1,0,0:0:0:0:
449,150,43687,1,8,0:0:0:0:
350,149,43833,1,0,0:0:0:0:
399,146,43906,1,0,0:0:0:0:
343,246,43978,1,0,0:0:0:0:
350,149,44124,1,8,0:0:0:0:
350,149,44270,1,8,0:0:0:0:
447,143,44415,1,0,0:0:0:0:
343,246,44706,1,0,0:0:0:0:
447,143,44852,1,8,0:0:0:0:
349,150,44998,1,0,0:0:0:0:
300,154,45071,1,0,0:0:0:0:
251,159,45143,1,8,0:0:0:0:
447,143,45289,1,8,0:0:0:0:
447,143,45435,1,0,0:0:0:0:
400,158,45580,1,8,0:0:0:0:
346,75,45726,1,0,0:0:0:0:
349,150,46017,1,8,0:0:0:0:
447,150,46163,1,0,0:0:0:0:
496,150,46236,1,0,0:0:0:0:
496,150,46308,1,0,0:0:0:0:
400,158,46454,1,8,0:0:0:0:
299,152,46600,1,8,0:0:0:0:
396,152,46745,1,0,0:0:0:0:
396,152,47037,1,0,0:0:0:0:
390,249,47182,1,8,0:0:0:0:
376,151,47328,1,0,0:0:0:0:
382,199,47401,1,0,0:0:0:0:
393,151,47473,1,8,0:0:0:0:
414,55,47619,1,0,0:0:0:0:
337,117,47765,1,8,0:0:0:0:
399,191,47910,1,8,0:0:0:0:
301,176,48056,1,0,0:0:0:0:
376,151,48347,1,8,0:0:0:0:
376,151,48493,1,8,0:0:0:0:
283,116,48639,1,0,0:0:0:0:
283,116,48711,1,0,0:0:0:0:
283,116,48784,1,0,0:0:0:0:
380,126,48930,1,8,0:0:0:0:
282,122,49075,1,0,0:0:0:0:
283,116,49367,1,0,0:0:0:0:
353,183,49512,1,8,0:0:0:0:
283,116,49658,1,0,0:0:0:0:
283,116,49804,1,0,0:0:0:0:
282,122,49949,1,0,0:0:0:0:
282,122,50022,1,0,0:0:0:0:
379,132,50095,1,8,0:0:0:0:
467,172,50240,1,8,0:0:0:0:
369,157,50386,1,4,0:0:0:0:
164,143,50677,1,0,0:0:0:0:
101,219,50823,1,0,0:0:0:0:
395,160,50969,1,8,0:0:0:0:
101,169,51260,1,0,0:0:0:0:
198,166,51551,1,4,0:0:0:0:
295,152,51697,1,8,0:0:0:0:
391,192,51842,1,0,0:0:0:0:
342,184,51915,1,0,0:0:0:0:
465,127,51988,1,8,0:0:0:0:
377,172,52134,1,8,0:0:0:0:
473,155,52279,1,0,0:0:0:0:
290,81,52571,1,8,0:0:0:0:
202,38,52716,1,0,0:0:0:0:
326,117,53007,1,0,0:0:0:0:
411,164,53153,1,0,0:0:0:0:
323,118,53299,1,8,0:0:0:0:
145,200,53590,1,0,0:0:0:0:
338,172,53736,1,0,0:0:0:0:
338,172,53881,1,0,0:0:0:0:
419,117,54027,1,8,0:0:0:0:
228,161,54318,1,0,0:0:0:0:
325,152,54464,1,8,0:0:0:0:
373,148,54561,1,8,0:0:0:0:
228,161,54658,1,0,0:0:0:0:
292,164,54755,1,0,0:0:0:0:
419,117,54852,1,8,0:0:0:0:
420,139,55046,1,4,0:0:0:0:
471,328,55338,1,8,0:0:0:0:
440,235,55483,1,8,0:0:0:0:
473,142,55629,1,0,0:0:0:0:
420,139,55920,1,8,0:0:0:0:
321,136,56066,1,0,0:0:0:0:
224,148,56211,1,0,0:0:0:0:
320,129,56357,1,8,0:0:0:0:
224,148,56648,1,0,0:0:0:0:
320,129,56794,1,8,0:0:0:0:
320,129,56939,1,8,0:0:0:0:
320,129,57012,1,8,0:0:0:0:
365,147,57085,1,0,0:0:0:0:
320,129,57231,1,8,0:0:0:0:
296,223,57376,1,0,0:0:0:0:
492,220,57668,1,8,0:0:0:0:
458,128,57813,1,8,0:0:0:0:
458,128,57959,1,0,0:0:0:0:
275,56,58250,1,8,0:0:0:0:
452,138,58541,1,0,0:0:0:0:
428,104,58687,1,8,0:0:0:0:
452,138,58978,1,0,0:0:0:0:
428,104,59124,1,8,0:0:0:0:
428,104,59415,1,8,0:0:0:0:
233,85,59706,1,4,0:0:0:0:
407,97,62037,1,14,0:0:0:0:
223,153,63202,1,0,0:0:0:0:
320,145,63347,1,8,0:0:0:0:
320,145,63493,1,0,0:0:0:0:
320,145,63566,1,0,0:0:0:0:
320,145,63639,1,8,0:0:0:0:
234,191,63784,1,0,0:0:0:0:
328,165,63930,1,8,0:0:0:0:
424,148,64075,1,8,0:0:0:0:
424,148,64148,1,8,0:0:0:0:
424,148,64221,1,8,0:0:0:0:
424,148,64294,1,8,0:0:0:0:
424,148,64367,1,0,0:0:0:0:
272,271,64658,1,8,0:0:0:0:
179,236,64804,1,0,0:0:0:0:
133,219,64876,1,0,0:0:0:0:
86,201,64949,1,0,0:0:0:0:
183,193,65095,1,8,0:0:0:0:
277,170,65240,1,8,0:0:0:0:
424,148,65386,1,0,0:0:0:0:
317,312,65677,1,0,0:0:0:0:
372,230,65823,1,8,0:0:0:0:
457,181,65969,1,8,0:0:0:0:
458,217,66041,1,8,0:0:0:0:
410,203,66114,1,0,0:0:0:0:
294,164,66260,1,0,0:0:0:0:
390,175,66406,1,8,0:0:0:0:
320,106,66551,1,8,0:0:0:0:
310,203,66697,1,0,0:0:0:0:
177,59,66988,1,8,0:0:0:0:
243,131,67134,1,8,0:0:0:0:
340,123,67279,1,0,0:0:0:0:
291,127,67352,1,0,0:0:0:0:
291,127,67425,1,0,0:0:0:0:
340,123,67571,1,8,0:0:0:0:
257,175,67716,1,0,0:0:0:0:
286,368,68007,1,0,0:0:0:0:
315,274,68153,1,8,0:0:0:0:
348,181,68299,1,0,0:0:0:0:
340,123,68372,1,8,0:0:0:0:
382,146,68444,1,0,0:0:0:0:
382,146,68590,1,0,0:0:0:0:
382,146,68736,1,8,0:0:0:0:
382,146,68881,1,8,0:0:0:0:
324,225,69027,1,4,0:0:0:0:
340,123,69318,1,8,0:0:0:0:
340,123,69464,1,8,0:0:0:0:
340,123,69609,1,0,0:0:0:0:
244,146,69755,1,0,0:0:0:0:
244,146,69828,1,0,0:0:0:0:
292,138,69901,1,8,0:0:0:0:
340,123,70046,1,0,0:0:0:0:
340,123,70338,1,0,0:0:0:0:
282,202,70483,1,8,0:0:0:0:
359,141,70629,1,8,0:0:0:0:
321,172,70702,1,8,0:0:0:0:
321,172,70774,1,0,0:0:0:0:
321,172,70847,1,0,0:0:0:0:
321,172,70920,1,0,0:0:0:0:
340,123,71066,1,8,0:0:0:0:
412,188,71211,1,8,0:0:0:0:
316,165,71357,1,0,0:0:0:0:
340,123,71648,1,8,0:0:0:0:
340,123,71794,1,8,0:0:0:0:
340,123,71939,1,0,0:0:0:0:
291,130,72012,1,0,0:0:0:0:
242,137,72085,1,0,0:0:0:0:
242,137,72231,1,8,0:0:0:0:
333,171,72376,1,8,0:0:0:0:
160,77,72668,1,0,0:0:0:0:
63,54,72813,1,8,0:0:0:0:
242,137,72959,1,0,0:0:0:0:
242,137,73032,1,0,0:0:0:0:
291,135,73105,1,8,0:0:0:0:
253,224,73250,1,0,0:0:0:0:
291,135,73396,1,8,0:0:0:0:
312,230,73541,1,8,0:0:0:0:
286,135,73687,1,4,0:0:0:0:
286,135,73978,1,8,0:0:0:0:
383,126,74124,1,0,0:0:0:0:
291,135,74270,1,0,0:0:0:0:
291,135,74342,1,0,0:0:0:0:
291,135,74415,1,0,0:0:0:0:
386,158,74561,1,8,0:0:0:0:
286,135,74706,1,0,0:0:0:0:
310,329,74998,1,0,0:0:0:0:
320,232,75143,1,8,0:0:0:0:
345,137,75289,1,8,0:0:0:0:
430,88,75435,1,0,0:0:0:0:
350,144,75580,1,0,0:0:0:0:
390,115,75653,1,0,0:0:0:0:
348,98,75726,1,8,0:0:0:0:
407,176,75872,1,8,0:0:0:0:
405,78,76017,1,0,0:0:0:0:
352,161,76163,1,0,0:0:0:0:
407,176,76308,1,8,0:0:0:0:
405,78,76453,1,8,0:0:0:0:
352,161,76600,1,0,0:0:0:0:
315,193,76673,1,0,0:0:0:0:
352,161,76745,1,8,0:0:0:0:
341,258,76891,1,8,0:0:0:0:
369,163,77037,1,0,0:0:0:0:
183,99,77328,1,0,0:0:0:0:
278,117,77473,1,14,0:0:0:0:
345,188,77619,1,0,0:0:0:0:
345,188,77765,1,0,0:0:0:0:
345,188,77838,1,0,0:0:0:0:
345,188,77910,1,0,0:0:0:0:
442,199,78056,1,8,0:0:0:0:
345,215,78202,1,8,0:0:0:0:
281,140,78347,1,4,0:0:0:0:
477,136,78639,1,8,0:0:0:0:
379,143,78784,1,8,0:0:0:0:
379,143,78930,1,0,0:0:0:0:
379,143,79003,1,0,0:0:0:0:
379,143,79075,1,0,0:0:0:0:
311,214,79221,1,8,0:0:0:0:
292,117,79367,1,0,0:0:0:0:
375,167,79512,1,8,0:0:0:0:
328,182,79585,1,8,0:0:0:0:
377,183,79658,1,0,0:0:0:0:
438,106,79804,1,8,0:0:0:0:
404,197,79949,1,8,0:0:0:0:
306,187,80095,1,0,0:0:0:0:
306,187,80240,1,0,0:0:0:0:
273,168,80313,1,0,0:0:0:0:
375,167,80386,1,8,0:0:0:0:
276,163,80532,1,8,0:0:0:0:
373,156,80677,1,0,0:0:0:0:
351,113,80969,1,8,0:0:0:0:
254,101,81114,1,0,0:0:0:0:
155,96,81187,1,0,0:0:0:0:
155,96,81260,1,0,0:0:0:0:
155,96,81406,1,0,0:0:0:0:
244,134,81551,1,8,0:0:0:0:
435,175,81697,1,0,0:0:0:0:
387,187,81770,1,0,0:0:0:0:
435,175,81842,1,8,0:0:0:0:
341,145,81988,1,0,0:0:0:0:
341,145,82134,1,8,0:0:0:0:
245,164,82279,1,8,0:0:0:0:
228,260,82425,1,0,0:0:0:0:
347,104,82716,1,8,0:0:0:0:
347,104,83007,1,4,0:0:0:0:
446,152,83444,1,0,0:0:0:0:
446,152,83590,1,8,0:0:0:0:
250,166,83881,1,0,0:0:0:0:
152,176,84027,1,0,0:0:0:0:
9,167,84318,1,0,0:0:0:0:
107,166,84464,1,0,0:0:0:0:
187,165,84609,1,0,0:0:0:0:
284,150,84755,1,8,0:0:0:0:
341,96,85338,1,0,0:0:0:0:
125,295,85774,1,0,0:0:0:0:
211,248,85920,1,8,0:0:0:0:
350,110,86211,1,8,0:0:0:0:
283,182,86357,1,0,0:0:0:0:
439,7,86648,1,0,0:0:0:0:
348,46,86794,1,0,0:0:0:0:
293,234,87085,1,8,0:0:0:0:
320,139,87231,1,8,0:0:0:0:
243,78,87376,1,0,0:0:0:0:
431,134,87668,1,4,0:0:0:0:
136,138,88250,1,8,0:0:0:0:
331,153,88541,1,0,0:0:0:0:
421,207,88687,1,0,0:0:0:0:
441,110,88833,1,8,0:0:0:0:
404,200,88978,1,0,0:0:0:0:
217,138,89270,1,0,0:0:0:0:
314,140,89415,1,8,0:0:0:0:
404,200,89561,1,0,0:0:0:0:
404,200,89634,1,0,0:0:0:0:
379,157,89706,1,8,0:0:0:0:
379,157,89998,1,0,0:0:0:0:
379,157,90143,1,14,0:0:0:0:
379,157,90289,1,14,0:0:0:0:
379,157,90580,1,14,0:0:0:0:
379,157,90872,1,0,0:0:0:0:
379,157,91017,1,14,0:0:0:0:
379,157,91163,1,14,0:0:0:0:
379,157,91454,1,14,0:0:0:0:
198,80,91745,1,8,0:0:0:0:
355,146,92037,1,8,0:0:0:0:
204,88,92328,1,4,0:0:0:0:
298,113,92473,1,14,0:0:0:0:
298,113,92619,1,14,0:0:0:0:
298,113,92910,1,14,0:0:0:0:
114,182,93202,1,0,0:0:0:0:
298,113,93347,1,14,0:0:0:0:
488,162,93639,1,4,0:0:0:0:
300,219,93930,1,0,0:0:0:0:
354,137,94075,1,14,0:0:0:0:
301,84,94367,1,8,0:0:0:0:
131,182,94658,1,4,0:0:0:0:
228,193,94804,1,0,0:0:0:0:
276,198,94876,1,0,0:0:0:0:
298,154,94949,1,8,0:0:0:0:
203,179,95095,1,0,0:0:0:0:
296,150,95240,1,0,0:0:0:0:
343,136,95313,1,0,0:0:0:0:
380,104,95386,1,8,0:0:0:0:
282,89,95532,1,8,0:0:0:0:
376,113,95677,1,0,0:0:0:0:
343,136,95823,1,8,0:0:0:0:
343,136,95969,1,8,0:0:0:0:
343,136,96114,1,0,0:0:0:0:
439,117,96260,1,8,0:0:0:0:
390,306,96551,1,8,0:0:0:0:
343,136,96697,1,0,0:0:0:0:
343,136,96770,1,0,0:0:0:0:
343,136,96842,1,0,0:0:0:0:
343,136,96988,1,8,0:0:0:0:
441,130,97134,1,0,0:0:0:0:
393,121,97206,1,0,0:0:0:0:
344,119,97279,1,8,0:0:0:0:
427,170,97425,1,0,0:0:0:0:
254,77,97716,1,0,0:0:0:0:
343,136,97862,1,8,0:0:0:0:
438,157,98007,1,0,0:0:0:0:
343,136,98080,1,0,0:0:0:0:
342,133,98153,1,0,0:0:0:0:
344,119,98299,1,8,0:0:0:0:
343,136,98444,1,14,0:0:0:0:
437,107,98590,1,0,0:0:0:0:
259,188,98881,1,0,0:0:0:0:
342,133,99027,1,8,0:0:0:0:
342,133,99173,1,8,0:0:0:0:
344,119,99318,1,4,0:0:0:0:
430,165,99464,1,8,0:0:0:0:
383,148,99537,1,8,0:0:0:0:
426,168,99609,1,8,0:0:0:0:
328,176,99755,1,0,0:0:0:0:
133,199,100046,1,0,0:0:0:0:
383,148,100192,1,8,0:0:0:0:
344,119,100338,1,0,0:0:0:0:
344,119,100483,1,8,0:0:0:0:
383,148,100629,1,0,0:0:0:0:
383,148,100702,1,0,0:0:0:0:
282,304,100774,1,8,0:0:0:0:
344,227,100920,1,8,0:0:0:0:
407,41,101211,1,0,0:0:0:0:
407,139,101357,1,8,0:0:0:0:
407,139,101503,1,8,0:0:0:0:
407,139,101575,1,8,0:0:0:0:
368,169,101648,1,0,0:0:0:0:
368,169,101794,1,0,0:0:0:0:
462,146,101939,1,8,0:0:0:0:
363,146,102085,1,0,0:0:0:0:
441,170,102376,1,8,0:0:0:0:
441,170,102522,1,8,0:0:0:0:
346,195,102668,1,0,0:0:0:0:
429,144,102813,1,8,0:0:0:0:
387,170,102886,1,8,0:0:0:0:
363,146,102959,1,0,0:0:0:0:
387,170,103032,1,0,0:0:0:0:
387,170,103105,1,8,0:0:0:0:
363,146,103250,1,8,0:0:0:0:
363,146,103396,1,8,0:0:0:0:
273,184,103541,1,0,0:0:0:0:
363,146,103687,1,8,0:0:0:0:
363,146,103833,1,8,0:0:0:0:
460,149,103978,1,4,0:0:0:0:
166,162,104415,1,0,0:0:0:0:
361,154,104706,1,8,0:0:0:0:
312,162,104779,1,8,0:0:0:0:
353,187,104852,1,0,0:0:0:0:
445,153,104998,1,8,0:0:0:0:
349,174,105143,1,8,0:0:0:0:
271,113,105289,1,4,0:0:0:0:
86,177,105580,1,0,0:0:0:0:
86,177,105653,1,0,0:0:0:0:
134,172,105726,1,8,0:0:0:0:
230,192,105872,1,0,0:0:0:0:
333,214,106017,1,0,0:0:0:0:
333,214,106163,1,0,0:0:0:0:
405,148,106308,1,14,0:0:0:0:
112,120,106745,1,4,0:0:0:0:
405,148,107182,1,14,0:0:0:0:
209,151,107473,1,0,0:0:0:0:
405,148,107619,1,14,0:0:0:0:
