osu file format v14

[General]
AudioFilename: audio.mp3
AudioLeadIn: 0
PreviewTime: 64075
Countdown: 0
SampleSet: Normal
StackLeniency: 0.7
Mode: 1
LetterboxInBreaks: 0
WidescreenStoryboard: 0

[Editor]
DistanceSpacing: 1.4
BeatDivisor: 4
GridSize: 4
TimelineZoom: 2.1

[Metadata]
Title:Love*Magic ! ~Wellcome to Minoir!!~
TitleUnicode:Love*Magic!~Wellcome to Minoir!!~
Artist:solfa feat.Tamura Yukari
ArtistUnicode:solfa feat.榊原ゆい
Creator:Kin
Version:Muzukashii
Source:姫恋*シュクレーヌ!
Tags:Himekoi * Sucreine! Princess Sugar Amagasaki Urara 天ヶ咲 麗 Hashizaki Tooru 橋咲 透
BeatmapID:1221376
BeatmapSetID:576725

[Difficulty]
HPDrainRate:5
CircleSize:4
OverallDifficulty:5
ApproachRate:5
SliderMultiplier:1.4
SliderTickRate:1

[Events]
//Background and Video events
0,0,"img115_cg116a.png",0,0
//Break Periods
//Storyboard Layer 0 (Background)
//Storyboard Layer 1 (Fail)
//Storyboard Layer 2 (Pass)
//Storyboard Layer 3 (Foreground)
//Storyboard Sound Samples

[TimingPoints]
932,634.920634920635,4,1,0,10,1,0
11940,291.26213592233,4,1,0,80,1,0
64367,-100,4,1,0,80,0,1
89998,-100,4,1,0,80,0,0

[HitObjects]
453,149,932,5,8,0:0:0:0:
453,149,1566,1,8,0:0:0:0:
453,149,1778,1,8,0:0:0:0:
453,149,2201,1,0,0:0:0:0:
453,149,2625,1,0,0:0:0:0:
453,149,3048,1,8,0:0:0:0:
453,149,3471,1,8,0:0:0:0:
453,149,4106,1,8,0:0:0:0:
453,149,4318,1,8,0:0:0:0:
453,149,4741,1,8,0:0:0:0:
453,149,5588,1,0,0:0:0:0:
453,149,6011,1,8,0:0:0:0:
453,149,6646,1,8,0:0:0:0:
453,149,6858,1,8,0:0:0:0:
370,253,7281,1,8,0:0:0:0:
453,157,7704,1,0,0:0:0:0:
361,255,8127,1,0,0:0:0:0:
446,166,8551,1,8,0:0:0:0:
313,305,9185,1,8,0:0:0:0:
345,270,9397,1,8,0:0:0:0:
437,177,9820,1,8,0:0:0:0:
475,181,11940,1,0,0:0:0:0:
475,181,12012,1,0,0:0:0:0:
475,181,12085,1,0,0:0:0:0:
376,186,12231,1,0,0:0:0:0:
475,181,12376,1,8,0:0:0:0:
472,124,12449,1,8,0:0:0:0:
504,88,12522,1,8,0:0:0:0:
376,177,12668,1,0,0:0:0:0:
416,88,12813,1,14,0:0:0:0:
223,129,13105,1,4,0:0:0:0:
217,226,13250,1,0,0:0:0:0:
306,185,13396,1,8,0:0:0:0:
394,143,13541,1,0,0:0:0:0:
212,66,13833,1,0,0:0:0:0:
305,93,13978,1,8,0:0:0:0:
391,140,14124,1,0,0:0:0:0:
345,120,14270,1,0,0:0:0:0:
438,147,14415,1,8,0:0:0:0:
394,143,14561,1,8,0:0:0:0:
490,158,14706,1,0,0:0:0:0:
294,143,14998,1,8,0:0:0:0:
386,174,15289,1,0,0:0:0:0:
386,174,15435,1,0,0:0:0:0:
326,96,15580,1,8,0:0:0:0:
401,159,15726,1,0,0:0:0:0:
484,210,15872,1,8,0:0:0:0:
290,183,16163,1,8,0:0:0:0:
386,196,16308,1,8,0:0:0:0:
297,153,16454,1,0,0:0:0:0:
190,202,16745,1,0,0:0:0:0:
281,166,16891,1,8,0:0:0:0:
183,180,17037,1,8,0:0:0:0:
277,155,17182,1,0,0:0:0:0:
277,155,17328,1,0,0:0:0:0:
374,160,17473,1,8,0:0:0:0:
221,36,17765,1,4,0:0:0:0:
390,63,17910,1,0,0:0:0:0:
395,124,18056,1,8,0:0:0:0:
470,186,18202,1,0,0:0:0:0:
282,130,18493,1,8,0:0:0:0:
297,227,18639,1,8,0:0:0:0:
323,133,18784,1,0,0:0:0:0:
349,38,18930,1,0,0:0:0:0:
325,132,19075,1,0,0:0:0:0:
325,132,19221,1,8,0:0:0:0:
282,130,19367,1,8,0:0:0:0:
295,93,19658,1,8,0:0:0:0:
367,159,19949,1,0,0:0:0:0:
367,159,20095,1,0,0:0:0:0:
367,159,20240,1,8,0:0:0:0:
367,159,20386,1,8,0:0:0:0:
453,111,20532,1,0,0:0:0:0:
262,155,20823,1,8,0:0:0:0:
357,132,20969,1,8,0:0:0:0:
357,132,21114,1,0,0:0:0:0:
367,159,21260,1,8,0:0:0:0:
465,153,21406,1,8,0:0:0:0:
465,153,21478,1,8,0:0:0:0:
465,153,21551,1,8,0:0:0:0:
368,134,21697,1,0,0:0:0:0:
465,131,21842,1,8,0:0:0:0:
268,132,22134,1,8,0:0:0:0:
354,178,22279,1,8,0:0:0:0:
368,134,22425,1,4,0:0:0:0:
104,66,22862,1,4,0:0:0:0:
386,138,23299,1,4,0:0:0:0:
192,166,23590,1,8,0:0:0:0:
283,131,23736,1,4,0:0:0:0:
163,166,24755,1,4,0:0:0:0:
340,83,25046,1,8,0:0:0:0:
250,123,25338,1,0,0:0:0:0:
250,123,25483,1,0,0:0:0:0:
344,148,25629,1,8,0:0:0:0:
436,176,25774,1,8,0:0:0:0:
336,184,25920,1,0,0:0:0:0:
376,156,26211,1,8,0:0:0:0:
400,252,26357,1,8,0:0:0:0:
328,184,26503,1,0,0:0:0:0:
300,276,26648,1,0,0:0:0:0:
368,208,26794,1,8,0:0:0:0:
340,164,27085,1,0,0:0:0:0:
484,28,27376,1,8,0:0:0:0:
420,104,27522,1,8,0:0:0:0:
356,176,27668,1,0,0:0:0:0:
420,104,27813,1,8,0:0:0:0:
228,324,27959,1,0,0:0:0:0:
356,180,28250,1,8,0:0:0:0:
452,200,28396,1,0,0:0:0:0:
364,156,28541,1,8,0:0:0:0:
456,196,28687,1,8,0:0:0:0:
400,116,28833,1,0,0:0:0:0:
204,112,29124,1,8,0:0:0:0:
436,188,29415,1,4,0:0:0:0:
280,72,29706,1,8,0:0:0:0:
332,156,29998,1,0,0:0:0:0:
332,156,30143,1,0,0:0:0:0:
236,168,30289,1,8,0:0:0:0:
332,140,30435,1,8,0:0:0:0:
248,192,30580,1,0,0:0:0:0:
436,136,30872,1,8,0:0:0:0:
384,220,31163,1,8,0:0:0:0:
384,220,31308,1,8,0:0:0:0:
296,176,31454,1,0,0:0:0:0:
384,132,31600,1,8,0:0:0:0:
296,176,31745,1,4,0:0:0:0:
344,156,33056,1,8,0:0:0:0:
344,156,33202,1,8,0:0:0:0:
344,156,33347,1,8,0:0:0:0:
344,156,33639,1,8,0:0:0:0:
344,156,33784,1,8,0:0:0:0:
344,156,34075,1,4,0:0:0:0:
184,272,34367,1,8,0:0:0:0:
336,152,34512,1,0,0:0:0:0:
260,212,34804,1,0,0:0:0:0:
352,176,34949,1,8,0:0:0:0:
260,212,35095,1,0,0:0:0:0:
352,188,35386,1,0,0:0:0:0:
432,368,35532,1,8,0:0:0:0:
372,188,35677,1,0,0:0:0:0:
324,104,35823,1,0,0:0:0:0:
424,272,35969,1,8,0:0:0:0:
448,164,36114,1,8,0:0:0:0:
252,156,36406,1,0,0:0:0:0:
440,104,36697,1,8,0:0:0:0:
348,140,36842,1,0,0:0:0:0:
172,224,37134,1,0,0:0:0:0:
264,192,37279,1,8,0:0:0:0:
360,172,37425,1,8,0:0:0:0:
360,172,37571,1,0,0:0:0:0:
360,172,37716,1,0,0:0:0:0:
436,108,37862,1,8,0:0:0:0:
360,172,38153,1,0,0:0:0:0:
360,172,38299,1,0,0:0:0:0:
360,76,38444,1,8,0:0:0:0:
400,164,38590,1,8,0:0:0:0:
496,172,38736,1,0,0:0:0:0:
300,148,39027,1,8,0:0:0:0:
336,164,39318,1,0,0:0:0:0:
336,164,39464,1,0,0:0:0:0:
432,164,39609,1,8,0:0:0:0:
336,188,39755,1,8,0:0:0:0:
432,196,39901,1,0,0:0:0:0:
432,164,40192,1,8,0:0:0:0:
432,164,40483,1,8,0:0:0:0:
432,164,40629,1,8,0:0:0:0:
432,164,40774,1,8,0:0:0:0:
432,164,40920,1,8,0:0:0:0:
464,172,41066,1,0,0:0:0:0:
268,164,41357,1,8,0:0:0:0:
432,164,41503,1,0,0:0:0:0:
432,164,41648,1,0,0:0:0:0:
268,164,41939,1,8,0:0:0:0:
432,164,42085,1,0,0:0:0:0:
236,168,42376,1,0,0:0:0:0:
332,180,42522,1,8,0:0:0:0:
420,220,42813,1,0,0:0:0:0:
324,192,42959,1,0,0:0:0:0:
416,224,43105,1,8,0:0:0:0:
420,220,43250,1,8,0:0:0:0:
476,140,43396,1,0,0:0:0:0:
308,244,43687,1,8,0:0:0:0:
392,192,43833,1,0,0:0:0:0:
392,192,43978,1,0,0:0:0:0:
260,124,44124,1,8,0:0:0:0:
260,224,44270,1,0,0:0:0:0:
340,168,44415,1,8,0:0:0:0:
412,152,44706,1,8,0:0:0:0:
412,152,44852,1,8,0:0:0:0:
316,172,44998,1,0,0:0:0:0:
412,152,45143,1,0,0:0:0:0:
412,152,45289,1,8,0:0:0:0:
412,152,45435,1,8,0:0:0:0:
412,152,45580,1,8,0:0:0:0:
508,172,45726,1,0,0:0:0:0:
312,156,46017,1,8,0:0:0:0:
312,156,46308,1,0,0:0:0:0:
356,268,46454,1,0,0:0:0:0:
508,172,46600,1,8,0:0:0:0:
412,172,46745,1,0,0:0:0:0:
216,168,47037,1,0,0:0:0:0:
312,156,47182,1,8,0:0:0:0:
408,184,47328,1,8,0:0:0:0:
408,184,47473,1,0,0:0:0:0:
408,184,47619,1,0,0:0:0:0:
504,196,47765,1,8,0:0:0:0:
428,220,48056,1,0,0:0:0:0:
264,112,48347,1,8,0:0:0:0:
356,152,48493,1,8,0:0:0:0:
408,184,48639,1,0,0:0:0:0:
404,192,48784,1,0,0:0:0:0:
404,192,48930,1,8,0:0:0:0:
404,192,49075,1,0,0:0:0:0:
244,80,49367,1,0,0:0:0:0:
332,124,49512,1,8,0:0:0:0:
444,168,49804,1,0,0:0:0:0:
460,264,49949,1,0,0:0:0:0:
492,176,50095,1,8,0:0:0:0:
396,172,50240,1,8,0:0:0:0:
404,72,50386,1,4,0:0:0:0:
224,220,50677,1,0,0:0:0:0:
104,64,50969,1,8,0:0:0:0:
164,140,51406,1,0,0:0:0:0:
260,160,51551,1,0,0:0:0:0:
356,168,51697,1,8,0:0:0:0:
260,160,51988,1,0,0:0:0:0:
356,168,52134,1,8,0:0:0:0:
448,228,52279,1,8,0:0:0:0:
384,40,52571,1,8,0:0:0:0:
376,136,52716,1,0,0:0:0:0:
260,160,53007,1,0,0:0:0:0:
356,168,53153,1,0,0:0:0:0:
356,168,53299,1,8,0:0:0:0:
160,164,53590,1,8,0:0:0:0:
260,168,53736,1,8,0:0:0:0:
356,168,53881,1,0,0:0:0:0:
456,164,54027,1,8,0:0:0:0:
356,156,54464,1,8,0:0:0:0:
404,164,54537,1,8,0:0:0:0:
404,164,54609,1,8,0:0:0:0:
328,224,54755,1,0,0:0:0:0:
252,160,54901,1,8,0:0:0:0:
344,124,55046,1,4,0:0:0:0:
148,156,55338,1,0,0:0:0:0:
52,176,55483,1,0,0:0:0:0:
148,168,55629,1,8,0:0:0:0:
244,156,55920,1,0,0:0:0:0:
144,156,56066,1,0,0:0:0:0:
356,140,56211,1,0,0:0:0:0:
284,208,56357,1,8,0:0:0:0:
244,156,56648,1,0,0:0:0:0:
340,168,56794,1,8,0:0:0:0:
436,180,56939,1,8,0:0:0:0:
360,120,57085,1,0,0:0:0:0:
340,168,57376,1,0,0:0:0:0:
144,188,57668,1,0,0:0:0:0:
360,120,57813,1,8,0:0:0:0:
456,104,57959,1,0,0:0:0:0:
360,120,58250,1,8,0:0:0:0:
508,248,58541,1,0,0:0:0:0:
448,168,58687,1,8,0:0:0:0:
252,180,58978,1,0,0:0:0:0:
188,108,59124,1,8,0:0:0:0:
208,204,59270,1,0,0:0:0:0:
168,12,59561,1,0,0:0:0:0:
236,84,59706,1,4,0:0:0:0:
352,136,62037,1,14,0:0:0:0:
380,192,63202,1,0,0:0:0:0:
476,200,63347,1,8,0:0:0:0:
476,200,63493,1,0,0:0:0:0:
476,200,63566,1,0,0:0:0:0:
476,200,63639,1,0,0:0:0:0:
476,200,63784,1,8,0:0:0:0:
320,116,64075,1,8,0:0:0:0:
224,104,64221,1,8,0:0:0:0:
504,180,64367,1,4,0:0:0:0:
312,228,64658,1,8,0:0:0:0:
312,228,64804,1,0,0:0:0:0:
264,220,64876,1,0,0:0:0:0:
216,212,64949,1,0,0:0:0:0:
308,184,65095,1,0,0:0:0:0:
356,100,65240,1,8,0:0:0:0:
424,168,65386,1,0,0:0:0:0:
260,276,65677,1,0,0:0:0:0:
336,212,65823,1,8,0:0:0:0:
512,124,66114,1,0,0:0:0:0:
424,168,66260,1,0,0:0:0:0:
424,168,66406,1,8,0:0:0:0:
492,188,66551,1,8,0:0:0:0:
396,176,66697,1,0,0:0:0:0:
252,148,66988,1,8,0:0:0:0:
424,168,67134,1,8,0:0:0:0:
328,152,67279,1,0,0:0:0:0:
328,152,67425,1,0,0:0:0:0:
396,176,67571,1,8,0:0:0:0:
304,148,67716,1,0,0:0:0:0:
392,324,68007,1,0,0:0:0:0:
388,224,68153,1,8,0:0:0:0:
352,132,68299,1,8,0:0:0:0:
300,48,68444,1,0,0:0:0:0:
324,88,68517,1,0,0:0:0:0:
352,128,68590,1,0,0:0:0:0:
428,192,68736,1,8,0:0:0:0:
480,128,69027,1,4,0:0:0:0:
284,124,69318,1,8,0:0:0:0:
236,212,69464,1,0,0:0:0:0:
332,232,69609,1,8,0:0:0:0:
336,160,69901,1,8,0:0:0:0:
420,112,70046,1,0,0:0:0:0:
280,248,70338,1,0,0:0:0:0:
360,196,70483,1,8,0:0:0:0:
412,112,70629,1,8,0:0:0:0:
336,160,70774,1,0,0:0:0:0:
336,160,70920,1,0,0:0:0:0:
336,160,71066,1,8,0:0:0:0:
336,160,71357,1,0,0:0:0:0:
412,112,71648,1,8,0:0:0:0:
396,208,71794,1,8,0:0:0:0:
164,128,71939,1,0,0:0:0:0:
212,144,72085,1,0,0:0:0:0:
396,208,72231,1,8,0:0:0:0:
304,176,72376,1,0,0:0:0:0:
212,144,72668,1,0,0:0:0:0:
396,208,72814,1,8,0:0:0:0:
300,212,72959,1,8,0:0:0:0:
252,212,73032,1,8,0:0:0:0:
204,212,73105,1,8,0:0:0:0:
296,176,73250,1,0,0:0:0:0:
348,92,73396,1,8,0:0:0:0:
292,172,73541,1,8,0:0:0:0:
344,88,73687,1,4,0:0:0:0:
508,196,73978,1,8,0:0:0:0:
436,128,74124,1,0,0:0:0:0:
344,164,74270,1,0,0:0:0:0:
252,196,74415,1,0,0:0:0:0:
340,152,74561,1,8,0:0:0:0:
340,152,74706,1,0,0:0:0:0:
340,152,74998,1,0,0:0:0:0:
340,152,75143,1,8,0:0:0:0:
340,152,75289,1,8,0:0:0:0:
436,132,75435,1,0,0:0:0:0:
436,132,75580,1,0,0:0:0:0:
436,132,75726,1,8,0:0:0:0:
196,72,76017,1,0,0:0:0:0:
276,132,76163,1,0,0:0:0:0:
340,152,76308,1,8,0:0:0:0:
240,156,76454,1,0,0:0:0:0:
240,156,76745,1,8,0:0:0:0:
336,180,76891,1,0,0:0:0:0:
428,144,77037,1,8,0:0:0:0:
336,180,77328,1,0,0:0:0:0:
428,144,77474,1,8,0:0:0:0:
332,160,77619,1,0,0:0:0:0:
284,168,77692,1,0,0:0:0:0:
236,176,77765,1,0,0:0:0:0:
320,228,77910,1,0,0:0:0:0:
400,172,78056,1,8,0:0:0:0:
400,172,78202,1,8,0:0:0:0:
312,96,78347,1,4,0:0:0:0:
480,200,78639,1,8,0:0:0:0:
432,116,78784,1,8,0:0:0:0:
424,212,78930,1,0,0:0:0:0:
412,312,79075,1,0,0:0:0:0:
440,216,79221,1,8,0:0:0:0:
396,164,79367,1,0,0:0:0:0:
200,184,79658,1,0,0:0:0:0:
296,176,79804,1,8,0:0:0:0:
396,164,79949,1,0,0:0:0:0:
396,164,80095,1,0,0:0:0:0:
352,140,80168,1,0,0:0:0:0:
396,164,80240,1,0,0:0:0:0:
332,88,80386,1,8,0:0:0:0:
352,140,80677,1,0,0:0:0:0:
448,128,80969,1,8,0:0:0:0:
352,140,81114,1,0,0:0:0:0:
356,164,81260,1,0,0:0:0:0:
272,200,81406,1,0,0:0:0:0:
376,144,81551,1,8,0:0:0:0:
352,140,81842,1,8,0:0:0:0:
260,108,81988,1,0,0:0:0:0:
308,124,82061,1,0,0:0:0:0:
308,124,82134,1,0,0:0:0:0:
376,144,82279,1,8,0:0:0:0:
376,144,82425,1,8,0:0:0:0:
476,144,82571,1,0,0:0:0:0:
476,144,82716,1,8,0:0:0:0:
304,48,83007,1,4,0:0:0:0:
300,344,83444,1,0,0:0:0:0:
356,264,83590,1,8,0:0:0:0:
388,100,83882,1,0,0:0:0:0:
388,100,84028,1,0,0:0:0:0:
296,132,84318,1,0,0:0:0:0:
112,196,84609,1,0,0:0:0:0:
208,176,84755,1,8,0:0:0:0:
200,120,85046,1,8,0:0:0:0:
372,24,85338,1,0,0:0:0:0:
164,252,85774,1,0,0:0:0:0:
248,200,85920,1,8,0:0:0:0:
512,68,86211,1,0,0:0:0:0:
428,112,86357,1,0,0:0:0:0:
512,68,86648,1,8,0:0:0:0:
428,112,86794,1,0,0:0:0:0:
268,224,87085,1,8,0:0:0:0:
268,224,87231,1,8,0:0:0:0:
428,112,87376,1,0,0:0:0:0:
240,172,87668,1,4,0:0:0:0:
344,160,88105,1,0,0:0:0:0:
344,160,88250,1,8,0:0:0:0:
248,184,88687,1,0,0:0:0:0:
344,160,88833,1,8,0:0:0:0:
248,160,88978,1,0,0:0:0:0:
444,140,89270,1,0,0:0:0:0:
248,152,89561,1,0,0:0:0:0:
344,144,89706,1,8,0:0:0:0:
248,164,89998,1,0,0:0:0:0:
344,148,90143,1,12,0:0:0:0:
440,132,90289,1,12,0:0:0:0:
264,44,90580,1,4,0:0:0:0:
248,164,90872,1,0,0:0:0:0:
344,148,91017,1,12,0:0:0:0:
440,132,91163,1,12,0:0:0:0:
440,132,91454,1,12,0:0:0:0:
48,152,92037,1,8,0:0:0:0:
344,148,92328,1,12,0:0:0:0:
440,132,92474,1,12,0:0:0:0:
344,132,92619,1,0,0:0:0:0:
444,108,92910,1,14,0:0:0:0:
248,124,93202,1,0,0:0:0:0:
444,108,93347,1,14,0:0:0:0:
444,108,93639,1,14,0:0:0:0:
248,124,93930,1,0,0:0:0:0:
444,108,94075,1,14,0:0:0:0:
336,272,94367,1,8,0:0:0:0:
384,84,94658,1,4,0:0:0:0:
300,136,94804,1,0,0:0:0:0:
396,148,94949,1,8,0:0:0:0:
396,148,95095,1,8,0:0:0:0:
396,148,95386,1,0,0:0:0:0:
100,148,95532,1,8,0:0:0:0:
196,144,95677,1,0,0:0:0:0:
292,140,95823,1,0,0:0:0:0:
396,148,95969,1,8,0:0:0:0:
396,148,96114,1,8,0:0:0:0:
300,128,96260,1,0,0:0:0:0:
300,128,96551,1,8,0:0:0:0:
276,188,96842,1,8,0:0:0:0:
336,108,96988,1,0,0:0:0:0:
284,192,97134,1,0,0:0:0:0:
376,164,97279,1,8,0:0:0:0:
280,140,97425,1,0,0:0:0:0:
84,156,97716,1,0,0:0:0:0:
376,164,97862,1,8,0:0:0:0:
472,136,98007,1,0,0:0:0:0:
276,148,98299,1,0,0:0:0:0:
372,128,98444,1,8,0:0:0:0:
372,128,98590,1,8,0:0:0:0:
420,216,98736,1,0,0:0:0:0:
376,196,98808,1,0,0:0:0:0:
332,172,98881,1,0,0:0:0:0:
376,196,99027,1,8,0:0:0:0:
416,168,99318,1,4,0:0:0:0:
436,124,99464,1,0,0:0:0:0:
332,172,99609,1,8,0:0:0:0:
240,212,99755,1,8,0:0:0:0:
424,148,100046,1,0,0:0:0:0:
280,164,100192,1,8,0:0:0:0:
180,164,100338,1,0,0:0:0:0:
276,160,100483,1,0,0:0:0:0:
424,148,100629,1,8,0:0:0:0:
424,148,100774,1,8,0:0:0:0:
424,148,100920,1,0,0:0:0:0:
228,160,101211,1,0,0:0:0:0:
372,172,101503,1,8,0:0:0:0:
372,172,101648,1,0,0:0:0:0:
372,172,101794,1,0,0:0:0:0:
468,176,101939,1,8,0:0:0:0:
372,160,102085,1,0,0:0:0:0:
184,112,102376,1,0,0:0:0:0:
372,172,102522,1,8,0:0:0:0:
372,160,102668,1,8,0:0:0:0:
372,172,102813,1,0,0:0:0:0:
460,128,102959,1,8,0:0:0:0:
416,148,103032,1,8,0:0:0:0:
416,148,103105,1,8,0:0:0:0:
320,168,103250,1,8,0:0:0:0:
372,172,103396,1,0,0:0:0:0:
200,268,103687,1,0,0:0:0:0:
292,228,103833,1,8,0:0:0:0:
368,168,103978,1,4,0:0:0:0:
384,144,104415,1,4,0:0:0:0:
96,84,104852,1,8,0:0:0:0:
288,132,105143,1,0,0:0:0:0:
388,112,105289,1,14,0:0:0:0:
204,180,105580,1,0,0:0:0:0:
204,180,105653,1,0,0:0:0:0:
204,180,105726,1,0,0:0:0:0:
300,196,105872,1,8,0:0:0:0:
396,208,106017,1,8,0:0:0:0:
304,176,106163,1,8,0:0:0:0:
388,128,106308,1,4,0:0:0:0:
408,136,106745,1,14,0:0:0:0:
388,128,107182,1,14,0:0:0:0:
192,120,107473,1,0,0:0:0:0:
104,212,107619,1,14,0:0:0:0:
