osu file format v14

[General]
AudioFilename: audio.mp3
AudioLeadIn: 0
PreviewTime: 64075
Countdown: 0
SampleSet: Normal
StackLeniency: 0.7
Mode: 1
LetterboxInBreaks: 0
WidescreenStoryboard: 0

[Editor]
DistanceSpacing: 1.4
BeatDivisor: 4
GridSize: 4
TimelineZoom: 0.7999996

[Metadata]
Title:Love*Magic ! ~Wellcome to Minoir!!~
TitleUnicode:Love*Magic!~Wellcome to Minoir!!~
Artist:solfa feat.Tamura Yukari
ArtistUnicode:solfa feat.榊原ゆい
Creator:Kin
Version:Kantan
Source:姫恋*シュクレーヌ!
Tags:Himekoi * Sucreine! Princess Sugar Amagasaki Urara 天ヶ咲 麗 Hashizaki Tooru 橋咲 透
BeatmapID:1221480
BeatmapSetID:576725

[Difficulty]
HPDrainRate:7
CircleSize:6.9
OverallDifficulty:4
ApproachRate:6.9
SliderMultiplier:1.2
SliderTickRate:1

[Events]
//Background and Video events
0,0,"img115_cg116a.png",0,0
//Break Periods
//Storyboard Layer 0 (Background)
//Storyboard Layer 1 (Fail)
//Storyboard Layer 2 (Pass)
//Storyboard Layer 3 (Foreground)
//Storyboard Sound Samples

[TimingPoints]
932,634.920634920635,4,1,0,10,1,0
11940,291.26213592233,4,1,0,80,1,0
64367,-100,4,1,0,80,0,1
89998,-100,4,1,0,80,0,0

[HitObjects]
296,160,932,5,8,0:0:0:0:
296,160,2201,1,8,0:0:0:0:
296,160,3471,1,8,0:0:0:0:
296,160,4741,1,8,0:0:0:0:
296,160,6011,1,8,0:0:0:0:
296,160,7281,1,8,0:0:0:0:
296,160,8551,1,8,0:0:0:0:
296,160,9820,1,8,0:0:0:0:
320,192,11940,5,8,0:0:0:0:
320,192,12376,1,8,0:0:0:0:
320,192,12813,1,8,0:0:0:0:
468,112,13105,1,4,0:0:0:0:
219,147,13541,1,0,0:0:0:0:
268,144,14270,1,0,0:0:0:0:
37,42,14706,1,0,0:0:0:0:
316,164,15435,1,8,0:0:0:0:
405,147,15872,1,8,0:0:0:0:
408,184,16600,1,8,0:0:0:0:
76,140,17037,1,8,0:0:0:0:
376,140,17765,1,4,0:0:0:0:
360,160,18202,1,0,0:0:0:0:
360,160,18930,1,0,0:0:0:0:
40,60,19367,1,0,0:0:0:0:
392,156,20095,1,8,0:0:0:0:
392,156,20532,1,8,0:0:0:0:
428,152,21260,1,8,0:0:0:0:
422,175,21842,1,8,0:0:0:0:
377,147,22425,1,4,0:0:0:0:
153,29,22862,1,0,0:0:0:0:
350,185,23299,1,8,0:0:0:0:
98,202,23736,1,4,0:0:0:0:
362,171,24755,1,4,0:0:0:0:
440,196,25338,1,0,0:0:0:0:
272,184,25920,1,8,0:0:0:0:
256,180,26503,1,0,0:0:0:0:
264,200,26794,1,0,0:0:0:0:
264,200,27085,1,0,0:0:0:0:
260,228,27668,1,0,0:0:0:0:
260,228,28250,1,8,0:0:0:0:
368,160,28833,1,8,0:0:0:0:
400,152,29415,1,0,0:0:0:0:
408,144,30580,1,0,0:0:0:0:
72,144,31163,1,8,0:0:0:0:
232,144,31454,1,8,0:0:0:0:
400,140,31745,1,0,0:0:0:0:
336,104,34075,5,4,0:0:0:0:
244,340,34658,1,0,0:0:0:0:
148,20,35240,1,8,0:0:0:0:
216,256,35823,1,0,0:0:0:0:
116,120,36114,1,0,0:0:0:0:
144,156,36406,1,0,0:0:0:0:
124,132,36988,1,0,0:0:0:0:
124,132,37571,1,8,0:0:0:0:
124,132,38736,1,0,0:0:0:0:
456,168,39318,1,8,0:0:0:0:
472,160,39901,1,0,0:0:0:0:
304,152,40483,1,8,0:0:0:0:
320,320,40774,1,8,0:0:0:0:
232,176,41066,1,0,0:0:0:0:
200,132,42231,1,0,0:0:0:0:
200,132,42813,1,8,0:0:0:0:
200,132,43396,1,0,0:0:0:0:
176,200,44561,1,0,0:0:0:0:
344,180,44852,1,8,0:0:0:0:
492,160,45143,1,8,0:0:0:0:
320,180,45435,1,8,0:0:0:0:
344,180,45726,1,0,0:0:0:0:
188,160,46891,1,0,0:0:0:0:
228,200,47473,1,0,0:0:0:0:
228,200,48056,1,8,0:0:0:0:
247,130,48639,1,0,0:0:0:0:
336,220,48930,1,0,0:0:0:0:
4,172,49221,1,8,0:0:0:0:
336,224,49804,1,0,0:0:0:0:
288,216,50386,1,4,0:0:0:0:
256,176,51551,1,8,0:0:0:0:
268,156,52716,1,0,0:0:0:0:
268,156,53299,1,0,0:0:0:0:
268,156,53881,1,0,0:0:0:0:
440,148,55046,1,4,0:0:0:0:
308,172,55629,1,8,0:0:0:0:
304,152,56211,1,0,0:0:0:0:
232,172,57376,1,0,0:0:0:0:
248,168,58250,1,0,0:0:0:0:
304,144,58541,1,8,0:0:0:0:
252,154,59124,1,8,0:0:0:0:
380,132,59706,1,4,0:0:0:0:
344,144,62037,1,14,0:0:0:0:
52,212,63202,2,0,L|316:180,1,240
348,148,64367,1,4,0:0:0:0:
263,292,64658,1,0,0:0:0:0:
32,260,65095,1,8,0:0:0:0:
196,228,65532,1,8,0:0:0:0:
320,168,66697,1,8,0:0:0:0:
320,168,66988,1,8,0:0:0:0:
69,141,67425,1,0,0:0:0:0:
320,168,67862,1,0,0:0:0:0:
152,154,68153,1,8,0:0:0:0:
320,168,69027,1,0,0:0:0:0:
320,168,69609,1,8,0:0:0:0:
320,168,70192,1,0,0:0:0:0:
4,56,70774,1,8,0:0:0:0:
136,104,71066,1,0,0:0:0:0:
300,140,71357,1,0,0:0:0:0:
324,160,72522,1,8,0:0:0:0:
492,172,73687,1,4,0:0:0:0:
156,192,73978,1,0,0:0:0:0:
128,152,74415,1,8,0:0:0:0:
156,192,74852,1,8,0:0:0:0:
464,204,76017,1,8,0:0:0:0:
140,120,76308,1,8,0:0:0:0:
472,164,76745,1,0,0:0:0:0:
219,161,77182,1,0,0:0:0:0:
380,205,77473,1,8,0:0:0:0:
164,40,78347,1,0,0:0:0:0:
340,220,78930,1,0,0:0:0:0:
20,116,79512,1,8,0:0:0:0:
332,212,80095,1,0,0:0:0:0:
184,156,80386,1,8,0:0:0:0:
340,212,80677,1,0,0:0:0:0:
320,196,81842,1,0,0:0:0:0:
472,124,82134,1,8,0:0:0:0:
328,192,82425,1,8,0:0:0:0:
320,148,83007,1,4,0:0:0:0:
372,128,84173,1,0,0:0:0:0:
376,172,84755,1,8,0:0:0:0:
40,184,85338,1,0,0:0:0:0:
352,168,86503,1,0,0:0:0:0:
364,152,87085,1,8,0:0:0:0:
344,136,87668,1,4,0:0:0:0:
260,144,88833,1,8,0:0:0:0:
372,148,89998,1,4,0:0:0:0:
344,216,90580,1,8,0:0:0:0:
352,184,91163,1,0,0:0:0:0:
104,140,91454,1,8,0:0:0:0:
264,148,92328,1,8,0:0:0:0:
224,216,92910,1,8,0:0:0:0:
178,164,93493,1,0,0:0:0:0:
488,212,94658,1,0,0:0:0:0:
152,232,95095,1,0,0:0:0:0:
480,160,95823,1,0,0:0:0:0:
164,188,96260,1,0,0:0:0:0:
452,20,96988,1,8,0:0:0:0:
172,204,97425,1,8,0:0:0:0:
504,144,98153,1,8,0:0:0:0:
172,188,98590,1,8,0:0:0:0:
172,188,99318,1,4,0:0:0:0:
500,120,99755,1,0,0:0:0:0:
172,184,100483,1,0,0:0:0:0:
192,168,100920,1,0,0:0:0:0:
240,156,101648,1,8,0:0:0:0:
240,156,102085,1,8,0:0:0:0:
328,160,102813,1,8,0:0:0:0:
488,216,103105,1,8,0:0:0:0:
328,160,103396,1,8,0:0:0:0:
336,180,103978,1,4,0:0:0:0:
88,132,104415,1,0,0:0:0:0:
324,224,104852,1,0,0:0:0:0:
248,160,105289,1,4,0:0:0:0:
288,168,106308,1,0,0:0:0:0:
288,168,106745,1,0,0:0:0:0:
308,168,107182,1,0,0:0:0:0:
288,168,107619,1,4,0:0:0:0:
