osu file format v14

[General]
AudioFilename: audio.mp3
AudioLeadIn: 0
PreviewTime: 67632
Countdown: 0
SampleSet: Normal
StackLeniency: 0.7
Mode: 1
LetterboxInBreaks: 0
WidescreenStoryboard: 1

[Editor]
DistanceSpacing: 0.9
BeatDivisor: 4
GridSize: 32
TimelineZoom: 1.7

[Metadata]
Title:"Remizera!" ShortVer.
TitleUnicode:「れみぜら!」ShortVer.
Artist:solfa feat.Misato Aki
ArtistUnicode:solfa feat.美郷あき
Creator:ShogunMoon
Version:Kin's Oni
Source:ワールド・エレクション
Tags:world election whirlpool 10th anniversary eroge opening visual novel Garden Kin short version Yakushi Ruri Amagasaki Urara Hashizaki Tooru Nemoto Katsunori
BeatmapID:1317165
BeatmapSetID:619365

[Difficulty]
HPDrainRate:6
CircleSize:6.9
OverallDifficulty:6
ApproachRate:6.9
SliderMultiplier:1.4
SliderTickRate:1

[Events]
//Background and Video events
0,0,"oni.jpg",0,-30
//Break Periods
//Storyboard Layer 0 (Background)
//Storyboard Layer 1 (Fail)
//Storyboard Layer 2 (Pass)
//Storyboard Layer 3 (Foreground)
//Storyboard Sound Samples

[TimingPoints]
335,324.324324324324,4,1,0,50,1,0
10713,-100,4,1,0,70,0,0
67794,-100,4,1,0,80,0,1
95037,-100,4,1,0,70,0,0

[Colours]
Combo1 : 213,4,4
Combo2 : 159,159,255
Combo3 : 157,51,0
Combo4 : 51,43,159

[HitObjects]
256,192,335,5,8,0:0:0:0:
256,192,497,1,0,0:0:0:0:
256,192,659,1,8,0:0:0:0:
256,192,821,1,8,0:0:0:0:
256,192,983,1,0,0:0:0:0:
256,192,1145,1,8,0:0:0:0:
256,192,1470,1,8,0:0:0:0:
256,192,1632,1,0,0:0:0:0:
256,192,1794,1,8,0:0:0:0:
256,192,1956,1,8,0:0:0:0:
256,192,2118,1,0,0:0:0:0:
256,192,2443,1,8,0:0:0:0:
256,192,2767,1,8,0:0:0:0:
256,192,3091,1,0,0:0:0:0:
256,192,3253,1,8,0:0:0:0:
256,192,3415,1,8,0:0:0:0:
256,192,3577,1,0,0:0:0:0:
256,192,3739,1,8,0:0:0:0:
256,192,4064,1,8,0:0:0:0:
256,192,4389,1,0,0:0:0:0:
256,192,4551,1,0,0:0:0:0:
256,192,4713,1,8,0:0:0:0:
256,192,5037,1,8,0:0:0:0:
256,192,5199,1,8,0:0:0:0:
256,192,5362,1,0,0:0:0:0:
256,192,5686,1,0,0:0:0:0:
256,192,5848,1,8,0:0:0:0:
256,192,6010,1,8,0:0:0:0:
256,192,6172,1,0,0:0:0:0:
256,192,6334,1,8,0:0:0:0:
256,192,6659,1,0,0:0:0:0:
256,192,6821,1,8,0:0:0:0:
256,192,6983,1,8,0:0:0:0:
256,192,7145,1,0,0:0:0:0:
256,192,7307,1,8,0:0:0:0:
256,192,7632,1,8,0:0:0:0:
256,192,7794,1,8,0:0:0:0:
256,192,7956,1,8,0:0:0:0:
256,192,8280,1,0,0:0:0:0:
256,192,8443,1,8,0:0:0:0:
256,192,8605,1,8,0:0:0:0:
256,192,8767,1,0,0:0:0:0:
256,192,8929,1,8,0:0:0:0:
256,192,9253,1,8,0:0:0:0:
256,192,9416,1,0,0:0:0:0:
256,192,9497,1,0,0:0:0:0:
256,192,9578,1,8,0:0:0:0:
256,192,9740,1,0,0:0:0:0:
256,192,9902,1,8,0:0:0:0:
256,192,10064,1,0,0:0:0:0:
256,192,10145,1,0,0:0:0:0:
256,192,10226,1,0,0:0:0:0:
256,192,10389,1,8,0:0:0:0:
256,192,10551,1,8,0:0:0:0:
256,192,10713,1,4,0:0:0:0:
256,192,11037,1,8,0:0:0:0:
256,192,11199,1,0,0:0:0:0:
256,192,11280,1,0,0:0:0:0:
256,192,11362,1,8,0:0:0:0:
256,192,11524,1,8,0:0:0:0:
256,192,11686,1,0,0:0:0:0:
256,192,11848,1,8,0:0:0:0:
256,192,12172,1,0,0:0:0:0:
256,192,12334,1,8,0:0:0:0:
256,192,12497,1,0,0:0:0:0:
256,192,12578,1,0,0:0:0:0:
256,192,12659,1,0,0:0:0:0:
256,192,12821,1,0,0:0:0:0:
256,192,12983,1,8,0:0:0:0:
256,192,13307,1,0,0:0:0:0:
256,192,13470,1,8,0:0:0:0:
256,192,13632,1,8,0:0:0:0:
256,192,13794,1,0,0:0:0:0:
256,192,13875,1,0,0:0:0:0:
256,192,13956,1,8,0:0:0:0:
256,192,14118,1,8,0:0:0:0:
256,192,14280,1,0,0:0:0:0:
256,192,14443,1,8,0:0:0:0:
256,192,14767,1,0,0:0:0:0:
256,192,14929,1,8,0:0:0:0:
256,192,15091,1,8,0:0:0:0:
256,192,15172,1,8,0:0:0:0:
256,192,15253,1,0,0:0:0:0:
256,192,15416,1,0,0:0:0:0:
256,192,15578,1,8,0:0:0:0:
256,192,15659,1,8,0:0:0:0:
256,192,15740,1,8,0:0:0:0:
256,192,15902,1,4,0:0:0:0:
256,192,16064,1,8,0:0:0:0:
256,192,16389,1,0,0:0:0:0:
256,192,16551,1,8,0:0:0:0:
256,192,16713,1,8,0:0:0:0:
256,192,16794,1,8,0:0:0:0:
256,192,16875,1,0,0:0:0:0:
256,192,16956,1,0,0:0:0:0:
256,192,17037,1,8,0:0:0:0:
256,192,17199,1,0,0:0:0:0:
256,192,17362,1,0,0:0:0:0:
256,192,17443,1,0,0:0:0:0:
256,192,17524,1,0,0:0:0:0:
256,192,17686,1,8,0:0:0:0:
256,192,18010,1,0,0:0:0:0:
256,192,18091,1,0,0:0:0:0:
256,192,18172,1,8,0:0:0:0:
256,192,18334,1,8,0:0:0:0:
256,192,18497,1,0,0:0:0:0:
256,192,18659,1,8,0:0:0:0:
256,192,18821,1,0,0:0:0:0:
256,192,18983,1,0,0:0:0:0:
256,192,19064,1,0,0:0:0:0:
256,192,19145,1,8,0:0:0:0:
256,192,19307,1,8,0:0:0:0:
256,192,19470,1,0,0:0:0:0:
256,192,19632,1,8,0:0:0:0:
256,192,19956,1,0,0:0:0:0:
256,192,20118,1,8,0:0:0:0:
256,192,20280,1,0,0:0:0:0:
256,192,20362,1,0,0:0:0:0:
256,192,20443,1,0,0:0:0:0:
256,192,20605,1,8,0:0:0:0:
256,192,20767,1,14,0:0:0:0:
256,192,20929,1,0,0:0:0:0:
256,192,21091,1,4,0:0:0:0:
256,192,21253,1,8,0:0:0:0:
256,192,21334,1,8,0:0:0:0:
256,192,21416,1,8,0:0:0:0:
256,192,21578,1,4,0:0:0:0:
256,192,21740,1,0,0:0:0:0:
256,192,21821,1,0,0:0:0:0:
256,192,21902,1,0,0:0:0:0:
256,192,22064,1,14,0:0:0:0:
256,192,22226,1,8,0:0:0:0:
256,192,22307,1,8,0:0:0:0:
256,192,22389,1,0,0:0:0:0:
256,192,22551,1,14,0:0:0:0:
256,192,22713,1,0,0:0:0:0:
256,192,22794,1,0,0:0:0:0:
256,192,22875,1,0,0:0:0:0:
256,192,23037,1,8,0:0:0:0:
256,192,23199,1,4,0:0:0:0:
256,192,23686,1,4,0:0:0:0:
256,192,24010,1,8,0:0:0:0:
256,192,24172,1,8,0:0:0:0:
256,192,24253,1,8,0:0:0:0:
256,192,24334,1,0,0:0:0:0:
256,192,24497,1,0,0:0:0:0:
256,192,24659,1,8,0:0:0:0:
256,192,24821,1,0,0:0:0:0:
256,192,25145,1,0,0:0:0:0:
256,192,25307,1,8,0:0:0:0:
256,192,25470,1,0,0:0:0:0:
256,192,25551,1,0,0:0:0:0:
256,192,25632,1,8,0:0:0:0:
256,192,25794,1,0,0:0:0:0:
256,192,25956,1,8,0:0:0:0:
256,192,26118,1,8,0:0:0:0:
256,192,26280,1,0,0:0:0:0:
256,192,26605,1,8,0:0:0:0:
256,192,26767,1,8,0:0:0:0:
256,192,26848,1,8,0:0:0:0:
256,192,26929,1,8,0:0:0:0:
256,192,27091,1,0,0:0:0:0:
256,192,27253,1,8,0:0:0:0:
256,192,27416,1,0,0:0:0:0:
256,192,27740,1,0,0:0:0:0:
256,192,27902,1,8,0:0:0:0:
256,192,28064,1,0,0:0:0:0:
256,192,28145,1,0,0:0:0:0:
256,192,28226,1,8,0:0:0:0:
256,192,28389,1,0,0:0:0:0:
256,192,28551,1,8,0:0:0:0:
256,192,28713,1,8,0:0:0:0:
256,192,28875,1,4,0:0:0:0:
256,192,29199,1,8,0:0:0:0:
256,192,29524,1,0,0:0:0:0:
256,192,29686,1,0,0:0:0:0:
256,192,29767,1,0,0:0:0:0:
256,192,29848,1,8,0:0:0:0:
256,192,30010,1,0,0:0:0:0:
256,192,30334,1,0,0:0:0:0:
256,192,30497,1,8,0:0:0:0:
256,192,30659,1,8,0:0:0:0:
256,192,30740,1,8,0:0:0:0:
256,192,30821,1,0,0:0:0:0:
256,192,30983,1,0,0:0:0:0:
256,192,31145,1,8,0:0:0:0:
256,192,31470,1,0,0:0:0:0:
256,192,31632,1,0,0:0:0:0:
256,192,31794,1,8,0:0:0:0:
256,192,31956,1,0,0:0:0:0:
256,192,32037,1,0,0:0:0:0:
256,192,32118,1,0,0:0:0:0:
256,192,32280,1,8,0:0:0:0:
256,192,32443,1,8,0:0:0:0:
256,192,32605,1,0,0:0:0:0:
256,192,32767,1,4,0:0:0:0:
256,192,32929,1,4,0:0:0:0:
256,192,33253,1,14,0:0:0:0:
256,192,33578,1,4,0:0:0:0:
256,192,33740,1,8,0:0:0:0:
256,192,33821,1,8,0:0:0:0:
256,192,33902,1,8,0:0:0:0:
256,192,34064,1,4,0:0:0:0:
256,192,34389,1,8,0:0:0:0:
256,192,34551,1,8,0:0:0:0:
256,192,34632,1,8,0:0:0:0:
256,192,34713,1,0,0:0:0:0:
256,192,34875,1,0,0:0:0:0:
256,192,35037,1,8,0:0:0:0:
256,192,35199,1,0,0:0:0:0:
256,192,35524,1,0,0:0:0:0:
256,192,35686,1,8,0:0:0:0:
256,192,35848,1,0,0:0:0:0:
256,192,35929,1,8,0:0:0:0:
256,192,36010,1,0,0:0:0:0:
256,192,36172,1,0,0:0:0:0:
256,192,36334,1,8,0:0:0:0:
256,192,36659,1,0,0:0:0:0:
256,192,36821,1,0,0:0:0:0:
256,192,36983,1,8,0:0:0:0:
256,192,37145,1,0,0:0:0:0:
256,192,37226,1,0,0:0:0:0:
256,192,37307,1,8,0:0:0:0:
256,192,37470,1,8,0:0:0:0:
256,192,37632,1,0,0:0:0:0:
224,160,37794,1,8,0:0:0:0:
256,192,38118,1,8,0:0:0:0:
256,192,38280,1,8,0:0:0:0:
256,192,38443,1,0,0:0:0:0:
256,192,38605,1,8,0:0:0:0:
256,192,38686,1,8,0:0:0:0:
256,192,38767,1,0,0:0:0:0:
256,192,38929,1,0,0:0:0:0:
256,192,39091,1,8,0:0:0:0:
256,192,39253,1,4,0:0:0:0:
256,192,39578,1,8,0:0:0:0:
256,192,39740,1,4,0:0:0:0:
256,192,40064,1,0,0:0:0:0:
256,192,40226,1,8,0:0:0:0:
256,192,40389,1,4,0:0:0:0:
256,192,40713,1,0,0:0:0:0:
256,192,40875,1,8,0:0:0:0:
256,192,41037,1,8,0:0:0:0:
256,192,41199,1,0,0:0:0:0:
256,192,41362,1,0,0:0:0:0:
256,192,41443,1,0,0:0:0:0:
256,192,41524,1,8,0:0:0:0:
256,192,41686,1,8,0:0:0:0:
256,192,41848,1,4,0:0:0:0:
256,192,42172,1,8,0:0:0:0:
256,192,42334,1,0,0:0:0:0:
256,192,42416,1,0,0:0:0:0:
256,192,42497,1,8,0:0:0:0:
256,192,42659,1,0,0:0:0:0:
256,192,42821,1,8,0:0:0:0:
256,192,42983,1,4,0:0:0:0:
256,192,43307,1,4,0:0:0:0:
256,192,43632,1,8,0:0:0:0:
256,192,43713,1,8,0:0:0:0:
256,192,43794,1,8,0:0:0:0:
256,192,43956,1,4,0:0:0:0:
256,192,44280,1,8,0:0:0:0:
256,192,44443,1,4,0:0:0:0:
256,192,44767,1,8,0:0:0:0:
256,192,44929,1,0,0:0:0:0:
256,192,45091,1,8,0:0:0:0:
256,192,45416,1,0,0:0:0:0:
256,192,45578,1,8,0:0:0:0:
256,192,45902,1,0,0:0:0:0:
256,192,46064,1,0,0:0:0:0:
256,192,46389,1,8,0:0:0:0:
256,192,46713,1,8,0:0:0:0:
256,192,46875,1,8,0:0:0:0:
256,192,47037,1,0,0:0:0:0:
256,192,47362,1,0,0:0:0:0:
256,192,47524,1,0,0:0:0:0:
256,192,47686,1,8,0:0:0:0:
256,192,48010,1,0,0:0:0:0:
256,192,48172,1,8,0:0:0:0:
256,192,48497,1,8,0:0:0:0:
256,192,48659,1,0,0:0:0:0:
256,192,48983,1,8,0:0:0:0:
256,192,49145,1,0,0:0:0:0:
256,192,49226,1,0,0:0:0:0:
256,192,49307,1,8,0:0:0:0:
256,192,49389,1,0,0:0:0:0:
256,192,49470,1,8,0:0:0:0:
256,192,49632,1,4,0:0:0:0:
256,192,49956,1,0,0:0:0:0:
256,192,50118,1,0,0:0:0:0:
256,192,50280,1,8,0:0:0:0:
256,192,50605,1,0,0:0:0:0:
256,192,50767,1,8,0:0:0:0:
256,192,51091,1,8,0:0:0:0:
256,192,51253,1,0,0:0:0:0:
256,192,51578,1,8,0:0:0:0:
256,192,51902,1,8,0:0:0:0:
256,192,52064,1,8,0:0:0:0:
256,192,52226,1,0,0:0:0:0:
256,192,52551,1,0,0:0:0:0:
256,192,52713,1,0,0:0:0:0:
256,192,52875,1,8,0:0:0:0:
256,192,53199,1,0,0:0:0:0:
256,192,53362,1,8,0:0:0:0:
256,192,53524,1,0,0:0:0:0:
256,192,53605,1,0,0:0:0:0:
256,192,53686,1,0,0:0:0:0:
256,192,53767,1,0,0:0:0:0:
256,192,53848,1,8,0:0:0:0:
256,192,54010,1,0,0:0:0:0:
256,192,54091,1,0,0:0:0:0:
256,192,54172,1,0,0:0:0:0:
256,192,54253,1,0,0:0:0:0:
256,192,54334,1,8,0:0:0:0:
256,192,54497,1,0,0:0:0:0:
256,192,54659,1,8,0:0:0:0:
256,192,54821,1,4,0:0:0:0:
256,192,55145,1,0,0:0:0:0:
256,192,55307,1,0,0:0:0:0:
256,192,55470,1,8,0:0:0:0:
256,192,55794,1,0,0:0:0:0:
256,192,55956,1,8,0:0:0:0:
256,192,56280,1,8,0:0:0:0:
256,192,56443,1,0,0:0:0:0:
256,192,56767,1,8,0:0:0:0:
256,192,57091,1,8,0:0:0:0:
256,192,57253,1,8,0:0:0:0:
256,192,57416,1,0,0:0:0:0:
256,192,57740,1,0,0:0:0:0:
256,192,57902,1,0,0:0:0:0:
256,192,58064,1,8,0:0:0:0:
256,192,58389,1,0,0:0:0:0:
256,192,58551,1,8,0:0:0:0:
256,192,58875,1,8,0:0:0:0:
256,192,59037,1,0,0:0:0:0:
256,192,59362,1,8,0:0:0:0:
256,192,59524,1,0,0:0:0:0:
256,192,59605,1,0,0:0:0:0:
256,192,59686,1,8,0:0:0:0:
256,192,59767,1,0,0:0:0:0:
256,192,59848,1,8,0:0:0:0:
256,192,60010,1,4,0:0:0:0:
256,192,60334,1,8,0:0:0:0:
256,192,60497,1,8,0:0:0:0:
256,192,60578,1,8,0:0:0:0:
256,192,60659,1,0,0:0:0:0:
256,192,60821,1,0,0:0:0:0:
256,192,60983,1,8,0:0:0:0:
256,192,61145,1,8,0:0:0:0:
256,192,61307,1,0,0:0:0:0:
256,192,61389,1,0,0:0:0:0:
256,192,61470,1,0,0:0:0:0:
256,192,61632,1,8,0:0:0:0:
256,192,61794,1,0,0:0:0:0:
256,192,61956,1,8,0:0:0:0:
256,192,62118,1,0,0:0:0:0:
256,192,62199,1,0,0:0:0:0:
256,192,62280,1,8,0:0:0:0:
256,192,62443,1,8,0:0:0:0:
256,192,62605,1,4,0:0:0:0:
256,192,62929,1,8,0:0:0:0:
256,192,63091,1,0,0:0:0:0:
256,192,63172,1,0,0:0:0:0:
256,192,63253,1,0,0:0:0:0:
256,192,63416,1,0,0:0:0:0:
256,192,63578,1,8,0:0:0:0:
256,192,63740,1,8,0:0:0:0:
256,192,63821,1,8,0:0:0:0:
256,192,63902,1,0,0:0:0:0:
256,192,63983,1,0,0:0:0:0:
256,192,64064,1,8,0:0:0:0:
256,192,64226,1,0,0:0:0:0:
256,192,64389,1,8,0:0:0:0:
256,192,64551,1,0,0:0:0:0:
256,192,64632,1,0,0:0:0:0:
256,192,64713,1,0,0:0:0:0:
256,192,64875,1,14,0:0:0:0:
256,192,65199,1,0,0:0:0:0:
256,192,65280,1,0,0:0:0:0:
256,192,65362,1,0,0:0:0:0:
256,192,65443,1,0,0:0:0:0:
256,192,65524,1,8,0:0:0:0:
256,192,65686,1,8,0:0:0:0:
256,192,65767,1,8,0:0:0:0:
256,192,65848,1,0,0:0:0:0:
256,192,66010,1,8,0:0:0:0:
256,192,66172,1,8,0:0:0:0:
256,192,66334,1,4,0:0:0:0:
256,192,66659,1,4,0:0:0:0:
256,192,66983,1,14,0:0:0:0:
256,192,67307,1,4,0:0:0:0:
256,192,67794,1,4,0:0:0:0:
256,192,67956,1,0,0:0:0:0:
256,192,68118,1,8,0:0:0:0:
256,192,68280,1,0,0:0:0:0:
256,192,68362,1,0,0:0:0:0:
256,192,68443,1,8,0:0:0:0:
256,192,68524,1,0,0:0:0:0:
256,192,68605,1,8,0:0:0:0:
256,192,68767,1,0,0:0:0:0:
256,192,68929,1,8,0:0:0:0:
256,192,69091,1,0,0:0:0:0:
256,192,69172,1,0,0:0:0:0:
256,192,69253,1,8,0:0:0:0:
256,192,69416,1,8,0:0:0:0:
256,192,69578,1,0,0:0:0:0:
256,192,69740,1,8,0:0:0:0:
256,192,69821,1,8,0:0:0:0:
256,192,69902,1,0,0:0:0:0:
256,192,70064,1,8,0:0:0:0:
256,192,70389,1,0,0:0:0:0:
256,192,70551,1,0,0:0:0:0:
256,192,70713,1,8,0:0:0:0:
256,192,70875,1,8,0:0:0:0:
256,192,70956,1,8,0:0:0:0:
256,192,71037,1,0,0:0:0:0:
256,192,71118,1,0,0:0:0:0:
256,192,71199,1,8,0:0:0:0:
256,192,71362,1,8,0:0:0:0:
256,192,71524,1,0,0:0:0:0:
256,192,71686,1,8,0:0:0:0:
256,192,71848,1,0,0:0:0:0:
256,192,71929,1,0,0:0:0:0:
256,192,72010,1,8,0:0:0:0:
256,192,72172,1,8,0:0:0:0:
256,192,72334,1,0,0:0:0:0:
256,192,72416,1,0,0:0:0:0:
256,192,72497,1,0,0:0:0:0:
256,192,72659,1,8,0:0:0:0:
256,192,72821,1,8,0:0:0:0:
256,192,72983,1,4,0:0:0:0:
256,192,73307,1,8,0:0:0:0:
256,192,73470,1,0,0:0:0:0:
256,192,73551,1,0,0:0:0:0:
256,192,73632,1,8,0:0:0:0:
256,192,73794,1,0,0:0:0:0:
256,192,73956,1,8,0:0:0:0:
256,192,74118,1,8,0:0:0:0:
256,192,74280,1,0,0:0:0:0:
256,192,74362,1,0,0:0:0:0:
256,192,74443,1,0,0:0:0:0:
256,192,74605,1,8,0:0:0:0:
256,192,74767,1,0,0:0:0:0:
256,192,74929,1,8,0:0:0:0:
256,192,75010,1,8,0:0:0:0:
256,192,75091,1,0,0:0:0:0:
256,192,75172,1,0,0:0:0:0:
256,192,75253,1,8,0:0:0:0:
256,192,75416,1,8,0:0:0:0:
256,192,75578,1,4,0:0:0:0:
256,192,75902,1,8,0:0:0:0:
256,192,76064,1,4,0:0:0:0:
256,192,76389,1,0,0:0:0:0:
256,192,76551,1,8,0:0:0:0:
256,192,76713,1,4,0:0:0:0:
256,192,77037,1,8,0:0:0:0:
256,192,77199,1,8,0:0:0:0:
256,192,77362,1,4,0:0:0:0:
256,192,77524,1,8,0:0:0:0:
256,192,77605,1,8,0:0:0:0:
256,192,77686,1,8,0:0:0:0:
256,192,77767,1,8,0:0:0:0:
256,192,77848,1,0,0:0:0:0:
256,192,77929,1,0,0:0:0:0:
256,192,78010,1,8,0:0:0:0:
256,192,78091,1,8,0:0:0:0:
256,192,78172,1,0,0:0:0:0:
256,192,78497,1,8,0:0:0:0:
256,192,78659,1,8,0:0:0:0:
256,192,78740,1,8,0:0:0:0:
256,192,78821,1,0,0:0:0:0:
256,192,78983,1,8,0:0:0:0:
256,192,79145,1,0,0:0:0:0:
256,192,79307,1,8,0:0:0:0:
256,192,79470,1,0,0:0:0:0:
256,192,79551,1,0,0:0:0:0:
256,192,79632,1,0,0:0:0:0:
256,192,79794,1,8,0:0:0:0:
256,192,79956,1,0,0:0:0:0:
256,192,80037,1,0,0:0:0:0:
256,192,80118,1,8,0:0:0:0:
256,192,80199,1,0,0:0:0:0:
256,192,80280,1,8,0:0:0:0:
256,192,80443,1,0,0:0:0:0:
256,192,80605,1,0,0:0:0:0:
256,192,80767,1,8,0:0:0:0:
256,192,81091,1,8,0:0:0:0:
256,192,81253,1,0,0:0:0:0:
256,192,81334,1,0,0:0:0:0:
256,192,81416,1,0,0:0:0:0:
256,192,81578,1,8,0:0:0:0:
256,192,81740,1,0,0:0:0:0:
256,192,81902,1,8,0:0:0:0:
256,192,81983,1,8,0:0:0:0:
256,192,82064,1,0,0:0:0:0:
256,192,82226,1,0,0:0:0:0:
256,192,82389,1,8,0:0:0:0:
256,192,82551,1,0,0:0:0:0:
256,192,82632,1,0,0:0:0:0:
256,192,82713,1,8,0:0:0:0:
256,192,82875,1,0,0:0:0:0:
256,192,82956,1,0,0:0:0:0:
256,192,83037,1,8,0:0:0:0:
256,192,83199,1,8,0:0:0:0:
256,192,83362,1,4,0:0:0:0:
256,192,83686,1,0,0:0:0:0:
256,192,83848,1,8,0:0:0:0:
256,192,84010,1,8,0:0:0:0:
256,192,84172,1,0,0:0:0:0:
256,192,84253,1,0,0:0:0:0:
256,192,84334,1,8,0:0:0:0:
256,192,84497,1,8,0:0:0:0:
256,192,84659,1,0,0:0:0:0:
256,192,84740,1,0,0:0:0:0:
256,192,84821,1,0,0:0:0:0:
256,192,84983,1,8,0:0:0:0:
256,192,85145,1,0,0:0:0:0:
256,192,85470,1,0,0:0:0:0:
256,192,85551,1,0,0:0:0:0:
256,192,85632,1,8,0:0:0:0:
256,192,85794,1,8,0:0:0:0:
256,192,85956,1,4,0:0:0:0:
256,192,86118,1,8,0:0:0:0:
256,192,86199,1,8,0:0:0:0:
256,192,86280,1,8,0:0:0:0:
256,192,86443,1,0,0:0:0:0:
256,192,86605,1,8,0:0:0:0:
256,192,86686,1,8,0:0:0:0:
256,192,86767,1,0,0:0:0:0:
256,192,86848,1,0,0:0:0:0:
256,192,86929,1,8,0:0:0:0:
256,192,87091,1,4,0:0:0:0:
256,192,87416,1,0,0:0:0:0:
256,192,87578,1,8,0:0:0:0:
256,192,87740,1,0,0:0:0:0:
256,192,87821,1,0,0:0:0:0:
256,192,87902,1,8,0:0:0:0:
256,192,88064,1,8,0:0:0:0:
256,192,88145,1,8,0:0:0:0:
256,192,88226,1,0,0:0:0:0:
256,192,88307,1,0,0:0:0:0:
256,192,88389,1,8,0:0:0:0:
256,192,88551,1,4,0:0:0:0:
256,192,88713,1,0,0:0:0:0:
256,192,88794,1,0,0:0:0:0:
256,192,88875,1,8,0:0:0:0:
256,192,89037,1,8,0:0:0:0:
256,192,89199,1,0,0:0:0:0:
256,192,89362,1,8,0:0:0:0:
256,192,89524,1,8,0:0:0:0:
256,192,89686,1,4,0:0:0:0:
256,192,90010,1,0,0:0:0:0:
256,192,90172,1,8,0:0:0:0:
256,192,90334,1,0,0:0:0:0:
256,192,90416,1,0,0:0:0:0:
256,192,90497,1,0,0:0:0:0:
256,192,90659,1,0,0:0:0:0:
256,192,90740,1,0,0:0:0:0:
256,192,90821,1,8,0:0:0:0:
256,192,90902,1,0,0:0:0:0:
256,192,90983,1,8,0:0:0:0:
256,192,91145,1,4,0:0:0:0:
256,192,91470,1,8,0:0:0:0:
256,192,91632,1,0,0:0:0:0:
256,192,91713,1,0,0:0:0:0:
256,192,91794,1,8,0:0:0:0:
256,192,91956,1,0,0:0:0:0:
256,192,92118,1,8,0:0:0:0:
256,192,92280,1,0,0:0:0:0:
256,192,92443,1,8,0:0:0:0:
256,192,92524,1,0,0:0:0:0:
256,192,92605,1,8,0:0:0:0:
256,192,92686,1,0,0:0:0:0:
256,192,92767,1,0,0:0:0:0:
256,192,92929,1,8,0:0:0:0:
256,192,93091,1,0,0:0:0:0:
256,192,93172,1,0,0:0:0:0:
256,192,93253,1,8,0:0:0:0:
256,192,93416,1,8,0:0:0:0:
256,192,93578,1,0,0:0:0:0:
256,192,93740,1,4,0:0:0:0:
256,192,93902,1,14,0:0:0:0:
256,192,94226,1,4,0:0:0:0:
256,192,94388,1,14,0:0:0:0:
256,192,94713,1,14,0:0:0:0:
256,192,94875,1,4,0:0:0:0:
256,192,96010,1,0,0:0:0:0:
256,192,96334,1,4,0:0:0:0:
256,192,96497,1,8,0:0:0:0:
256,192,96578,1,8,0:0:0:0:
256,192,96659,1,0,0:0:0:0:
256,192,96821,1,8,0:0:0:0:
256,192,96983,1,0,0:0:0:0:
256,192,97145,1,0,0:0:0:0:
256,192,97226,1,0,0:0:0:0:
256,192,97307,1,0,0:0:0:0:
256,192,97470,1,8,0:0:0:0:
256,192,97794,1,8,0:0:0:0:
256,192,97956,1,0,0:0:0:0:
256,192,98118,1,8,0:0:0:0:
256,192,98280,1,8,0:0:0:0:
256,192,98443,1,0,0:0:0:0:
256,192,98524,1,0,0:0:0:0:
256,192,98605,1,0,0:0:0:0:
256,192,98767,1,8,0:0:0:0:
256,192,98929,1,0,0:0:0:0:
256,192,99091,1,8,0:0:0:0:
256,192,99416,1,8,0:0:0:0:
256,192,99578,1,0,0:0:0:0:
256,192,99659,1,0,0:0:0:0:
256,192,99740,1,8,0:0:0:0:
256,192,99821,1,0,0:0:0:0:
256,192,99902,1,8,0:0:0:0:
256,192,100064,1,0,0:0:0:0:
256,192,100389,1,0,0:0:0:0:
256,192,100551,1,8,0:0:0:0:
256,192,100713,1,8,0:0:0:0:
256,192,100794,1,8,0:0:0:0:
256,192,100875,1,8,0:0:0:0:
256,192,101037,1,0,0:0:0:0:
256,192,101199,1,8,0:0:0:0:
256,192,101362,1,8,0:0:0:0:
256,192,101524,1,4,0:0:0:0:
256,192,101686,1,8,0:0:0:0:
256,192,102010,1,8,0:0:0:0:
256,192,102172,1,0,0:0:0:0:
256,192,102253,1,0,0:0:0:0:
256,192,102334,1,8,0:0:0:0:
256,192,102497,1,0,0:0:0:0:
256,192,102659,1,8,0:0:0:0:
256,192,102821,1,0,0:0:0:0:
256,192,102902,1,0,0:0:0:0:
256,192,102983,1,8,0:0:0:0:
256,192,103145,1,0,0:0:0:0:
256,192,103307,1,8,0:0:0:0:
256,192,103632,1,0,0:0:0:0:
256,192,103794,1,8,0:0:0:0:
256,192,103956,1,8,0:0:0:0:
256,192,104037,1,8,0:0:0:0:
256,192,104118,1,0,0:0:0:0:
256,192,104280,1,8,0:0:0:0:
256,192,104443,1,8,0:0:0:0:
256,192,104605,1,0,0:0:0:0:
256,192,104686,1,0,0:0:0:0:
256,192,104767,1,0,0:0:0:0:
256,192,104929,1,0,0:0:0:0:
256,192,105091,1,8,0:0:0:0:
256,192,105253,1,0,0:0:0:0:
256,192,105578,1,0,0:0:0:0:
256,192,105740,1,8,0:0:0:0:
256,192,105902,1,0,0:0:0:0:
256,192,105983,1,0,0:0:0:0:
256,192,106064,1,8,0:0:0:0:
256,192,106226,1,0,0:0:0:0:
256,192,106389,1,14,0:0:0:0:
256,192,106551,1,8,0:0:0:0:
256,192,106713,1,4,0:0:0:0:
256,192,106875,1,0,0:0:0:0:
256,192,106956,1,0,0:0:0:0:
256,192,107037,1,0,0:0:0:0:
256,192,107199,1,14,0:0:0:0:
256,192,107362,1,8,0:0:0:0:
256,192,107443,1,8,0:0:0:0:
256,192,107524,1,8,0:0:0:0:
256,192,107686,1,4,0:0:0:0:
256,192,107848,1,0,0:0:0:0:
256,192,107929,1,0,0:0:0:0:
256,192,108010,1,0,0:0:0:0:
256,192,108172,1,14,0:0:0:0:
256,192,108334,1,0,0:0:0:0:
256,192,108416,1,0,0:0:0:0:
256,192,108497,1,0,0:0:0:0:
256,192,108659,1,8,0:0:0:0:
256,192,108821,1,4,0:0:0:0:
256,192,109307,1,4,0:0:0:0:
256,192,109470,1,4,0:0:0:0:
256,192,109632,1,8,0:0:0:0:
256,192,109713,1,8,0:0:0:0:
256,192,109794,1,0,0:0:0:0:
256,192,109875,1,0,0:0:0:0:
256,192,109956,1,8,0:0:0:0:
256,192,110037,1,0,0:0:0:0:
256,192,110118,1,0,0:0:0:0:
256,192,110199,1,0,0:0:0:0:
256,192,110280,1,8,0:0:0:0:
256,192,110443,1,4,0:0:0:0:
256,192,110767,1,4,0:0:0:0:
