osu file format v14

[General]
AudioFilename: audio.mp3
AudioLeadIn: 0
PreviewTime: 67632
Countdown: 0
SampleSet: Soft
StackLeniency: 0.7
Mode: 0
LetterboxInBreaks: 0
WidescreenStoryboard: 0

[Editor]
Bookmarks: 67794
DistanceSpacing: 0.4
BeatDivisor: 4
GridSize: 4
TimelineZoom: 1.7

[Metadata]
Title:"Remizera!" ShortVer.
TitleUnicode:「れみぜら!」ShortVer.
Artist:solfa feat.Misato Aki
ArtistUnicode:solfa feat.美郷あき
Creator:ShogunMoon
Version:Garden's Insane
Source:ワールド・エレクション
Tags:world election whirlpool 10th anniversary eroge opening visual novel Garden Kin short version Yakushi Ruri Amagasaki Urara Hashizaki Tooru Nemoto Katsunori
BeatmapID:1311918
BeatmapSetID:619365

[Difficulty]
HPDrainRate:6
CircleSize:4
OverallDifficulty:8
ApproachRate:9
SliderMultiplier:1.6
SliderTickRate:1

[Events]
//Background and Video events
0,0,"insane.jpg",0,0
//Break Periods
//Storyboard Layer 0 (Background)
//Storyboard Layer 1 (Fail)
//Storyboard Layer 2 (Pass)
//Storyboard Layer 3 (Foreground)
//Storyboard Sound Samples

[TimingPoints]
335,324.324324324324,4,2,0,65,1,0
10389,-66.6666666666667,4,2,0,65,0,0
10713,-100,4,2,0,80,0,0
21091,-83.3333333333333,4,2,0,80,0,0
23199,-125,4,2,0,65,0,0
23686,-100,4,2,0,65,0,0
26280,-133.333333333333,4,2,0,65,0,0
26524,-100,4,2,0,5,0,0
26605,-100,4,2,0,65,0,0
36659,-133.333333333333,4,2,0,65,0,0
36902,-100,4,2,0,5,0,0
36983,-100,4,2,0,65,0,0
39253,-83.3333333333333,4,2,0,65,0,0
41199,-100,4,2,0,65,0,0
41848,-83.3333333333333,4,2,0,65,0,0
43956,-111.111111111111,4,2,0,65,0,0
44443,-125,4,2,0,65,0,0
47199,-125,4,2,0,45,0,0
47280,-125,4,2,0,5,0,0
47362,-125,4,2,0,45,0,0
47443,-125,4,2,0,5,0,0
47524,-125,4,2,0,45,0,0
47605,-125,4,2,0,5,0,0
47686,-125,4,2,0,65,0,0
57578,-125,4,2,0,45,0,0
57659,-125,4,2,0,5,0,0
57740,-125,4,2,0,45,0,0
57821,-125,4,2,0,5,0,0
57902,-125,4,2,0,45,0,0
57983,-125,4,2,0,5,0,0
58064,-125,4,2,0,65,0,0
60010,-100,4,2,0,65,0,0
66416,-100,4,2,0,5,0,0
66659,-100,4,2,0,65,0,0
66740,-100,4,2,0,5,0,0
66983,-100,4,2,0,65,0,0
67064,-100,4,2,0,5,0,0
67307,-100,4,2,0,65,0,0
67389,-100,4,2,0,5,0,0
67470,-100,4,2,0,45,0,0
67794,-100,4,2,0,80,0,1
77524,-100,4,2,0,65,0,1
78172,-100,4,2,0,80,0,1
91145,-66.6666666666667,4,2,0,80,0,1
91389,-66.6666666666667,4,2,0,8,0,1
91470,-83.3333333333333,4,2,0,80,0,1
94875,-100,4,2,0,65,0,0
96010,-66.6666666666667,4,2,0,50,0,0
96253,-66.6666666666667,4,2,0,5,0,0
96334,-100,4,2,0,80,0,0
106713,-83.3333333333333,4,2,0,80,0,0
108821,-100,4,2,0,80,0,0
110767,-66.6666666666667,4,2,0,80,0,0
110848,-66.6666666666667,4,2,0,20,0,0

[Colours]
Combo1 : 213,4,4
Combo2 : 159,159,255
Combo3 : 157,51,0
Combo4 : 51,43,159

[HitObjects]
230,264,9416,6,0,P|198:287|158:291,1,80,8|0,0:3|0:0,0:0:0:0:
79,267,9659,1,0,0:0:0:0:
79,267,9740,2,0,L|66:222,1,40,8|0,0:3|0:0,0:0:0:0:
150,87,9902,2,0,L|157:47,1,40,8|0,0:3|0:0,0:0:0:0:
0,173,10064,1,12,1:3:0:0:
21,154,10145,1,0,1:0:0:0:
47,145,10226,1,0,1:0:0:0:
74,144,10307,1,0,1:0:0:0:
100,148,10389,6,0,B|127:159|141:177|141:177|175:159|175:159|225:175|279:147,1,180.000006866455,4|0,1:2|0:0,0:0:0:0:
323,99,10713,6,2,L|316:15,1,80,6|2,0:1|0:1,0:1:0:0:
372,194,11037,1,0,1:0:0:0:
215,61,11199,1,0,0:0:0:0:
422,90,11362,2,0,L|504:70,1,80,2|2,0:0|0:0,0:0:0:0:
316,19,11686,1,0,1:0:0:0:
372,194,11848,6,2,B|382:240|382:240|363:305|363:305|374:361,1,160,2|2,0:1|0:1,0:1:0:0:
457,309,12334,1,0,1:0:0:0:
295,240,12497,1,0,3:0:0:0:
295,240,12578,1,0,3:0:0:0:
295,240,12659,1,2,3:2:0:0:
457,309,12821,1,2,0:0:0:0:
250,356,12983,2,0,P|188:362|140:320,1,120,0|0,1:0|0:0,0:0:0:0:
203,206,13307,6,2,L|211:285,1,80,6|2,0:1|0:1,0:1:0:0:
156,111,13632,1,0,1:0:0:0:
305,201,13794,1,0,0:0:0:0:
103,229,13956,2,0,L|12:219,1,80,2|2,0:0|0:0,0:0:0:0:
211,285,14280,1,0,1:0:0:0:
156,111,14443,6,2,B|191:98|203:73|203:73|211:132|256:152,1,160,6|2,0:1|0:1,0:1:0:0:
302,66,14929,1,0,1:0:0:0:
129,31,15091,1,0,3:0:0:0:
129,31,15172,1,0,3:0:0:0:
129,31,15253,1,2,3:2:0:0:
302,66,15416,1,2,0:0:0:0:
97,174,15578,2,0,P|55:177|15:168,1,80,0|0,1:0|0:0,0:0:0:0:
189,240,15902,5,6,0:1:0:0:
189,240,16064,1,2,0:1:0:0:
96,384,16226,2,0,L|104:290,1,80,0|0,1:0|0:0,0:0:0:0:
192,130,16551,1,2,0:0:0:0:
295,218,16713,1,2,0:0:0:0:
192,130,16875,1,0,1:0:0:0:
265,317,17037,6,2,B|311:318|311:318|338:292|371:288|371:288|402:241,1,160,2|2,0:1|0:1,0:1:0:0:
378,377,17524,1,0,1:0:0:0:
302,226,17686,1,0,3:0:0:0:
302,226,17767,1,0,3:0:0:0:
302,226,17848,1,2,3:2:0:0:
378,377,18010,1,2,0:0:0:0:
477,193,18172,2,0,B|494:154|494:154|479:56,1,120,0|0,1:0|0:0,0:0:0:0:
394,41,18497,6,2,L|408:121,1,80,6|2,0:1|0:1,0:1:0:0:
444,286,18821,1,0,1:0:0:0:
308,231,18983,1,0,3:0:0:0:
308,231,19064,1,0,3:0:0:0:
308,231,19145,1,2,3:2:0:0:
477,193,19307,1,2,0:0:0:0:
409,376,19470,1,0,1:0:0:0:
213,276,19632,6,2,B|201:259|200:227|200:227|214:200|215:172|215:172|203:155|193:121,1,160,6|2,0:1|0:1,0:1:0:0:
308,231,20118,1,0,1:0:0:0:
131,334,20280,1,0,3:0:0:0:
131,334,20362,1,0,3:0:0:0:
131,334,20443,1,2,3:2:0:0:
308,231,20605,1,2,0:0:0:0:
115,176,20767,2,0,P|76:182|40:203,1,80,0|0,1:0|0:0,0:0:0:0:
137,74,21091,5,4,1:2:0:0:
137,74,21253,1,8,0:3:0:0:
169,269,21416,1,8,0:3:0:0:
233,23,21578,2,0,B|248:56|248:56|239:89|239:89|262:150|220:132|242:207,1,191.999994140625,4|4,1:2|0:3,0:0:0:0:
344,90,22064,5,4,1:2:0:0:
344,90,22226,1,8,0:3:0:0:
145,172,22389,1,8,0:3:0:0:
311,267,22551,2,0,B|262:253|241:207|241:207|215:259|169:269,1,191.999994140625,4|4,1:2|0:3,0:0:0:0:
333,171,23037,1,0,1:0:0:0:
284,356,23199,6,0,P|342:356|395:305,1,128,4|0,1:2|0:0,0:0:0:0:
194,350,23686,6,0,B|114:334|129:406|23:381,1,160,4|0,0:1|1:0,0:0:0:0:
169,268,24172,2,0,P|195:270|220:276,2,40,0|0|0,3:0|3:0|3:0,0:0:0:0:
62,293,24497,2,0,L|48:204,1,80,2|0,0:0|1:0,0:0:0:0:
85,109,24821,1,2,0:0:0:0:
85,109,25145,6,0,P|133:99|175:110,1,80,2|0,0:0|1:0,0:0:0:0:
247,169,25470,2,0,L|245:213,2,40,0|0|0,3:0|3:0|3:0,0:0:0:0:
344,125,25794,1,2,0:0:0:0:
361,47,25956,2,0,P|349:92|343:134,1,80,0|0,1:0|0:0,0:0:0:0:
493,247,26280,6,0,B|509:204|509:204|509:157,1,90.0000034332277,2|0,0:0|0:0,0:0:0:0:
509,160,26605,6,0,P|467:163|423:185,1,80,0|0,1:0|0:0,0:0:0:0:
371,226,26848,1,0,3:0:0:0:
371,226,26929,1,2,3:2:0:0:
498,275,27091,1,0,0:0:0:0:
392,361,27253,1,0,1:0:0:0:
266,321,27416,1,2,0:0:0:0:
266,321,27740,6,0,L|249:236,1,80,2|0,0:0|1:0,0:0:0:0:
124,290,28064,2,0,L|163:285,2,40,0|0|0,3:0|3:0|3:0,0:0:0:0:
223,153,28389,2,0,P|270:151|310:167,1,80,2|0,0:0|1:0,0:0:0:0:
135,198,28713,1,4,0:3:0:0:
135,198,28794,1,4,0:3:0:0:
135,198,28875,6,0,B|103:122|163:126|128:38,2,160,4|0|4,1:2|1:0|0:3,0:0:0:0:
46,88,29686,1,4,0:3:0:0:
223,153,29848,2,0,P|264:151|299:133,1,80,0|0,1:0|3:0,0:0:0:0:
345,76,30091,1,0,3:0:0:0:
345,76,30172,5,4,0:3:0:0:
284,239,30334,1,4,0:3:0:0:
462,196,30497,2,0,P|474:156|467:111,1,80,0|0,1:0|3:0,0:0:0:0:
445,50,30740,1,0,3:0:0:0:
445,50,30821,1,4,0:3:0:0:
378,149,30983,1,4,0:3:0:0:
446,289,31145,2,0,P|458:331|451:381,1,80,0|0,1:0|0:0,0:0:0:0:
284,239,31470,6,0,L|367:234,1,80,2|0,0:0|0:0,0:0:0:0:
462,196,31794,1,0,1:0:0:0:
340,344,31956,1,0,3:0:0:0:
340,344,32037,1,0,3:0:0:0:
340,344,32118,2,0,L|251:344,1,80,2|2,3:2|0:0,0:0:0:0:
455,366,32443,1,0,1:0:0:0:
363,234,32605,1,2,0:0:0:0:
445,50,32767,5,6,0:0:0:0:
445,50,32929,1,6,0:0:0:0:
331,93,33253,5,0,1:0:0:0:
256,4,33578,5,0,1:0:0:0:
445,50,33740,1,4,1:2:0:0:
338,100,33902,1,0,1:0:0:0:
338,100,33983,1,0,1:0:0:0:
338,100,34064,6,0,P|296:173|322:267,1,160,4|0,1:2|1:0,0:0:0:0:
393,187,34551,1,0,0:0:0:0:
224,101,34713,2,0,L|138:109,1,80,2|0,0:0|0:0,0:0:0:0:
282,13,35037,1,0,1:0:0:0:
171,204,35199,1,2,0:0:0:0:
171,204,35524,6,0,P|162:252|170:283,1,80,2|0,0:0|1:0,0:0:0:0:
339,371,35848,1,0,3:0:0:0:
339,371,35929,1,0,3:0:0:0:
339,371,36010,1,2,3:2:0:0:
259,242,36172,1,0,0:0:0:0:
152,372,36334,2,0,P|197:370|232:348,1,80,0|0,1:0|0:0,0:0:0:0:
67,334,36659,6,0,B|36:342|-11:340|-11:340|7:353,1,90.0000034332277,2|0,0:0|0:0,0:0:0:0:
67,334,36983,6,0,L|53:238,1,80,0|0,1:0|0:0,0:0:0:0:
45,181,37226,1,0,3:0:0:0:
45,181,37307,1,2,3:2:0:0:
182,98,37470,1,0,0:0:0:0:
76,27,37632,1,0,1:0:0:0:
154,197,37794,6,0,P|252:171|283:100,1,160,2|2,0:0|0:0,0:0:0:0:
288,6,38280,1,0,1:0:0:0:
189,105,38443,1,0,3:0:0:0:
189,105,38524,1,0,3:0:0:0:
189,105,38605,1,2,3:2:0:0:
372,80,38767,1,0,0:0:0:0:
293,243,38929,1,0,1:0:0:0:
476,129,39091,1,8,0:3:0:0:
476,129,39172,1,8,0:3:0:0:
476,129,39253,6,0,P|484:76|476:29,1,95.9999970703126,4|2,1:2|0:0,0:0:0:0:
502,252,39578,1,0,1:0:0:0:
332,151,39740,2,0,B|242:126|237:193|138:160,1,191.999994140625,4|2,0:0|0:0,0:0:0:0:
191,59,40226,1,0,1:0:0:0:
400,234,40389,6,0,P|436:143|380:55,1,191.999994140625,4|2,0:0|0:0,0:0:0:0:
293,243,40875,2,0,P|280:289|289:341,1,95.9999970703126,0|0,1:0|0:0,0:0:0:0:
475,365,41199,2,0,L|395:377,1,80,8|0,0:3|0:0,0:0:0:0:
387,300,41443,1,0,1:0:0:0:
387,300,41524,2,0,L|480:287,1,80,4|0,1:3|0:0,0:0:0:0:
510,218,41767,1,0,1:0:0:0:
510,218,41848,6,0,P|520:171|510:118,1,95.9999970703126,4|0,1:2|0:0,0:0:0:0:
444,0,42172,1,0,1:0:0:0:
413,168,42334,1,0,3:0:0:0:
413,168,42416,1,0,3:0:0:0:
413,168,42497,1,2,3:2:0:0:
284,53,42659,1,2,0:0:0:0:
512,124,42821,1,0,1:0:0:0:
232,147,42983,5,6,0:0:0:0:
274,241,43307,5,6,0:0:0:0:
212,331,43632,5,0,1:0:0:0:
232,147,43794,1,8,0:3:0:0:
274,241,43956,2,0,P|187:237|138:183,1,143.999995605469,6|0,0:0|0:0,0:0:0:0:
350,180,44443,6,0,B|426:177|400:225|488:218,1,128,4|2,1:2|0:0,0:0:0:0:
358,273,44929,2,0,P|349:301|350:337,1,64,0|0,0:0|1:0,0:0:0:0:
101,384,45416,1,2,0:0:0:0:
181,343,45578,6,0,P|215:339|244:344,1,64,2|0,1:0|0:0,0:0:0:0:
114,282,45902,2,0,P|85:281|42:299,1,64,2|2,1:0|0:0,0:0:0:0:
183,224,46226,1,0,0:0:0:0:
113,163,46389,2,0,L|118:35,1,128,0|2,1:0|0:0,0:0:0:0:
203,0,46875,1,0,0:0:0:0:
23,62,47037,1,4,0:0:0:0:
229,100,47199,6,0,L|267:94,1,32,2|0,0:1|0:0,0:0:0:0:
144,159,47362,2,0,L|96:165,1,32,2|0,0:1|0:0,0:0:0:0:
235,203,47524,2,0,L|276:197,1,32,2|0,1:1|0:0,0:0:0:0:
152,257,47686,6,0,P|142:289|146:326,1,64,0|0,1:0|0:0,0:0:0:0:
227,373,48010,2,0,L|304:365,1,64,2|0,0:0|1:0,0:0:0:0:
456,326,48334,1,0,0:0:0:0:
456,326,48497,1,2,0:0:0:0:
379,376,48659,2,0,P|366:347|363:311,1,64,0|0,1:0|0:0,0:0:0:0:
446,96,48983,5,8,1:3:0:0:
475,180,49145,1,4,1:3:0:0:
386,168,49307,1,8,0:3:0:0:
420,251,49470,1,4,0:3:0:0:
287,305,49632,6,0,P|223:311|166:270,1,128,4|2,1:2|0:0,0:0:0:0:
94,169,50118,2,0,L|87:232,1,64,0|0,0:0|1:0,0:0:0:0:
40,40,50605,1,2,0:0:0:0:
120,79,50767,6,0,P|161:76|204:63,1,64,2|0,1:0|0:0,0:0:0:0:
325,92,51091,2,0,P|294:97|264:108,1,64,2|2,1:0|0:0,0:0:0:0:
192,162,51416,1,0,0:0:0:0:
239,238,51578,2,0,L|235:378,1,128,0|2,1:0|0:0,0:0:0:0:
147,350,52064,1,0,0:0:0:0:
328,279,52226,6,0,L|392:284,1,64,2|0,0:3|0:0,0:0:0:0:
491,294,52551,1,2,0:0:0:0:
491,294,52713,1,0,1:0:0:0:
368,199,52875,2,0,L|374:125,1,64,0|0,1:0|0:0,0:0:0:0:
382,45,53199,1,2,0:0:0:0:
382,45,53362,1,4,0:3:0:0:
275,151,53524,5,8,0:3:0:0:
262,152,53605,1,8,0:3:0:0:
249,154,53686,1,4,0:3:0:0:
236,155,53767,1,4,0:3:0:0:
223,157,53848,1,4,0:0:0:0:
302,258,54010,5,8,0:3:0:0:
314,257,54091,1,8,0:3:0:0:
326,255,54172,1,4,0:3:0:0:
338,253,54253,1,4,0:3:0:0:
350,251,54334,1,4,0:0:0:0:
373,135,54497,5,8,0:3:0:0:
446,281,54659,1,8,0:3:0:0:
467,194,54821,6,0,P|402:205|358:260,1,128,4|2,1:2|0:0,0:0:0:0:
297,374,55307,2,0,P|327:364|352:344,1,64,0|0,0:0|1:0,0:0:0:0:
174,367,55794,1,2,0:0:0:0:
93,328,55956,6,0,P|61:322|27:325,1,64,2|0,1:0|0:0,0:0:0:0:
167,280,56280,2,0,P|169:250|163:211,1,64,2|2,1:0|0:0,0:0:0:0:
45,64,56605,1,0,0:0:0:0:
7,158,56767,2,0,B|53:163|53:163|141:137,1,128,0|2,1:0|0:0,0:0:0:0:
221,123,57253,1,0,0:0:0:0:
96,235,57416,1,4,0:0:0:0:
288,208,57578,6,0,L|296:164,1,32,2|0,0:1|0:0,0:0:0:0:
203,239,57740,2,0,L|198:274,1,32,2|0,0:1|0:0,0:0:0:0:
272,321,57902,2,0,L|278:283,1,32,2|0,1:1|0:0,0:0:0:0:
186,349,58064,6,0,P|148:348|110:346,1,64,0|0,1:0|0:0,0:0:0:0:
288,208,58389,2,0,P|324:207|365:210,1,64,2|0,0:0|1:0,0:0:0:0:
512,254,58713,1,0,0:0:0:0:
512,254,58875,1,2,0:0:0:0:
448,183,59037,2,0,L|441:92,1,64,0|0,1:0|0:0,0:0:0:0:
476,0,59362,5,8,1:3:0:0:
354,130,59524,1,4,1:3:0:0:
378,10,59686,1,8,0:3:0:0:
448,183,59848,1,4,0:3:0:0:
278,22,60010,6,0,P|214:10|146:84,1,160,4|0,1:2|1:0,0:0:0:0:
132,177,60497,1,2,0:0:0:0:
238,106,60659,1,4,0:3:0:0:
238,106,60821,1,4,0:3:0:0:
49,41,60983,2,0,P|46:88|55:121,1,80,0|0,1:0|0:0,0:0:0:0:
244,213,61307,6,0,B|289:210|314:179|314:179|346:212|410:212,1,160,4|0,0:0|1:0,0:0:0:0:
445,306,61794,1,2,0:0:0:0:
317,287,61956,1,4,0:3:0:0:
317,287,62118,1,4,0:3:0:0:
453,136,62280,2,0,P|478:175|485:221,1,80,0|0,1:0|0:0,0:0:0:0:
239,356,62605,6,0,P|212:284|244:213,1,160,4|0,0:0|1:0,0:0:0:0:
317,287,63091,1,2,0:0:0:0:
130,368,63253,2,0,P|87:368|36:337,1,80,4|4,0:3|0:3,0:0:0:0:
12,160,63578,1,0,1:0:0:0:
112,274,63740,1,4,0:3:0:0:
112,274,64064,5,4,0:3:0:0:
168,185,64226,2,0,P|171:143|156:98,1,80,0|2,1:0|0:0,0:0:0:0:
92,35,64551,1,4,0:3:0:0:
92,35,64713,1,4,0:3:0:0:
262,118,64875,1,0,1:0:0:0:
262,118,65199,6,0,L|302:110,2,40,8|8|8,0:3|0:3|0:3,0:0:0:0:
77,154,65524,1,6,0:0:0:0:
286,227,65686,6,0,L|330:218,2,40,8|8|8,0:3|0:3|0:3,0:0:0:0:
97,264,66010,1,6,0:0:0:0:
209,318,66172,1,8,0:3:0:0:
77,154,66334,6,0,P|71:133|68:102,1,40,0|0,1:0|0:0,0:0:0:0:
97,264,66659,2,0,P|76:266|50:264,1,40,0|0,1:0|0:0,0:0:0:0:
209,318,66983,2,0,P|195:344|178:366,1,40,4|0,1:2|0:0,0:0:0:0:
286,227,67307,2,0,P|305:243|318:263,1,40,0|0,1:0|0:0,0:0:0:0:
357,343,67470,5,2,0:0:0:0:
469,32,67794,6,0,P|390:33|344:92,1,160,4|0,1:2|1:0,0:0:0:0:
428,157,68280,2,0,L|433:118,2,40,0|0|0,3:0|3:0|3:0,0:0:0:0:
286,227,68605,2,0,P|245:231|195:214,1,80,2|0,0:0|1:0,0:0:0:0:
114,162,68929,1,2,0:0:0:0:
255,128,69091,5,4,0:3:0:0:
255,128,69253,1,4,0:3:0:0:
122,255,69416,1,0,1:0:0:0:
162,67,69578,1,0,0:0:0:0:
286,227,69740,2,0,P|289:272|275:314,1,80,2|0,1:2|0:0,0:0:0:0:
42,261,70064,2,0,L|141:253,1,80,2|0,1:2|0:0,0:0:0:0:
255,128,70389,6,0,L|430:139,1,160,4|0,0:0|1:0,0:0:0:0:
512,64,70875,2,0,L|461:60,2,40,0|0|0,3:0|3:0|3:0,0:0:0:0:
362,6,71199,2,0,P|348:47|350:85,1,80,2|0,0:0|1:0,0:0:0:0:
512,206,71524,1,2,0:0:0:0:
476,64,71686,5,4,0:3:0:0:
476,64,71848,1,4,0:3:0:0:
330,194,72010,6,0,P|375:192|421:163,1,80,4|0,1:2|0:0,0:0:0:0:
255,32,72334,2,0,L|242:128,1,80,4|0,1:2|0:0,0:0:0:0:
447,69,72659,2,0,L|405:-4,1,80,4|8,1:2|0:3,0:0:0:0:
349,83,72902,1,8,0:3:0:0:
349,83,72983,6,0,L|380:242,1,160,4|0,1:2|1:0,0:0:0:0:
246,204,73470,1,0,3:0:0:0:
246,204,73551,1,0,3:0:0:0:
246,204,73632,2,0,P|203:191|160:194,1,80,0|0,3:0|0:0,0:0:0:0:
294,303,73956,1,0,1:0:0:0:
183,376,74118,1,0,3:0:0:0:
183,376,74199,1,0,3:0:0:0:
183,376,74280,6,0,L|194:286,1,80,0|0,3:0|0:0,0:0:0:0:
223,102,74605,1,0,1:0:0:0:
294,303,74767,1,2,0:0:0:0:
168,192,74929,2,0,P|146:188|119:187,2,40,0|0|0,3:0|3:0|3:0,0:0:0:0:
294,303,75253,2,0,P|338:309|385:297,1,80,0|0,1:0|0:0,0:0:0:0:
414,99,75578,6,0,L|402:232,1,120,4|0,1:2|0:0,0:0:0:0:
403,218,75902,1,0,1:0:0:0:
489,44,76064,6,0,P|421:5|348:32,1,160,4|2,1:2|0:0,0:0:0:0:
512,133,76551,1,0,1:0:0:0:
402,257,76713,6,0,L|414:98,1,160,4|2,1:2|0:0,0:0:0:0:
511,226,77199,2,0,L|504:308,1,80,0|4,1:0|0:0,0:0:0:0:
258,262,77524,6,0,L|311:265,1,40,0|0,1:0|1:0,0:0:0:0:
459,377,77686,2,0,L|411:374,1,40,0|0,1:0|1:0,0:0:0:0:
362,211,77848,1,0,1:0:0:0:
379,247,77929,1,0,1:0:0:0:
376,286,78010,1,0,1:0:0:0:
358,321,78091,1,0,1:0:0:0:
326,345,78172,6,0,B|244:343|244:343|209:357|209:357|155:356,1,160,4|0,1:2|1:0,0:0:0:0:
178,226,78659,2,0,L|184:269,2,40,0|0|0,3:0|3:0|3:0,0:0:0:0:
13,292,78983,2,0,L|92:294,1,80,2|0,0:0|1:0,0:0:0:0:
277,222,79307,1,2,0:0:0:0:
71,191,79470,5,4,0:3:0:0:
71,191,79632,1,4,0:3:0:0:
221,365,79794,1,0,1:0:0:0:
178,226,79956,1,2,0:0:0:0:
13,292,80118,2,0,L|9:334,2,40,0|0|0,3:1|1:0|3:0,0:0:0:0:
71,191,80443,2,0,P|83:150|74:92,1,80,0|2,1:0|0:0,0:0:0:0:
21,39,80767,6,0,P|86:82|164:76,1,160,4|0,0:0|1:0,0:0:0:0:
305,104,81253,2,0,L|265:110,2,40,0|0|0,3:0|3:0|3:0,0:0:0:0:
176,250,81578,2,0,P|171:210|178:171,1,80,2|0,0:0|1:0,0:0:0:0:
290,215,81902,1,2,0:0:0:0:
155,347,82064,5,4,0:3:0:0:
155,347,82226,1,4,0:3:0:0:
290,215,82389,6,0,P|331:198|388:198,1,80,4|0,1:2|0:0,0:0:0:0:
284,384,82713,2,0,L|235:308,1,80,4|0,1:2|0:0,0:0:0:0:
459,273,83037,2,0,L|434:368,1,80,4|8,1:2|0:3,0:0:0:0:
353,295,83280,1,8,0:3:0:0:
353,295,83362,6,0,L|309:125,1,160,4|0,1:2|1:0,0:0:0:0:
448,16,83848,1,0,3:0:0:0:
448,16,83929,1,0,3:0:0:0:
448,16,84010,1,8,3:0:0:0:
409,169,84172,1,4,0:3:0:0:
259,59,84334,2,0,P|304:44|337:47,1,80,0|0,1:0|0:0,0:0:0:0:
488,107,84659,5,4,0:3:0:0:
488,107,84821,1,4,0:3:0:0:
306,219,84983,2,0,L|312:140,1,80,0|0,1:0|0:0,0:0:0:0:
480,198,85307,2,0,L|432:197,2,40,0|0|0,3:0|3:0|3:0,0:0:0:0:
335,46,85632,1,0,1:0:0:0:
488,107,85794,1,2,0:0:0:0:
306,219,85956,6,0,L|311:128,1,80,4|0,0:0|0:0,0:0:0:0:
218,10,86280,1,0,1:0:0:0:
45,108,86443,2,0,L|145:94,1,80,4|0,1:2|0:0,0:0:0:0:
311,139,86767,2,0,L|221:153,1,80,4|0,1:2|1:0,0:0:0:0:
127,364,87091,6,0,P|164:305|137:214,1,160,4|2,1:2|0:0,0:0:0:0:
67,284,87578,1,0,1:0:0:0:
247,365,87740,1,0,0:0:0:0:
374,219,87902,2,0,L|367:131,1,80,8|0,0:3|0:0,0:0:0:0:
289,274,88226,1,0,1:0:0:0:
462,179,88389,1,2,0:0:0:0:
470,360,88551,6,0,P|436:361|389:342,1,80,4|0,0:0|0:0,0:0:0:0:
289,274,88875,1,0,1:0:0:0:
462,179,89037,2,0,L|450:258,1,80,4|0,1:2|0:0,0:0:0:0:
378,113,89362,2,0,L|374:27,1,80,4|0,1:2|0:0,0:0:0:0:
462,179,89686,6,0,P|386:217|305:189,1,160,4|2,1:2|0:0,0:0:0:0:
244,14,90172,1,0,1:0:0:0:
378,113,90334,1,2,0:0:0:0:
199,248,90497,1,8,1:3:0:0:
222,120,90659,5,0,1:0:0:0:
222,120,90740,1,0,1:0:0:0:
222,120,90821,2,0,L|229:168,1,40,12|0,1:3|0:0,0:0:0:0:
331,307,90983,2,0,L|329:348,1,40,4|0,1:3|0:0,0:0:0:0:
369,220,91145,6,0,B|303:218|303:218|254:250|254:250|186:247,1,180.000006866455,4|0,1:2|0:0,0:0:0:0:
116,88,91470,6,0,L|134:185,1,95.9999970703126,0|0,1:0|0:0,0:0:0:0:
26,338,91794,2,0,P|6:299|5:226,1,95.9999970703126,0|0,1:0|0:0,0:0:0:0:
279,179,92118,2,0,P|299:227|299:280,1,95.9999970703126,0|0,1:0|0:0,0:0:0:0:
104,268,92443,6,0,L|197:247,1,95.9999970703126,4|0,1:2|0:0,0:0:0:0:
451,95,92767,2,0,L|357:116,1,95.9999970703126,0|0,1:0|0:0,0:0:0:0:
382,307,93091,2,0,P|386:260|373:214,1,95.9999970703126,0|0,1:0|0:0,0:0:0:0:
165,55,93416,2,0,P|164:102|180:148,1,95.9999970703126,0|8,1:0|0:3,0:0:0:0:
279,179,93659,1,8,0:3:0:0:
279,179,93740,5,4,1:2:0:0:
37,99,93902,1,0,1:0:0:0:
357,116,94226,5,4,1:2:0:0:
104,268,94389,1,0,1:0:0:0:
382,307,94713,5,4,1:2:0:0:
179,147,94875,1,4,1:2:0:0:
367,333,96010,6,0,P|438:354|419:278,1,180.000006866455,4|0,0:3|0:0,0:0:0:0:
306,203,96334,6,2,L|303:283,1,80,6|2,0:1|0:1,0:1:0:0:
236,131,96659,1,0,1:0:0:0:
403,195,96821,1,0,0:0:0:0:
201,246,96983,2,0,L|112:233,1,80,2|2,0:0|0:0,0:0:0:0:
303,282,97307,1,0,1:0:0:0:
154,339,97470,6,2,B|93:331|93:331|51:308|51:308|-3:302,1,160,2|2,0:1|0:1,0:1:0:0:
85,113,97956,1,0,1:0:0:0:
127,239,98118,1,0,3:0:0:0:
127,239,98199,1,0,3:0:0:0:
127,239,98280,1,2,3:2:0:0:
0,210,98443,1,2,0:0:0:0:
208,148,98605,2,0,P|261:148|316:201,1,120,0|0,1:0|0:0,0:0:0:0:
245,307,98929,6,2,L|237:228,1,80,6|2,0:1|0:1,0:1:0:0:
312,384,99253,1,0,1:0:0:0:
141,281,99416,1,0,0:0:0:0:
344,291,99578,2,0,L|431:273,1,80,2|2,0:0|0:0,0:0:0:0:
461,83,99902,1,0,1:0:0:0:
356,194,100064,6,2,B|411:179|411:179|467:186|467:186|529:172,1,160,6|2,0:1|0:1,0:1:0:0:
422,274,100551,1,0,1:0:0:0:
305,132,100713,1,0,3:0:0:0:
305,132,100794,1,0,3:0:0:0:
305,132,100875,1,2,3:2:0:0:
422,274,101037,1,2,0:0:0:0:
461,83,101199,2,0,P|464:45|446:-6,1,80,0|0,1:0|0:0,0:0:0:0:
306,34,101524,5,6,0:1:0:0:
306,34,101686,1,2,0:1:0:0:
434,190,101848,2,0,L|512:175,1,80,0|0,1:0|0:0,0:0:0:0:
337,207,102172,1,2,0:0:0:0:
461,83,102334,1,2,0:0:0:0:
337,207,102497,1,0,1:0:0:0:
190,119,102659,6,2,B|142:97|142:97|39:148,1,160,2|2,0:1|0:1,0:1:0:0:
55,336,103145,1,0,1:0:0:0:
153,209,103307,1,0,3:0:0:0:
153,209,103389,1,0,3:0:0:0:
153,209,103470,1,2,3:2:0:0:
0,250,103632,1,2,0:0:0:0:
227,282,103794,2,0,B|362:258,1,120,0|0,1:0|0:0,0:0:0:0:
406,384,104118,6,2,B|399:345|399:345|409:305,1,80,6|2,0:1|0:1,0:1:0:0:
512,154,104443,1,0,1:0:0:0:
499,355,104605,1,0,3:0:0:0:
499,355,104686,1,0,3:0:0:0:
499,355,104767,1,2,3:2:0:0:
352,183,104929,1,2,0:0:0:0:
507,250,105091,1,0,1:0:0:0:
293,344,105253,6,2,B|246:364|246:364|217:348|217:348|177:367|142:362,1,160,6|2,0:1|0:1,0:1:0:0:
0,353,105740,1,0,1:0:0:0:
167,276,105902,1,0,3:0:0:0:
167,276,105983,1,0,3:0:0:0:
167,276,106064,1,2,3:2:0:0:
4,142,106226,1,2,0:0:0:0:
8,259,106389,2,0,P|47:252|81:231,1,80,0|0,1:0|0:0,0:0:0:0:
145,36,106713,5,4,1:2:0:0:
145,36,106875,1,8,0:3:0:0:
4,142,107037,1,8,0:3:0:0:
194,221,107199,2,0,B|290:257|287:186|385:221,1,191.999994140625,4|4,1:2|0:3,0:0:0:0:
245,136,107686,5,4,1:2:0:0:
245,136,107848,1,8,0:3:0:0:
331,305,108010,1,8,0:3:0:0:
278,36,108172,2,0,P|186:48|142:130,1,191.999994140625,4|4,1:2|0:3,0:0:0:0:
348,137,108659,1,0,1:0:0:0:
238,295,108821,6,0,L|245:119,1,160,4|0,1:2|0:0,0:0:0:0:
438,44,109307,5,4,1:2:0:0:
438,44,109470,1,4,1:2:0:0:
387,141,109632,5,12,1:3:0:0:
387,141,109713,1,12,1:3:0:0:
387,141,109794,2,0,L|338:135,1,40,8|4,0:3|0:3,0:0:0:0:
243,21,109956,1,8,1:3:0:0:
243,21,110037,1,8,1:3:0:0:
243,21,110118,2,0,L|295:26,1,40,8|4,0:3|0:3,0:0:0:0:
438,44,110280,5,0,1:0:0:0:
244,135,110443,1,4,1:2:0:0:
506,190,110767,6,0,B|513:152|513:152|509:130,1,60.0000022888184,4|0,1:2|0:0,0:0:0:0:
