osu file format v14

[General]
AudioFilename: audio.mp3
AudioLeadIn: 0
PreviewTime: 67632
Countdown: 0
SampleSet: Soft
StackLeniency: 0.7
Mode: 0
LetterboxInBreaks: 0
WidescreenStoryboard: 0

[Editor]
DistanceSpacing: 1
BeatDivisor: 4
GridSize: 32
TimelineZoom: 2.2

[Metadata]
Title:"Remizera!" ShortVer.
TitleUnicode:「れみぜら!」ShortVer.
Artist:solfa feat.Misato Aki
ArtistUnicode:solfa feat.美郷あき
Creator:ShogunMoon
Version:Normal
Source:ワールド・エレクション
Tags:world election whirlpool 10th anniversary eroge opening visual novel Garden Kin short version Yakushi Ruri Amagasaki Urara Hashizaki Tooru Nemoto Katsunori
BeatmapID:1305516
BeatmapSetID:619365

[Difficulty]
HPDrainRate:4
CircleSize:3.3
OverallDifficulty:5
ApproachRate:5
SliderMultiplier:1
SliderTickRate:1

[Events]
//Background and Video events
0,0,"normal.jpg",0,0
//Break Periods
//Storyboard Layer 0 (Background)
//Storyboard Layer 1 (Fail)
//Storyboard Layer 2 (Pass)
//Storyboard Layer 3 (Foreground)
//Storyboard Sound Samples

[TimingPoints]
335,324.324324324324,4,2,1,35,1,0
9416,-100,4,2,1,50,0,0
10713,-100,4,2,1,65,0,0
23686,-100,4,2,1,50,0,0
28875,-100,4,2,0,60,0,0
34064,-100,4,2,1,50,0,0
39253,-100,4,2,0,60,0,0
44443,-100,4,2,1,55,0,0
60010,-100,4,2,1,60,0,0
65199,-100,4,2,1,65,0,0
67794,-100,4,2,1,80,0,1
85956,-100,4,2,1,65,0,1
91145,-100,4,2,1,80,0,1
95037,-100,4,2,1,40,0,0
96010,-100,4,2,0,20,0,0
96334,-100,4,2,1,65,0,0
109307,-100,4,2,1,50,0,0
110767,-100,4,2,1,40,0,0

[Colours]
Combo1 : 213,4,4
Combo2 : 159,159,255
Combo3 : 157,51,0
Combo4 : 51,43,159

[HitObjects]
88,213,335,5,0,0:0:0:0:
88,213,497,2,0,L|95:270,2,50
122,176,983,2,0,L|128:126,1,50,8|8,1:0|1:0,0:0:0:0:
218,84,1470,2,0,L|206:18,2,50
252,120,1956,2,0,L|246:178,1,50,8|8,1:0|1:0,0:0:0:0:
288,260,2443,2,0,P|336:271|401:258,1,100
460,197,3091,6,0,L|452:128,2,50,0|8|8,0:0|1:0|1:0,0:0:0:0:
491,235,3578,2,0,L|484:304,1,50
410,350,4064,2,0,P|361:359|299:349,1,100
221,308,4713,2,0,L|225:188,1,100,8|0,1:0|0:0,0:0:0:0:
198,165,5199,1,8,1:0:0:0:
198,165,5362,1,0,0:0:0:0:
105,127,5686,6,0,L|111:58,2,50,0|8|8,0:0|1:0|1:0,0:0:0:0:
74,166,6172,2,0,L|80:228,1,50
142,293,6659,2,0,L|135:353,2,50
182,263,7145,2,0,L|243:267,1,50,8|8,1:0|1:0,0:0:0:0:
316,313,7632,2,0,L|418:305,1,100
460,215,8280,6,8,L|530:220,2,50,0|8|8,0:0|1:0|1:0,0:0:0:0:
425,178,8767,2,0,L|365:172,1,50
275,178,9253,1,0,0:0:0:0:
275,178,9416,2,0,P|268:128|248:82,1,100,8|8,0:3|1:0,0:0:0:0:
199,70,9902,2,0,L|208:6,2,50,8|8|8,1:0|0:0|0:0,0:0:0:0:
157,98,10389,1,4,1:2:0:0:
96,177,10713,6,0,L|103:283,1,100,6|8,0:1|0:0,0:0:0:0:
133,315,11199,2,0,P|183:328|246:313,1,100
273,294,11686,1,8,0:0:0:0:
308,258,11848,2,2,L|298:142,1,100,2|2,0:1|0:1,0:1:0:0:
250,71,12497,2,0,B|298:55|298:55|347:69,1,100,0|2,0:0|0:0,0:0:0:0:
392,86,12983,1,8,0:0:0:0:
469,148,13307,6,0,L|463:266,1,100,6|8,0:1|0:0,0:0:0:0:
462,298,13794,2,0,B|429:314|429:314|348:295,1,100,0|2,0:0|0:0,0:0:0:0:
321,281,14280,1,8,0:0:0:0:
278,255,14443,2,2,L|163:261,1,100,6|2,0:1|0:1,0:1:0:0:
86,221,15091,2,0,P|74:171|90:113,1,100,0|2,0:0|0:0,0:0:0:0:
123,92,15578,1,8,0:0:0:0:
218,122,15902,6,0,L|327:116,1,100,6|8,0:1|0:0,0:0:0:0:
360,143,16389,2,0,P|369:191|353:248,1,100,0|2,0:0|0:0,0:0:0:0:
343,288,16875,1,8,0:0:0:0:
323,334,17037,2,2,B|372:346|372:346|434:334,1,100,2|2,0:1|0:1,0:1:0:0:
501,277,17686,2,0,L|492:170,1,100,0|2,0:0|0:0,0:0:0:0:
458,141,18172,1,8,0:0:0:0:
381,76,18497,6,0,P|334:65|276:77,1,100,6|8,0:1|0:0,0:0:0:0:
243,103,18983,2,0,L|126:93,1,100,0|2,0:0|0:0,0:0:0:0:
115,136,19470,1,8,0:0:0:0:
95,181,19632,2,2,B|88:226|88:226|102:284,1,100,6|2,0:1|0:1,0:1:0:0:
180,339,20280,2,0,B|299:331,1,100,0|2,0:0|0:0,0:0:0:0:
328,320,20767,1,8,0:0:0:0:
370,229,21091,6,0,L|219:214,1,150,8|4,1:2|1:2,0:0:0:0:
120,102,22064,2,0,L|285:85,1,150,4|4,1:2|1:2,0:0:0:0:
399,12,23037,2,0,L|453:18,1,50,8|4,0:0|1:2,0:0:0:0:
500,158,23686,6,0,L|490:273,1,100,4|8,0:1|0:0,0:0:0:0:
410,316,24334,2,0,P|361:327|291:311,1,100,0|8,0:0|0:0,0:0:0:0:
271,292,24821,2,0,L|261:174,1,100,2|2,0:0|0:0,0:0:0:0:
235,150,25307,1,8,0:0:0:0:
155,89,25632,2,0,P|107:78|36:92,1,100,0|8,0:0|0:0,0:0:0:0:
9,171,26280,6,0,L|15:286,1,100,2|8,0:0|0:0,0:0:0:0:
39,314,26767,2,0,L|88:309,1,50,0|2,0:0|3:2,0:0:0:0:
129,338,27091,2,0,P|177:346|226:335,1,100,0|2,0:0|0:0,0:0:0:0:
273,246,27740,2,0,L|209:240,1,50,2|8,0:0|0:0,0:0:0:0:
173,237,28064,2,0,L|166:115,1,100,0|2,0:0|0:0,0:0:0:0:
208,108,28551,2,0,L|204:44,1,50,8|0,0:0|0:0,0:0:0:0:
241,24,28875,6,0,B|336:6|333:73|443:39,1,200,4|4,1:2|0:3,0:0:0:0:
481,21,29686,2,0,L|485:88,1,50,4|0,0:3|1:0,0:0:0:0:
510,113,30010,2,0,L|516:218,1,100,2|4,0:0|0:3,0:0:0:0:
492,257,30497,1,0,1:0:0:0:
451,286,30659,2,0,P|402:277|345:288,1,100,0|4,0:0|0:3,0:0:0:0:
311,312,31145,1,0,1:0:0:0:
231,250,31470,6,0,L|238:133,1,100,2|0,0:0|1:0,0:0:0:0:
205,111,31956,1,0,0:0:0:0:
165,80,32118,2,0,P|116:70|61:79,1,100,2|0,0:0|1:0,0:0:0:0:
16,163,32767,2,0,L|22:220,1,50,6|0,0:0|0:0,0:0:0:0:
103,268,33253,1,0,1:0:0:0:
184,325,33578,2,0,L|177:378,2,50,0|0|0,1:0|1:0|1:0,0:0:0:0:
227,300,34064,6,0,P|282:288|338:309,1,100,4|8,1:2|0:0,0:0:0:0:
420,320,34713,2,0,L|428:203,1,100,2|8,0:0|0:0,0:0:0:0:
464,187,35199,2,0,L|456:78,1,100,2|2,0:0|0:0,0:0:0:0:
435,41,35686,1,8,0:0:0:0:
339,69,36010,2,0,P|288:79|238:67,1,100,2|8,0:0|0:0,0:0:0:0:
149,30,36659,6,0,L|161:149,1,100,2|8,0:0|0:0,0:0:0:0:
195,163,37145,2,0,L|190:218,1,50,0|2,0:0|0:0,0:0:0:0:
165,256,37470,2,0,P|124:235|65:242,1,100,0|2,0:0|0:0,0:0:0:0:
0,311,38118,2,0,L|4:362,1,50,2|8,0:0|0:0,0:0:0:0:
53,369,38443,2,0,B|102:380|102:380|161:358,1,100
196,347,38929,2,0,L|190:284,1,50,8|0,0:0|0:0,0:0:0:0:
165,256,39253,6,0,L|174:144,1,100,4|0,1:2|1:0,0:0:0:0:
176,106,39740,2,0,P|223:111|275:86,1,100,4|2,0:0|0:0,0:0:0:0:
307,57,40226,1,0,1:0:0:0:
351,34,40389,2,0,L|472:40,1,100,4|2,0:0|0:0,0:0:0:0:
473,83,40875,1,0,1:0:0:0:
483,182,41199,2,0,P|488:206|491:237,2,50,8|0|4,0:3|0:0|1:3,0:0:0:0:
435,165,41686,1,0,0:0:0:0:
391,189,41848,6,0,L|333:187,1,50,4|0,1:2|0:0,0:0:0:0:
301,218,42172,2,0,L|198:220,1,100,0|2,1:0|0:0,0:0:0:0:
157,244,42659,1,2,0:0:0:0:
59,222,42983,1,6,0:0:0:0:
44,123,43307,2,0,P|49:73|82:24,2,100,6|0|6,0:0|1:0|0:0,0:0:0:0:
187,120,44443,6,0,B|251:113|251:113|314:128|314:128|400:117,1,200,4|8,1:2|0:0,0:0:0:0:
475,78,45416,1,2,0:0:0:0:
511,171,45740,2,0,P|520:218|505:277,1,100,0|2,0:0|0:0,0:0:0:0:
476,306,46226,2,0,L|373:299,1,100
284,259,46875,1,0,0:0:0:0:
284,259,47037,6,0,L|293:364,2,100,4|8|8,0:0|0:0|0:0,0:0:0:0:
244,166,48010,1,2,0:0:0:0:
172,96,48334,1,0,0:0:0:0:
172,96,48497,2,0,P|123:82|76:100,1,100,2|0,0:0|0:0,0:0:0:0:
40,130,48983,2,0,L|47:195,1,50,8|4,1:3|1:3,0:0:0:0:
64,226,49307,2,0,L|55:296,1,50,8|4,0:3|0:3,0:0:0:0:
49,325,49632,6,0,B|145:353|145:353|258:321,1,200,4|8,1:2|0:0,0:0:0:0:
327,275,50605,1,2,0:0:0:0:
415,322,50929,2,0,P|427:275|415:226,1,100,0|2,0:0|0:0,0:0:0:0:
375,194,51416,2,0,P|361:149|373:96,1,100
424,13,52064,1,0,0:0:0:0:
471,107,52389,1,0,0:0:0:0:
471,107,52551,6,0,L|362:97,1,100,2|8,0:0|0:0,0:0:0:0:
279,58,53199,1,2,0:0:0:0:
219,140,53524,2,0,L|164:136,1,50,8|8,0:0|0:0,0:0:0:0:
126,110,53848,2,0,L|123:60,2,50,8|8|8,0:0|0:0|0:0,0:0:0:0:
85,139,54334,2,0,L|88:201,2,50,8|8|8,0:0|0:0|0:0,0:0:0:0:
39,117,54821,6,0,P|-1:192|73:273,1,200,4|8,1:2|0:0,0:0:0:0:
161,298,55794,1,2,0:0:0:0:
247,247,56118,2,0,L|240:139,1,100,0|2,0:0|0:0,0:0:0:0:
269,105,56605,2,0,P|312:91|373:108,1,100
434,173,57253,1,0,0:0:0:0:
476,316,57740,6,0,L|362:309,1,100,2|8,0:0|0:0,0:0:0:0:
292,365,58389,1,2,0:0:0:0:
192,361,58713,1,0,0:0:0:0:
192,361,58875,2,0,B|180:319|180:319|199:257,1,100,2|0,0:0|0:0,0:0:0:0:
223,222,59362,2,0,L|216:167,1,50,8|8,0:0|0:0,0:0:0:0:
188,130,59686,2,0,L|195:67,1,50,8|8,0:0|0:0,0:0:0:0:
222,39,60010,6,0,P|263:26|327:34,1,100,4|8,1:2|0:0,0:0:0:0:
407,77,60659,2,0,B|400:181,1,100,4|8,0:3|0:0,0:0:0:0:
317,232,61307,2,0,L|326:341,1,100,4|8,0:0|0:0,0:0:0:0:
363,364,61794,2,0,P|413:374|474:349,1,100,2|4,0:0|0:3,0:0:0:0:
482,315,62280,1,8,0:0:0:0:
490,265,62443,6,0,B|498:168|498:168|476:101,1,150,4|8,0:0|0:0,0:0:0:0:
425,35,63253,1,4,0:3:0:0:
329,63,63578,1,8,0:0:0:0:
298,158,63902,2,0,B|222:132|230:186|148:166,1,150,0|2,0:0|0:0,0:0:0:0:
102,167,64551,2,0,L|108:235,2,50,4|4|8,0:3|0:3|0:0,0:0:0:0:
29,98,65199,6,0,L|32:49,2,50,8|8|6,0:3|0:3|0:0,0:0:0:0:
6,143,65686,2,0,L|13:212,2,50,8|8|6,0:3|0:3|0:0,0:0:0:0:
102,167,66334,2,0,L|94:276,2,100,2|2|6,0:0|0:0|0:0,0:0:0:0:
185,222,67307,1,2,0:0:0:0:
185,222,67470,1,2,0:0:0:0:
229,311,67794,6,0,P|277:320|325:308,1,100,4|8,1:2|0:0,0:0:0:0:
355,267,68280,2,0,L|349:207,1,50
317,179,68605,1,2,0:0:0:0:
285,84,68929,2,0,B|365:65|365:123|452:95,1,150,2|8,0:0|0:0,0:0:0:0:
479,87,69578,2,0,L|469:18,2,50,0|2|0,0:0|1:2|0:0,0:0:0:0:
507,128,70064,2,0,L|498:199,1,50,2|0,1:2|0:0,0:0:0:0:
465,213,70389,6,0,L|480:329,1,100,4|8,0:0|0:0,0:0:0:0:
447,351,70875,2,0,P|418:346|392:349,1,50
348,357,71199,1,2,0:0:0:0:
255,317,71524,2,0,L|264:162,1,150,2|4,0:0|1:2,0:0:0:0:
220,77,72334,1,4,1:2:0:0:
135,23,72659,1,4,1:2:0:0:
38,49,72983,6,0,B|12:95|12:95|30:202,1,150,4|0,1:2|0:0,0:0:0:0:
54,233,73632,2,0,L|49:346,1,100,0|8,0:0|0:0,0:0:0:0:
148,349,74280,2,0,L|153:236,1,100,0|8,0:0|0:0,0:0:0:0:
184,210,74767,2,0,P|235:199|286:216,1,100,2|0,0:0|0:0,0:0:0:0:
320,241,75253,1,8,0:0:0:0:
402,184,75578,6,0,L|388:30,1,150,4|4,1:2|1:2,0:0:0:0:
289,50,76389,1,2,0:0:0:0:
191,70,76713,2,0,L|179:280,1,200,4|4,1:2|0:0,0:0:0:0:
171,319,77524,2,0,L|106:315,1,50,8|8,0:0|0:0,0:0:0:0:
88,344,77848,2,0,L|20:340,1,50,8|8,0:0|0:0,0:0:0:0:
8,300,78172,6,0,P|-4:253|16:192,1,100,4|8,1:2|0:0,0:0:0:0:
40,165,78659,2,0,L|33:97,1,50
68,77,78983,1,2,0:0:0:0:
166,90,79307,2,0,P|237:104|329:81,1,150,2|8,0:0|0:0,0:0:0:0:
355,63,79956,2,0,L|342:-5,2,50,2|0|0,0:0|3:1|3:0,0:0:0:0:
394,94,80443,2,0,L|389:160,1,50,8|2,0:0|0:0,0:0:0:0:
421,183,80767,6,0,L|413:296,1,100,4|8,0:0|0:0,0:0:0:0:
404,331,81253,2,0,L|336:325,1,50
304,332,81578,1,2,0:0:0:0:
236,257,81902,2,0,L|225:92,1,150,2|4,0:0|1:2,0:0:0:0:
126,92,82713,1,4,1:2:0:0:
52,159,83037,1,4,1:2:0:0:
6,248,83362,6,0,B|83:283|80:224|171:257,1,150,4|0,1:2|0:0,0:0:0:0:
194,277,84010,2,0,L|306:270,1,100,0|8,0:0|0:0,0:0:0:0:
354,191,84659,2,0,L|252:185,1,100,4|8,0:3|0:0,0:0:0:0:
209,163,85145,2,0,P|206:113|229:60,1,100
251,25,85632,1,8,0:0:0:0:
348,47,85956,6,0,B|371:94|371:94|352:201,1,150,4|4,0:0|1:2,0:0:0:0:
319,284,86767,1,4,1:2:0:0:
227,244,87091,2,0,P|190:230|80:253,1,150,4|8,1:2|0:0,0:0:0:0:
73,299,87740,2,0,L|83:361,1,50,0|8,0:0|0:0,0:0:0:0:
177,375,88226,1,8,0:0:0:0:
272,345,88551,6,0,P|330:291|330:204,1,150,4|4,0:0|1:2,0:0:0:0:
239,249,89362,1,4,1:2:0:0:
178,169,89686,2,0,L|184:53,1,100,4|2,1:2|0:0,0:0:0:0:
218,33,90172,2,0,P|261:26|320:39,1,100,8|8,0:0|1:3,0:0:0:0:
401,88,90821,1,8,0:0:0:0:
465,164,91145,6,0,L|455:277,1,100,8|8,1:2|0:0,0:0:0:0:
377,326,91794,1,8,0:0:0:0:
299,262,92118,1,8,0:0:0:0:
227,332,92443,2,0,P|178:348|120:328,1,100,4|8,1:2|0:0,0:0:0:0:
175,243,93091,1,8,0:0:0:0:
137,150,93416,1,8,0:0:0:0:
195,69,93740,6,0,L|190:13,1,50,4|8,1:2|0:0,0:0:0:0:
90,19,94226,2,0,L|83:92,1,50,4|8,1:2|0:0,0:0:0:0:
22,147,94713,2,0,L|27:214,1,50,4|4,1:2|1:2,0:0:0:0:
346,346,96010,1,4,0:3:0:0:
391,257,96334,6,0,P|344:247|287:265,1,100,6|8,0:1|0:0,0:0:0:0:
264,300,96820,2,0,L|146:297,1,100,0|2,0:0|0:0,0:0:0:0:
130,260,97307,1,8,0:0:0:0:
116,212,97469,2,2,B|106:152|106:152|123:100,1,100,2|2,0:1|0:1,0:1:0:0:
170,29,98118,2,0,B|48:18,1,100,0|2,0:0|0:0,0:0:0:0:
34,54,98604,1,8,0:0:0:0:
2,148,98928,6,0,L|17:261,1,100,6|8,0:1|0:0,0:0:0:0:
39,291,99416,2,0,P|83:305|147:286,1,100,0|2,0:0|0:0,0:0:0:0:
183,282,99902,1,8,0:0:0:0:
228,260,100064,2,2,L|241:158,1,100,6|2,0:1|0:1,0:1:0:0:
311,87,100712,2,0,P|362:77|420:97,1,100,0|2,0:0|0:0,0:0:0:0:
449,117,101199,1,8,0:0:0:0:
434,215,101524,6,0,L|316:207,1,100,6|8,0:1|0:0,0:0:0:0:
290,233,102010,2,0,B|277:277|277:277|283:338,1,100,0|2,0:0|0:0,0:0:0:0:
329,349,102497,1,8,0:0:0:0:
378,358,102659,2,2,B|486:365,1,100,2|2,0:1|0:1,0:1:0:0:
508,269,103307,2,0,P|523:223|500:157,1,100,0|2,0:0|0:0,0:0:0:0:
476,138,103794,1,8,0:0:0:0:
398,75,104118,6,0,L|294:79,1,100,6|8,0:1|0:0,0:0:0:0:
251,62,104604,2,0,L|134:52,1,100,0|2,0:0|0:0,0:0:0:0:
103,69,105091,1,8,0:0:0:0:
63,99,105253,2,2,B|56:168|56:168|70:216,1,100,2|2,0:1|0:1,0:1:0:0:
156,236,105901,2,0,B|151:351,1,100,0|2,0:0|0:0,0:0:0:0:
190,368,106388,1,8,0:0:0:0:
282,329,106713,6,0,P|353:308|428:344,1,150,4|4,1:2|1:2,0:0:0:0:
507,214,107686,2,0,P|482:144|507:61,1,150,4|4,1:2|1:2,0:0:0:0:
353,37,108658,2,0,L|295:42,1,50,8|4,0:0|1:2,0:0:0:0:
204,154,109307,5,4,1:2:0:0:
204,154,109470,2,0,L|211:219,2,50,4|12|8,1:2|1:3|0:3,0:0:0:0:
166,120,109956,2,0,L|173:54,2,50,8|8|8,1:3|0:3|0:0,0:0:0:0:
119,138,110443,1,4,1:2:0:0:
22,113,110767,1,4,0:3:0:0:
