osu file format v14

[General]
AudioFilename: audio.mp3
AudioLeadIn: 0
PreviewTime: 67632
Countdown: 0
SampleSet: Soft
StackLeniency: 0.7
Mode: 0
LetterboxInBreaks: 0
WidescreenStoryboard: 0

[Editor]
DistanceSpacing: 1
BeatDivisor: 2
GridSize: 32
TimelineZoom: 1.7

[Metadata]
Title:"Remizera!" ShortVer.
TitleUnicode:「れみぜら!」ShortVer.
Artist:solfa feat.Misato Aki
ArtistUnicode:solfa feat.美郷あき
Creator:ShogunMoon
Version:Easy
Source:ワールド・エレクション
Tags:world election whirlpool 10th anniversary eroge opening visual novel Garden Kin short version Yakushi Ruri Amagasaki Urara Hashizaki Tooru Nemoto Katsunori
BeatmapID:1305514
BeatmapSetID:619365

[Difficulty]
HPDrainRate:2
CircleSize:2.7
OverallDifficulty:2
ApproachRate:3
SliderMultiplier:1
SliderTickRate:1

[Events]
//Background and Video events
0,0,"easy.jpg",0,0
//Break Periods
//Storyboard Layer 0 (Background)
//Storyboard Layer 1 (Fail)
//Storyboard Layer 2 (Pass)
//Storyboard Layer 3 (Foreground)
//Storyboard Sound Samples

[TimingPoints]
335,324.324324324324,4,2,1,35,1,0
335,-111.111111111111,4,2,1,35,0,0
9253,-111.111111111111,4,2,1,50,0,0
10713,-111.111111111111,4,2,1,65,0,0
23686,-111.111111111111,4,2,1,50,0,0
28875,-111.111111111111,4,2,1,60,0,0
34064,-111.111111111111,4,2,1,50,0,0
39253,-111.111111111111,4,2,1,60,0,0
44443,-111.111111111111,4,2,1,55,0,0
60010,-111.111111111111,4,2,1,60,0,0
65199,-111.111111111111,4,2,1,65,0,0
67794,-111.111111111111,4,2,1,80,0,1
85956,-111.111111111111,4,2,1,65,0,1
91145,-111.111111111111,4,2,1,80,0,1
95037,-111.111111111111,4,2,1,40,0,0
96334,-111.111111111111,4,2,1,65,0,0
109307,-111.111111111111,4,2,1,50,0,0
110767,-111.111111111111,4,2,1,40,0,0

[Colours]
Combo1 : 213,4,4
Combo2 : 159,159,255
Combo3 : 157,51,0
Combo4 : 51,43,159

[HitObjects]
274,114,497,6,0,L|94:103,1,179.999994506836,8|0,1:0|0:0,0:0:0:0:
59,20,1470,2,0,P|12:68|44:179,1,179.999994506836,0|8,0:0|1:0,0:0:0:0:
96,234,2443,2,0,L|89:355,1,89.9999972534181
175,356,3091,6,0,B|281:394|274:313|380:360,1,179.999994506836,8|8,1:0|1:0,0:0:0:0:
440,345,4064,2,0,L|433:243,1,89.9999972534181
426,165,4713,2,0,P|471:154|518:166,2,89.9999972534181,8|0|0,1:0|0:0|0:0,0:0:0:0:
340,193,5686,6,0,B|250:186|250:186|172:245,1,179.999994506836,8|0,1:0|0:0,0:0:0:0:
194,328,6659,2,0,P|286:364|378:318,1,179.999994506836,0|8,0:0|1:0,0:0:0:0:
422,274,7632,2,0,L|412:155,1,89.9999972534181
462,108,8280,6,0,B|369:69|368:149|271:104,1,179.999994506836,8|0,1:0|0:0,0:0:0:0:
216,55,9253,2,0,L|116:63,1,89.9999972534181
49,108,9902,2,0,B|23:187|77:174|41:260,1,134.999995880127,8|4,1:0|1:2,0:0:0:0:
22,326,10713,6,0,L|181:318,1,134.999995880127,6|0,0:1|0:0,0:0:0:0:
247,319,11524,1,2,0:0:0:0:
328,281,11848,2,2,L|336:176,1,89.9999972534181,2|2,0:1|0:1,0:1:0:0:
338,101,12497,2,0,B|295:84|295:84|185:95,1,134.999995880127,0|0,0:3|1:0,0:0:0:0:
148,161,13307,6,0,L|161:313,1,134.999995880127,6|0,0:1|0:0,0:0:0:0:
247,319,14118,1,2,0:0:0:0:
328,281,14443,2,2,P|379:273|437:284,1,89.9999972534181,6|2,0:1|0:1,0:1:0:0:
503,302,15091,2,0,L|514:150,1,134.999995880127,0|0,3:0|1:0,0:0:0:0:
456,96,15902,6,0,B|391:59|385:122|312:81,1,134.999995880127,6|0,0:1|0:0,0:0:0:0:
250,39,16713,1,2,0:0:0:0:
173,86,17037,2,2,L|183:193,1,89.9999972534181,2|2,0:1|0:1,0:1:0:0:
145,258,17686,2,0,P|73:277|-3:258,1,134.999995880127,0|0,3:0|1:0,0:0:0:0:
10,176,18497,6,0,B|0:88|0:88|16:34,1,134.999995880127,6|0,0:1|0:0,0:0:0:0:
102,29,19307,1,2,0:0:0:0:
173,86,19632,2,2,L|284:82,1,89.9999972534181,6|2,0:1|0:1,0:1:0:0:
352,86,20280,2,0,P|366:147|352:234,1,134.999995880127,0|0,3:0|1:0,0:0:0:0:
314,297,21091,6,0,L|162:302,2,134.999995880127,4|4|4,1:2|0:0|1:2,0:0:0:0:
446,269,22551,2,0,B|453:135|453:135|425:65,1,179.999994506836,4|4,1:2|1:2,0:0:0:0:
330,176,23686,6,0,L|221:168,1,89.9999972534181,4|8,0:1|0:0,0:0:0:0:
150,167,24334,2,0,B|133:232|133:232|153:303,1,134.999995880127
230,339,25145,1,0,0:0:0:0:
319,344,25470,2,0,P|382:328|414:251,1,134.999995880127
406,180,26280,6,0,L|396:70,1,89.9999972534181,2|8,0:0|0:0,0:0:0:0:
316,50,26929,2,0,P|268:24|179:30,1,134.999995880127
99,38,27740,1,0,0:0:0:0:
31,97,28064,2,0,L|41:250,1,134.999995880127,0|8,0:0|0:0,0:0:0:0:
52,322,28875,6,0,B|157:365|147:286|254:334,1,179.999994506836,6|0,1:2|0:0,0:0:0:0:
312,352,29848,1,8,0:0:0:0:
398,326,30172,2,0,L|389:223,1,89.9999972534181,0|8,0:0|0:0,0:0:0:0:
321,178,30821,2,0,L|329:72,1,89.9999972534181,0|8,0:0|0:0,0:0:0:0:
255,34,31470,6,0,P|207:21|149:34,1,89.9999972534181,2|8,0:0|0:0,0:0:0:0:
87,66,32118,1,2,0:0:0:0:
82,156,32443,1,8,0:0:0:0:
143,221,32767,2,0,B|151:313|151:313|136:369,2,134.999995880127,6|8|8,0:0|0:0|0:0,0:0:0:0:
227,190,34064,6,0,L|334:183,1,89.9999972534181,4|8,1:2|0:0,0:0:0:0:
359,263,34713,2,0,P|318:324|261:342,1,134.999995880127
172,334,35524,1,0,0:0:0:0:
90,295,35848,2,0,B|70:234|70:234|94:148,1,134.999995880127,0|8,0:0|0:0,0:0:0:0:
112,78,36659,6,0,B|209:66,1,89.9999972534181,2|8,0:0|0:0,0:0:0:0:
290,57,37307,2,0,B|299:103|299:103|272:208,1,134.999995880127
222,260,38118,1,0,0:0:0:0:
236,349,38443,2,0,P|295:370|395:337,1,134.999995880127,0|8,0:0|0:0,0:0:0:0:
447,319,39253,6,0,B|472:246|425:251|451:163,1,134.999995880127,4|2,0:0|0:0,0:0:0:0:
477,102,40064,1,0,0:0:0:0:
404,48,40389,2,0,B|357:31|357:31|249:38,1,134.999995880127,4|8,0:0|0:0,0:0:0:0:
185,59,41199,2,0,L|192:167,1,89.9999972534181,0|8,0:0|0:0,0:0:0:0:
199,238,41848,5,4,0:0:0:0:
156,317,42172,2,0,P|86:335|22:291,1,134.999995880127
3,221,42983,1,6,0:0:0:0:
19,132,43307,2,0,B|10:66|10:66|22:24,2,89.9999972534181,6|8|4,0:0|0:0|0:0,0:0:0:0:
154,132,44443,6,0,B|284:155|284:155|359:129,1,179.999994506836,4|8,1:2|0:0,0:0:0:0:
404,89,45416,1,0,0:0:0:0:
472,146,45740,2,0,P|485:196|469:254,1,89.9999972534181
425,306,46389,2,0,L|318:300,1,89.9999972534181,8|0,0:0|0:0,0:0:0:0:
253,263,47037,6,0,B|226:159|285:177|249:59,1,179.999994506836,0|8,0:0|0:0,0:0:0:0:
173,50,48010,1,0,0:0:0:0:
91,88,48334,2,0,L|99:198,1,89.9999972534181,8|0,0:0|0:0,0:0:0:0:
71,264,48983,1,8,0:0:0:0:
116,341,49307,1,8,0:0:0:0:
204,322,49632,6,0,P|300:298|402:320,1,179.999994506836,4|8,1:2|0:0,0:0:0:0:
461,346,50605,1,0,0:0:0:0:
504,267,50929,2,0,L|496:166,1,89.9999972534181,0|8,0:0|0:0,0:0:0:0:
420,129,51578,2,0,L|427:31,1,89.9999972534181,8|0,0:0|0:0,0:0:0:0:
337,37,52226,6,0,B|270:29|270:29|206:50|206:50|138:40,1,179.999994506836,0|8,0:0|0:0,0:0:0:0:
71,35,53199,1,0,0:0:0:0:
9,100,53524,2,0,L|14:215,1,89.9999972534181,8|8,0:0|0:0,0:0:0:0:
63,264,54172,1,8,0:0:0:0:
152,275,54496,1,8,0:0:0:0:
226,224,54821,6,0,B|354:204|354:204|433:233,1,179.999994506836,4|8,1:2|0:0,0:0:0:0:
406,311,55794,1,0,0:0:0:0:
318,333,56118,2,0,L|216:324,1,89.9999972534181,0|8,0:0|0:0,0:0:0:0:
152,275,56767,2,0,L|49:266,1,89.9999972534181,8|0,0:0|0:0,0:0:0:0:
16,188,57416,6,0,P|3:106|72:45,1,179.999994506836,8|8,0:0|0:0,0:0:0:0:
86,134,58389,1,0,0:0:0:0:
160,185,58713,2,0,L|149:298,1,89.9999972534181,0|8,0:0|0:0,0:0:0:0:
201,349,59362,1,8,0:0:0:0:
290,352,59686,1,8,0:0:0:0:
357,292,60010,6,0,L|475:282,1,89.9999972534181,4|8,1:2|0:0,0:0:0:0:
428,196,60659,2,0,L|312:185,1,89.9999972534181,0|8,0:0|0:0,0:0:0:0:
262,138,61307,2,0,P|256:88|228:30,1,89.9999972534181,0|8,0:0|0:0,0:0:0:0:
157,85,61956,2,0,P|148:132|150:187,1,89.9999972534181,0|8,0:0|0:0,0:0:0:0:
222,225,62605,6,0,P|146:262|61:197,1,179.999994506836,4|0,0:0|0:0,0:0:0:0:
148,173,63578,1,8,0:0:0:0:
230,136,63902,2,0,L|347:146,1,89.9999972534181,0|8,0:0|0:0,0:0:0:0:
409,149,64551,1,8,0:0:0:0:
477,207,64875,1,8,0:0:0:0:
456,294,65199,6,0,P|376:331|269:246,1,224.999993133545,8|8,0:3|0:3,0:0:0:0:
270,168,66334,2,0,L|284:67,2,89.9999972534181,2|2|2,0:0|0:0|0:0,0:0:0:0:
196,219,67307,1,2,0:0:0:0:
77,284,67794,6,0,L|71:178,1,89.9999972534181,6|8,0:0|0:0,0:0:0:0:
2,137,68443,2,0,L|7:29,1,89.9999972534181,0|8,0:0|0:0,0:0:0:0:
93,25,69091,2,0,P|144:17|197:29,1,89.9999972534181,0|8,0:0|0:0,0:0:0:0:
257,71,69740,1,0,0:0:0:0:
246,160,70064,1,8,0:0:0:0:
300,231,70389,6,0,L|311:337,1,89.9999972534181,0|8,0:0|0:0,0:0:0:0:
397,303,71037,2,0,L|406:203,1,89.9999972534181,0|8,0:0|0:0,0:0:0:0:
380,126,71686,2,0,B|287:90|280:168|179:124,1,179.999994506836
145,65,72659,1,8,0:0:0:0:
82,129,72983,6,0,P|73:178|84:235,1,89.9999972534181,4|8,1:2|0:0,0:0:0:0:
162,249,73632,2,0,L|168:354,1,89.9999972534181,0|8,0:0|0:0,0:0:0:0:
254,359,74280,2,0,P|301:368|357:349,1,89.9999972534181,0|8,0:0|0:0,0:0:0:0:
419,312,74929,1,0,0:0:0:0:
388,227,75253,1,8,0:0:0:0:
454,166,75578,6,0,P|449:93|413:22,1,134.999995880127,4|4,1:2|1:2,0:0:0:0:
351,90,76389,1,0,0:0:0:0:
276,140,76713,2,0,P|184:155|132:93,1,179.999994506836,4|4,1:2|0:0,0:0:0:0:
219,71,77686,1,8,0:0:0:0:
351,90,78172,6,0,P|366:132|353:187,1,89.9999972534181,4|8,1:2|0:0,0:0:0:0:
303,247,78821,2,0,L|198:251,1,89.9999972534181,0|8,0:0|0:0,0:0:0:0:
140,197,79470,2,0,P|128:152|144:99,1,89.9999972534181,0|8,0:0|0:0,0:0:0:0:
219,71,80118,1,0,0:0:0:0:
306,50,80443,1,8,0:0:0:0:
394,64,80767,6,0,L|505:56,1,89.9999972534181,0|8,0:0|0:0,0:0:0:0:
488,147,81416,2,0,B|496:203|496:203|483:249,1,89.9999972534181,0|8,0:0|0:0,0:0:0:0:
407,276,82064,2,0,B|311:312|316:234|208:279,1,179.999994506836
155,318,83037,1,8,0:0:0:0:
74,278,83362,6,0,P|64:229|81:169,1,89.9999972534181,4|8,1:2|0:0,0:0:0:0:
152,151,84010,2,0,L|160:49,1,89.9999972534181,0|8,0:0|0:0,0:0:0:0:
239,21,84659,2,0,L|247:122,1,89.9999972534181,0|8,0:0|0:0,0:0:0:0:
313,170,85307,1,0,0:0:0:0:
401,151,85632,1,8,0:0:0:0:
471,206,85956,6,0,B|481:303|481:303|464:362,1,134.999995880127,4|0,0:0|0:0,0:0:0:0:
382,357,86767,1,0,0:0:0:0:
310,302,87091,2,0,B|302:197|302:197|321:146,1,134.999995880127,0|8,0:0|0:0,0:0:0:0:
401,151,87902,1,8,0:3:0:0:
442,71,88226,1,8,0:0:0:0:
360,31,88551,6,0,P|285:25|219:63,1,134.999995880127,4|0,0:0|0:0,0:0:0:0:
172,117,89362,1,0,0:0:0:0:
212,197,89686,2,0,P|217:274|192:345,1,134.999995880127,4|8,0:0|0:0,0:0:0:0:
114,352,90497,1,8,0:3:0:0:
29,320,90821,1,8,0:0:0:0:
7,232,91145,6,0,P|69:101|181:124,1,269.999991760254,8|8,0:0|0:0,0:0:0:0:
223,192,92443,2,0,B|304:310|304:310|438:322,1,269.999991760254,8|8,0:0|0:0,0:0:0:0:
456,235,93740,6,0,L|462:88,2,134.999995880127,4|4|4,1:2|1:2|1:2,0:0:0:0:
28,361,96334,6,0,B|125:372|125:372|188:353,1,134.999995880127,6|0,0:1|0:0,0:0:0:0:
243,324,97145,1,2,0:0:0:0:
313,268,97469,2,2,P|320:213|309:164,1,89.9999972534181,2|2,0:1|0:1,0:1:0:0:
300,90,98118,2,0,B|139:93,1,134.999995880127,0|0,3:0|1:0,0:0:0:0:
80,122,98929,6,0,P|92:195|99:276,1,134.999995880127,6|0,1:0|0:0,0:0:0:0:
132,338,99739,1,2,0:0:0:0:
218,365,100064,2,2,L|326:360,1,89.9999972534181,6|2,0:1|0:1,0:1:0:0:
392,329,100713,2,0,B|407:237|407:237|401:171,1,134.999995880127,2|0,0:0|1:0,0:0:0:0:
440,113,101523,6,0,B|368:85|368:141|284:109,1,134.999995880127,6|0,0:1|0:0,0:0:0:0:
239,57,102334,1,2,0:0:0:0:
150,38,102659,2,2,L|49:35,1,89.9999972534181,2|2,0:1|0:1,0:1:0:0:
26,118,103307,2,0,P|1:193|44:259,1,134.999995880127,0|0,3:0|1:0,0:0:0:0:
91,181,104118,6,0,B|241:175,1,134.999995880127,6|0,0:1|0:0,0:0:0:0:
311,201,104928,1,2,0:0:0:0:
392,236,105253,2,2,L|498:232,1,89.9999972534181,6|2,0:1|0:1,0:1:0:0:
455,318,105902,2,0,L|302:325,1,134.999995880127,0|0,3:0|1:0,0:0:0:0:
231,308,106713,6,0,B|218:219|218:219|231:145,2,134.999995880127,4|4|4,1:2|1:2|1:2,0:0:0:0:
311,198,108172,2,0,P|275:96|195:83,1,179.999994506836,4|4,1:2|1:2,0:0:0:0:
256,192,109307,12,0,110767,0:0:0:0:
