osu file format v14

[General]
AudioFilename: audio.mp3
AudioLeadIn: 0
PreviewTime: 64957
Countdown: 0
SampleSet: Soft
StackLeniency: 0.7
Mode: 0
LetterboxInBreaks: 0
WidescreenStoryboard: 0

[Editor]
DistanceSpacing: 0.9
BeatDivisor: 2
GridSize: 32
TimelineZoom: 1

[Metadata]
Title:Prism lovely day
TitleUnicode:プリズム lovely day
Artist:solfa feat.Chata
ArtistUnicode:solfa feat.茶太
Creator:joker-
Version:Normal
Source:彼女と俺の恋愛日常
Tags:eroge opening Asuka_- Karen Lovely day of Girlfriends & me parasol
BeatmapID:1246153
BeatmapSetID:575372

[Difficulty]
HPDrainRate:4
CircleSize:3.5
OverallDifficulty:4
ApproachRate:5
SliderMultiplier:1.05
SliderTickRate:1

[Events]
//Background and Video events
0,0,"bg.png",0,0
//Break Periods
//Storyboard Layer 0 (Background)
//Storyboard Layer 1 (Fail)
//Storyboard Layer 2 (Pass)
//Storyboard Layer 3 (Foreground)
//Storyboard Sound Samples

[TimingPoints]
548,333.333333333333,4,2,1,60,1,0
4547,-100,4,2,1,60,0,0
5214,-100,4,2,1,50,0,0
5881,-100,4,2,1,50,0,0
11214,-100,4,2,2,70,0,0
27214,-100,4,2,1,50,0,0
29881,-100,4,2,2,50,0,0
32047,-100,4,2,1,50,0,0
43214,-100,4,2,3,30,0,0
53547,-100,4,2,1,40,0,0
53881,333.333333333333,3,2,1,50,1,0
59881,333.333333333333,4,2,1,40,1,0
65214,-100,4,2,2,70,0,1
74547,-100,4,2,1,70,0,1
74880,-100,4,2,2,70,0,1
75214,-100,4,2,1,70,0,1
75547,-100,4,2,2,70,0,1
85214,-100,4,2,1,80,0,1
86547,-100,4,2,1,80,0,0
102547,-100,4,2,1,80,0,0
105214,-100,4,2,1,80,0,0
107880,-100,4,2,1,80,0,0

[Colours]
Combo1 : 255,255,81
Combo2 : 255,156,108
Combo3 : 181,255,106
Combo4 : 170,255,255

[HitObjects]
261,321,548,6,0,B|165:378|62:311|62:311|109:201,1,315,12|0,0:0|0:0,0:0:0:0:
156,137,1881,6,0,B|262:129|329:235|329:235|385:214|402:156,1,315,12|0,0:0|0:0,0:0:0:0:
328,98,3214,6,0,P|402:66|454:239,1,315,12|0,0:0|0:0,0:0:0:0:
404,301,4547,6,0,P|350:288|289:291,1,105,12|0,0:0|0:0,0:0:0:0:
211,321,5214,2,0,P|158:321|107:308,1,105,8|2,0:0|0:0,0:0:0:0:
79,271,5714,1,2,0:0:0:0:
93,225,5881,6,0,L|85:114,1,105,2|2,0:0|0:0,0:0:0:0:
143,46,6547,2,0,P|200:60|257:52,1,105,2|2,0:0|0:0,0:0:0:0:
326,104,7214,2,0,L|317:219,1,105,2|2,0:0|0:0,0:0:0:0:
336,252,7714,2,0,P|402:272|454:254,1,105,0|0,0:0|0:0,0:0:0:0:
474,237,8214,1,0,0:0:0:0:
466,136,8547,6,0,B|412:116|363:139|363:139|305:83,2,157.5,2|0|8,0:0|3:0|0:0,0:0:0:0:
496,48,9881,1,2,0:0:0:0:
185,263,11214,6,0,L|175:148,1,105,6|8,0:0|0:0,0:0:0:0:
229,80,11881,2,0,P|289:69|335:80,1,105,2|8,0:0|0:0,0:0:0:0:
402,140,12547,2,0,P|453:149|504:138,2,105,2|8|2,0:0|0:0|0:0,0:0:0:0:
326,197,13547,1,8,2:0:0:0:
390,266,13881,6,0,L|398:380,1,105,2|8,0:0|0:0,0:0:0:0:
310,334,14547,2,0,P|252:316|190:336,1,105,2|8,0:0|0:0,0:0:0:0:
165,340,15047,2,0,B|143:293|143:293|170:178,1,157.5,0|8,0:0|0:0,0:0:0:0:
189,97,15881,1,2,0:0:0:0:
110,45,16214,2,0,L|48:54,1,52.5,8|0,0:0|0:0,0:0:0:0:
29,90,16547,6,0,P|20:158|45:217,1,105,2|8,0:0|0:0,0:0:0:0:
99,256,17214,2,0,L|223:244,1,105,2|8,0:0|0:0,0:0:0:0:
242,272,17714,2,0,P|304:286|358:267,1,105,0|0,0:0|0:0,0:0:0:0:
384,252,18214,2,0,P|434:241|484:255,2,105,8|2|8,0:0|0:0|0:0,0:0:0:0:
338,168,19214,6,0,L|349:61,2,105,2|8|2,0:0|0:0|0:0,0:0:0:0:
306,202,20047,1,0,0:0:0:0:
215,175,20381,2,0,P|156:164|97:185,1,105
70,195,20881,1,8,0:0:0:0:
43,233,21047,2,0,B|50:340|50:340|94:297,1,157.5,0|8,0:0|0:0,0:0:0:0:
180,297,21881,6,0,P|236:312|299:294,1,105,6|8,0:0|0:0,0:0:0:0:
354,243,22547,2,0,L|465:252,1,105,2|8,0:0|0:0,0:0:0:0:
503,170,23214,2,0,P|514:106|500:57,2,105,2|8|2,0:0|0:0|0:0,0:0:0:0:
458,251,24214,1,8,0:0:0:0:
368,219,24547,6,0,P|306:203|254:223,1,105,2|8,0:0|0:0,0:0:0:0:
182,253,25214,2,0,L|71:239,1,105,2|8,0:0|0:0,0:0:0:0:
46,204,25714,2,0,P|17:137|71:57,1,157.5,0|8,0:0|0:0,0:0:0:0:
138,24,26547,1,2,0:0:0:0:
221,67,26881,2,0,L|211:138,1,52.5,8|0,0:0|3:2,0:0:0:0:
242,156,27214,6,0,P|296:170|385:148,1,105,8|2,0:0|3:0,0:0:0:0:
414,101,27881,2,0,P|437:169|392:243,2,157.5,8|8|2,0:0|0:0|0:0,0:0:0:0:
336,46,29214,2,0,L|216:33,1,105,8|8,0:0|0:0,0:0:0:0:
184,30,29714,1,0,3:2:0:0:
145,57,29881,6,0,P|133:111|153:171,1,105,12|8,0:0|0:0,0:0:0:0:
177,246,30547,2,0,L|168:308,1,52.5,8|8,0:0|0:0,0:0:0:0:
252,343,31047,1,12,0:0:0:0:
327,69,32047,1,2,0:0:0:0:
357,105,32214,2,0,L|352:170,1,52.5,8|0,0:0|3:2,0:0:0:0:
322,193,32547,6,0,P|268:205|202:174,1,105,8|8,0:0|0:0,0:0:0:0:
191,153,33047,2,0,L|206:42,1,105,0|0,0:0|0:0,0:0:0:0:
114,22,33714,2,0,L|96:144,1,105,0|0,0:0|0:0,0:0:0:0:
98,173,34214,2,0,P|106:239|84:294,2,105,8|8|8,0:0|0:0|0:0,0:0:0:0:
191,153,35214,6,0,P|245:146|312:172,1,105,8|8,0:0|0:0,0:0:0:0:
335,180,35714,2,0,B|362:230|360:282|360:282|303:329,1,157.5,0|8,0:0|0:0,0:0:0:0:
234,353,36547,2,0,P|141:365|60:278,1,210,10|10,0:0|0:0,0:0:0:0:
35,198,37547,1,8,0:0:0:0:
93,123,37881,6,0,P|145:143|210:124,1,105,10|8,0:0|0:0,0:0:0:0:
232,109,38381,2,0,L|344:120,1,105,0|0,0:0|0:0,0:0:0:0:
417,70,39047,2,0,P|425:141|390:198,1,105,0|0,0:0|0:0,0:0:0:0:
392,213,39547,2,0,L|402:335,2,105,8|8|8,0:0|0:0|0:0,0:0:0:0:
313,160,40547,6,0,P|260:149|195:161,1,105,8|8,0:0|0:0,0:0:0:0:
168,178,41047,1,0,0:0:0:0:
89,125,41381,1,0,0:0:0:0:
3,164,41714,2,0,B|-20:216|-2:268|-2:268|49:295,1,157.5,0|10,0:0|0:0,0:0:0:0:
126,335,42547,2,0,P|181:320|246:330,1,105,10|10,0:0|0:0,0:0:0:0:
304,268,43214,6,0,L|317:157,1,105,8|8,0:0|0:0,0:0:0:0:
348,128,43714,2,0,P|402:115|471:139,1,105,4|4,0:0|0:0,0:0:0:0:
507,200,44381,2,0,B|497:303|497:303|446:327,1,157.5,4|8,0:0|0:0,0:0:0:0:
356,350,45214,2,0,P|307:333|234:342,1,105,8|8,0:0|0:0,0:0:0:0:
179,277,45881,6,0,L|171:170,1,105,8|8,0:0|0:0,0:0:0:0:
190,128,46381,1,4,0:0:0:0:
190,128,46547,2,0,P|252:135|323:98,1,105,10|8,0:0|0:0,0:0:0:0:
235,45,47214,2,0,P|173:38|102:75,1,105,10|8,0:0|0:0,0:0:0:0:
56,106,47881,2,0,L|66:214,1,105,10|8,0:0|0:0,0:0:0:0:
126,282,48547,6,0,P|183:290|245:265,1,105,8|8,0:0|0:0,0:0:0:0:
264,247,49047,2,0,L|377:254,1,105,4|4,0:0|0:0,0:0:0:0:
452,208,49714,2,0,B|467:171|467:171|453:102,1,105,4|4,0:0|0:0,0:0:0:0:
432,65,50214,2,0,P|374:53|324:71,2,105,8|8|8,0:0|0:0|0:0,0:0:0:0:
383,146,51214,6,0,P|332:159|282:147,1,105,8|8,0:0|0:0,0:0:0:0:
238,128,51714,2,0,L|124:139,1,105,4|4,0:0|0:0,0:0:0:0:
39,147,52381,1,4,0:0:0:0:
39,147,52547,2,0,P|36:210|50:260,1,105,10|8,0:0|0:0,0:0:0:0:
98,328,53214,2,0,P|151:314|214:325,1,105,10|8,0:0|0:0,0:0:0:0:
243,338,53714,1,0,3:2:0:0:
243,338,53881,6,0,L|259:222,1,105,2|2,0:0|3:0,0:0:0:0:
281,142,54547,2,0,P|339:148|389:130,1,105,8|2,0:0|0:0,0:0:0:0:
470,99,55214,1,0,0:0:0:0:
480,192,55547,2,0,L|486:297,1,105,8|2,0:0|0:0,0:0:0:0:
396,326,56214,1,2,3:0:0:0:
312,282,56547,6,0,P|250:273|190:301,1,105,8|2,0:0|0:0,0:0:0:0:
124,326,57214,1,2,3:0:0:0:
43,276,57547,1,8,0:0:0:0:
60,184,57881,2,0,L|50:63,1,105,4|2,0:0|3:0,0:0:0:0:
128,24,58547,1,8,0:0:0:0:
209,71,58881,1,2,0:0:0:0:
294,31,59214,2,0,P|294:106|271:148,1,105,0|4,0:0|3:0,0:0:0:0:
246,220,59881,6,0,L|254:332,1,105,12|8,0:0|0:0,0:0:0:0:
347,312,60547,2,0,P|421:323|463:311,1,105,8|8,0:0|0:0,0:0:0:0:
493,232,61214,1,8,0:0:0:0:
449,147,61547,1,8,0:0:0:0:
464,54,61881,2,0,P|407:45|346:55,1,105,8|8,0:0|0:0,0:0:0:0:
317,69,62381,1,0,3:2:0:0:
317,69,62547,6,0,L|323:178,1,105,2|2,0:0|0:0,0:0:0:0:
259,244,63214,2,0,P|208:263|137:255,1,105,2|2,0:0|0:0,0:0:0:0:
115,240,63714,1,2,0:0:0:0:
73,218,63880,2,0,L|19:222,2,52.5,4|2|4,3:0|0:0|3:0,0:0:0:0:
107,129,64547,1,4,3:0:0:0:
283,60,65214,6,0,P|322:43|391:51,1,105,6|8,0:0|0:0,0:0:0:0:
464,102,65881,2,0,L|455:213,1,105,2|8,0:0|0:0,0:0:0:0:
413,291,66547,1,2,0:0:0:0:
326,253,66881,1,8,0:0:0:0:
247,310,67214,2,0,P|180:319|132:305,1,105,2|8,0:0|0:0,0:0:0:0:
79,242,67880,6,0,L|87:126,1,105,2|8,0:0|0:0,0:0:0:0:
118,102,68380,2,0,P|174:91|224:101,1,105,0|0,0:0|0:0,0:0:0:0:
264,117,68880,1,8,0:0:0:0:
349,157,69214,2,0,P|371:100|371:25,1,105,2|8,0:0|0:0,0:0:0:0:
289,16,69880,2,0,P|267:73|267:148,1,105,2|8,0:0|0:0,0:0:0:0:
284,208,70547,6,0,L|293:337,1,105,6|8,0:0|0:0,0:0:0:0:
205,352,71214,2,0,P|139:363|93:347,1,105,2|8,0:0|0:0,0:0:0:0:
17,313,71880,1,2,0:0:0:0:
62,230,72214,1,8,0:0:0:0:
4,155,72547,2,0,L|14:33,1,105,2|8,0:0|0:0,0:0:0:0:
102,21,73214,6,0,P|172:15|223:46,1,105,2|8,0:0|0:0,0:0:0:0:
242,53,73714,2,0,L|233:170,1,105,0|0,0:0|0:0,0:0:0:0:
251,201,74214,1,8,0:0:0:0:
333,246,74547,1,8,0:0:0:0:
415,200,74880,1,8,0:0:0:0:
409,105,75214,2,0,P|344:94|266:117,1,105,8|8,0:0|0:0,0:0:0:0:
260,113,75714,1,0,3:2:0:0:
220,138,75880,6,0,P|168:143|116:132,1,105,6|8,0:0|0:0,0:0:0:0:
37,183,76547,2,0,L|46:303,1,105,2|8,0:0|0:0,0:0:0:0:
125,337,77214,1,2,0:0:0:0:
212,302,77547,1,8,0:0:0:0:
293,350,77880,2,0,P|350:352|401:336,1,105,2|8,0:0|0:0,0:0:0:0:
452,262,78547,6,0,L|451:149,1,105,2|8,0:0|0:0,0:0:0:0:
424,117,79047,2,0,P|365:100|299:126,1,105,0|0,0:0|0:0,0:0:0:0:
283,134,79547,1,8,0:0:0:0:
199,89,79880,2,0,P|123:79|83:86,1,105,2|8,0:0|0:0,0:0:0:0:
15,133,80547,2,0,P|5:209|12:249,1,105,2|8,0:0|0:0,0:0:0:0:
33,276,81047,1,0,3:2:0:0:
66,309,81214,6,0,L|187:301,1,105,6|8,0:0|0:0,0:0:0:0:
231,230,81880,2,0,P|296:224|343:243,1,105,2|8,0:0|0:0,0:0:0:0:
422,266,82547,1,2,0:0:0:0:
471,185,82880,1,8,0:0:0:0:
407,115,83214,2,0,L|274:123,1,105,2|8,0:0|0:0,0:0:0:0:
223,173,83880,6,0,P|168:184|104:167,1,105,6|8,0:0|0:0,0:0:0:0:
74,162,84380,2,0,B|40:261|40:261|76:309,1,157.5,0|8,0:0|0:0,0:0:0:0:
152,352,85214,1,8,0:0:0:0:
236,310,85547,1,8,0:0:0:0:
315,360,85880,1,8,0:0:0:0:
397,312,86214,1,8,0:0:0:0:
353,228,86547,6,0,P|340:167|355:116,1,105,6|8,0:0|0:0,0:0:0:0:
400,43,87214,2,0,P|344:28|271:66,1,105,2|8,0:0|0:0,0:0:0:0:
218,88,87880,2,0,L|212:213,2,105,2|8|2,0:0|0:0|0:0,0:0:0:0:
132,44,88880,1,8,0:0:0:0:
72,118,89214,6,0,P|65:188|76:221,1,105,2|8,0:0|0:0,0:0:0:0:
127,298,89880,2,0,P|185:288|240:302,1,105,2|8,0:0|0:0,0:0:0:0:
271,319,90380,2,0,B|332:343|332:343|438:312,1,157.5,0|8,0:0|0:0,0:0:0:0:
501,267,91214,1,2,0:0:0:0:
472,177,91547,2,0,L|480:108,1,52.5,8|0,0:0|0:0,0:0:0:0:
451,85,91880,6,0,P|378:69|312:88,1,105,2|8,0:0|0:0,0:0:0:0:
260,106,92547,2,0,P|205:109|144:88,1,105,2|8,0:0|0:0,0:0:0:0:
111,82,93047,2,0,L|119:197,1,105,0|0,0:0|0:0,0:0:0:0:
125,233,93547,2,0,P|117:288|133:347,2,105,8|2|8,0:0|0:0|0:0,0:0:0:0:
201,176,94547,6,0,P|251:165|320:172,2,105,2|8|2,0:0|0:0|0:0,0:0:0:0:
156,161,95380,1,0,0:0:0:0:
189,72,95714,2,0,P|243:59|312:66,1,105
338,67,96214,1,8,0:0:0:0:
383,78,96380,2,0,L|372:244,1,157.5,0|8,0:0|0:0,0:0:0:0:
347,326,97214,6,0,P|403:325|451:288,1,105,6|8,0:0|0:0,0:0:0:0:
495,220,97880,2,0,L|491:106,1,105,2|8,0:0|0:0,0:0:0:0:
420,51,98547,2,0,P|354:34|306:44,2,105,2|8|2,0:0|0:0|0:0,0:0:0:0:
491,115,99547,1,8,0:0:0:0:
409,161,99880,6,0,P|357:165|307:149,1,105,2|8,0:0|0:0,0:0:0:0:
230,94,100547,2,0,L|119:102,1,105,0|8,0:0|0:0,0:0:0:0:
77,104,101047,2,0,P|51:166|86:256,1,157.5,0|8,0:0|0:0,0:0:0:0:
129,327,101880,1,2,0:0:0:0:
212,282,102214,2,0,L|282:292,1,52.5,8|0,0:0|3:2,0:0:0:0:
310,299,102547,6,0,P|336:237|322:177,1,105,12|2,0:0|3:0,0:0:0:0:
273,126,103214,2,0,P|344:106|411:153,2,157.5,8|8|2,0:0|0:0|0:0,0:0:0:0:
196,182,104547,2,0,P|127:184|91:170,1,105,8|8,0:0|0:0,0:0:0:0:
52,149,105047,1,0,3:2:0:0:
7,133,105214,6,0,L|20:251,1,105,12|8,0:0|0:0,0:0:0:0:
56,323,105880,2,0,L|114:336,1,52.5,8|8,0:0|0:0,0:0:0:0:
192,293,106380,1,12,0:0:0:0:
192,293,107880,6,0,L|176:231,1,52.5,8|2,0:0|0:0,0:0:0:0:
225,159,108380,2,0,P|283:146|334:167,1,105,8|2,0:0|0:0,0:0:0:0:
369,175,108880,2,0,L|390:107,1,52.5,0|10,3:2|0:0,0:0:0:0:
