osu file format v14

[General]
AudioFilename: audio.mp3
AudioLeadIn: 0
PreviewTime: 64957
Countdown: 0
SampleSet: Soft
StackLeniency: 0.7
Mode: 0
LetterboxInBreaks: 0
WidescreenStoryboard: 0

[Editor]
DistanceSpacing: 0.8
BeatDivisor: 3
GridSize: 32
TimelineZoom: 1

[Metadata]
Title:Prism lovely day
TitleUnicode:プリズム lovely day
Artist:solfa feat.Chata
ArtistUnicode:solfa feat.茶太
Creator:joker-
Version:Insane
Source:彼女と俺の恋愛日常
Tags:eroge opening Asuka_- Karen Lovely day of Girlfriends & me parasol
BeatmapID:1218407
BeatmapSetID:575372

[Difficulty]
HPDrainRate:7
CircleSize:4
OverallDifficulty:8
ApproachRate:9
SliderMultiplier:1.8
SliderTickRate:1

[Events]
//Background and Video events
0,0,"bg.png",0,0
//Break Periods
//Storyboard Layer 0 (Background)
//Storyboard Layer 1 (Fail)
//Storyboard Layer 2 (Pass)
//Storyboard Layer 3 (Foreground)
//Storyboard Sound Samples

[TimingPoints]
548,333.333333333333,4,2,1,60,1,0
548,-166.666666666667,4,2,1,60,0,0
4547,-153.846153846154,4,2,1,60,0,0
5214,-142.857142857143,4,2,1,50,0,0
5881,-95.2380952380952,4,2,1,50,0,0
11214,-90.9090909090909,4,2,2,70,0,0
27214,-142.857142857143,4,2,1,50,0,0
29881,-90.9090909090909,4,2,2,50,0,0
32047,-90.9090909090909,4,2,1,50,0,0
32547,-125,4,2,3,40,0,0
43214,-125,4,2,3,30,0,0
53547,-125,4,2,1,40,0,0
53881,333.333333333333,3,2,1,50,1,0
53881,-142.857142857143,4,2,1,50,0,0
59881,333.333333333333,4,2,1,60,1,0
59881,-100,4,2,1,60,0,0
65214,-90.9090909090909,4,2,2,70,0,1
74547,-90.9090909090909,4,2,1,70,0,1
74880,-90.9090909090909,4,2,2,70,0,1
75214,-90.9090909090909,4,2,1,70,0,1
75547,-90.9090909090909,4,2,2,70,0,1
85214,-90.9090909090909,4,2,1,80,0,1
86547,-90.9090909090909,4,2,2,60,0,0
102547,-142.857142857143,4,2,1,50,0,0
105214,-90.9090909090909,4,2,2,50,0,0
106380,-142.857142857143,4,2,2,50,0,0
107880,-90.9090909090909,4,2,1,60,0,0

[Colours]
Combo1 : 255,255,81
Combo2 : 255,156,108
Combo3 : 181,255,106
Combo4 : 170,255,255

[HitObjects]
149,310,548,6,0,B|115:311|88:336|88:336|26:290|26:290|86:214|201:232,1,323.999990112305,12|0,0:0|0:0,0:0:0:0:
277,280,1881,6,0,B|268:359|268:359|349:357|389:283|360:205|285:190,1,323.999990112305,12|0,0:0|0:0,0:0:0:0:
222,145,3214,6,0,B|182:119|145:111|145:111|196:65|257:92|257:92|322:124|386:72,1,323.999990112305,12|0,0:0|0:0,0:0:0:0:
475,148,4547,6,0,B|461:269,1,116.999994644165,12|0,0:0|0:0,0:0:0:0:
352,357,5214,6,0,B|337:232,1,125.999996154785,8|2,0:0|0:0,0:0:0:0:
310,204,5631,1,2,0:0:0:0:
276,186,5714,1,2,0:0:0:0:
238,191,5797,1,2,0:0:0:0:
210,212,5881,6,0,B|160:223|160:223|108:203,1,94.499997116089,2|0,0:0|0:0,0:0:0:0:
59,58,6214,2,0,L|155:66,1,94.499997116089,2|0,0:0|0:0,0:0:0:0:
119,207,6547,2,0,B|69:218|69:218|17:198,1,94.499997116089,2|0,0:0|0:0,0:0:0:0:
227,71,6881,2,0,L|323:79,1,94.499997116089,2|0,0:0|0:0,0:0:0:0:
409,177,7214,6,0,P|412:224|388:291,1,94.499997116089,2|0,0:0|3:0,0:0:0:0:
383,302,7464,1,0,3:0:0:0:
375,314,7547,2,0,P|321:312|274:328,1,94.499997116089,2|0,0:0|3:0,0:0:0:0:
252,343,7797,1,0,3:0:0:0:
239,351,7881,2,0,P|193:363|146:360,1,94.499997116089,2|0,0:0|3:0,0:0:0:0:
115,337,8131,1,0,3:0:0:0:
106,325,8214,2,0,L|120:221,1,94.499997116089,2|0,0:0|3:0,0:0:0:0:
322,286,8547,6,0,L|336:190,1,94.499997116089,2|0,0:0|3:0,0:0:0:0:
261,126,8797,1,0,3:0:0:0:
244,115,8881,2,0,L|230:209,1,94.499997116089,2|0,0:0|3:0,0:0:0:0:
142,235,9131,1,0,3:0:0:0:
120,248,9215,2,0,L|134:154,1,94.499997116089,2|0,0:0|3:0,0:0:0:0:
62,90,9464,1,0,3:0:0:0:
42,100,9547,2,0,L|31:159,1,47.2499985580445,8|8,0:0|0:0,0:0:0:0:
200,55,9714,2,0,L|191:1,1,47.2499985580445,8|8,0:0|0:0,0:0:0:0:
288,211,9881,5,2,0:0:0:0:
288,211,10714,1,2,0:0:0:0:
175,340,10881,1,0,3:2:0:0:
152,314,10964,1,0,3:2:0:0:
142,281,11047,1,0,3:2:0:0:
145,246,11131,1,0,3:2:0:0:
161,215,11214,6,0,L|54:225,1,99.0000030212403,6|0,0:0|0:0,0:0:0:0:
208,89,11547,1,8,0:0:0:0:
288,234,11714,1,0,0:0:0:0:
385,124,11881,2,0,P|432:117|488:137,1,99.0000030212403,2|0,0:0|0:0,0:0:0:0:
290,33,12214,1,8,0:0:0:0:
313,223,12381,1,0,0:0:0:0:
193,70,12547,6,0,P|105:50|41:131,1,198.000006042481,2|8,0:0|0:0,0:0:0:0:
76,276,13047,1,0,0:0:0:0:
214,234,13214,2,0,P|225:185|220:131,1,99.0000030212403,2|0,0:0|0:0,0:0:0:0:
46,229,13547,2,0,P|86:256|133:271,1,99.0000030212403,8|0,2:0|2:0,2:0:0:0:
133,59,13881,6,0,L|126:158,1,99.0000030212403,2|0,0:0|0:0,0:0:0:0:
199,314,14214,1,8,0:0:0:0:
322,251,14381,1,0,0:0:0:0:
269,47,14547,2,0,L|276:146,1,99.0000030212403,2|0,0:0|0:0,0:0:0:0:
397,223,14881,1,8,0:0:0:0:
356,82,15047,6,0,P|268:46|183:107,1,198.000006042481
201,273,15547,2,0,L|194:174,1,99.0000030212403,8|0,0:0|0:0,0:0:0:0:
37,182,15881,2,0,L|30:83,1,99.0000030212403,2|0,0:0|0:0,0:0:0:0:
0,278,16214,1,8,0:0:0:0:
112,192,16381,1,0,0:0:0:0:
203,347,16547,6,0,P|252:346|301:339,1,99.0000030212403,2|0,0:0|0:0,0:0:0:0:
414,193,16881,1,8,0:0:0:0:
461,314,17047,1,0,0:0:0:0:
320,181,17214,2,0,P|312:132|311:82,1,99.0000030212403,2|0,0:0|0:0,0:0:0:0:
257,260,17547,1,8,0:0:0:0:
155,68,17714,6,0,P|123:156|186:226,1,198.000006042481,0|0,0:0|0:0,0:0:0:0:
310,82,18214,2,0,L|409:92,1,99.0000030212403,8|0,0:0|0:0,0:0:0:0:
355,250,18547,2,0,L|256:260,1,99.0000030212403,2|0,0:0|0:0,0:0:0:0:
155,68,18881,1,8,0:0:0:0:
155,68,19214,6,0,P|160:122|151:189,1,99.0000030212403,2|0,0:0|0:0,0:0:0:0:
53,311,19547,2,0,P|48:257|57:190,1,99.0000030212403,8|0,0:0|0:0,0:0:0:0:
186,315,19881,1,2,0:0:0:0:
252,185,20047,2,0,L|364:195,1,99.0000030212403,0|8,0:0|0:0,0:0:0:0:
338,352,20381,6,0,P|393:284|347:192,1,198.000006042481
186,315,20881,1,8,0:0:0:0:
301,269,21047,1,0,0:0:0:0:
136,156,21214,1,2,0:0:0:0:
194,337,21381,1,0,0:0:0:0:
288,133,21547,1,8,0:0:0:0:
325,113,21630,1,0,3:2:0:0:
367,112,21713,1,0,3:2:0:0:
406,129,21796,1,0,3:2:0:0:
435,159,21881,6,0,L|425:264,1,99.0000030212403,6|0,0:0|0:0,0:0:0:0:
296,364,22214,1,8,0:0:0:0:
233,245,22381,1,0,0:0:0:0:
114,315,22547,2,0,P|107:263|114:195,1,99.0000030212403,2|0,0:0|0:0,0:0:0:0:
220,81,22881,1,8,0:0:0:0:
92,129,23047,1,0,0:0:0:0:
233,245,23214,6,0,P|322:275|391:202,1,198.000006042481,2|8,0:0|0:0,0:0:0:0:
421,79,23714,1,0,0:0:0:0:
302,179,23881,2,0,P|302:227|315:291,1,99.0000030212403,2|0,0:0|0:0,0:0:0:0:
490,194,24214,2,0,P|499:145|499:95,1,99.0000030212403,8|0,0:0|0:0,0:0:0:0:
343,30,24547,6,0,L|244:35,1,99.0000030212403,2|0,0:0|0:0,0:0:0:0:
148,191,24881,1,8,0:0:0:0:
116,68,25047,1,0,0:0:0:0:
257,175,25214,2,0,L|369:181,1,99.0000030212403,2|0,0:0|0:0,0:0:0:0:
206,49,25547,1,8,0:0:0:0:
214,252,25714,6,0,P|122:277|60:205,1,198.000006042481
257,175,26214,1,8,0:0:0:0:
227,344,26381,1,0,0:0:0:0:
149,190,26547,1,2,0:0:0:0:
303,274,26714,1,0,0:0:0:0:
324,99,26881,1,8,0:0:0:0:
353,120,26964,1,0,3:2:0:0:
388,129,27047,1,0,3:2:0:0:
424,123,27130,1,0,3:2:0:0:
454,103,27214,6,0,L|442:248,1,125.999996154785,8|2,0:0|3:0,0:0:0:0:
302,278,27881,2,0,P|249:254|171:273,1,125.999996154785,8|2,0:0|0:0,0:0:0:0:
102,212,28381,2,0,B|74:155|98:91|98:91|124:108|128:153,1,188.999994232178,8|2,0:0|0:0,0:0:0:0:
183,265,29214,2,0,L|176:349,1,62.9999980773926,8|0,0:0|0:0,0:0:0:0:
302,278,29547,1,8,0:0:0:0:
303,262,29630,1,0,3:2:0:0:
304,247,29713,1,0,3:2:0:0:
305,232,29796,1,0,3:2:0:0:
307,216,29881,6,0,P|378:234|447:189,1,148.50000453186,12|0,0:0|0:0,0:0:0:0:
365,140,30214,2,0,P|294:122|225:167,1,148.50000453186,8|0,0:0|0:0,0:0:0:0:
163,234,30547,1,8,0:0:0:0:
82,35,30714,2,0,B|91:79|91:79|74:133|74:133|86:189,1,148.50000453186,8|0,0:0|0:0,0:0:0:0:
163,234,31047,5,12,0:0:0:0:
163,234,32047,5,2,0:0:0:0:
84,179,32214,1,8,0:0:0:0:
84,179,32297,1,0,3:2:0:0:
84,179,32381,1,0,3:2:0:0:
84,179,32464,1,0,3:2:0:0:
84,179,32547,6,0,P|149:198|214:151,1,144,8|8,0:0|0:0,0:0:0:0:
290,234,33047,2,0,P|289:269|293:305,1,72,0|8,0:0|0:0,0:0:0:0:
413,256,33381,2,0,P|417:220|417:184,1,72,0|8,0:0|0:0,0:0:0:0:
384,69,33714,6,0,P|319:50|254:97,1,144,0|0,0:0|0:0,0:0:0:0:
140,120,34214,2,0,B|95:109|95:109|41:121|41:121|-15:107,2,144,8|8|8,0:0|0:0|0:0,0:0:0:0:
200,345,35214,6,0,L|209:195,1,144,8|8,0:0|0:0,0:0:0:0:
305,262,35714,2,0,B|376:307|445:268|445:268|437:236|407:205,1,216,0|8,0:0|0:0,0:0:0:0:
318,65,36547,6,0,P|388:42|481:81,1,144,10|8,0:0|0:0,0:0:0:0:
315,170,37214,2,0,P|245:193|152:154,1,144,10|8,0:0|0:0,0:0:0:0:
62,40,37881,6,0,B|36:81|36:81|56:188,1,144,10|8,0:0|0:0,0:0:0:0:
125,248,38381,2,0,P|129:283|128:319,1,72,0|8,0:0|0:0,0:0:0:0:
213,217,38714,2,0,P|225:250|232:286,1,72,0|8,0:0|0:0,0:0:0:0:
287,167,39047,6,0,P|354:186|420:155,1,144,0|0,0:0|0:0,0:0:0:0:
496,58,39547,2,0,L|345:50,2,144,8|8|8,0:0|0:0|0:0,0:0:0:0:
287,167,40547,6,0,P|215:193|141:160,1,144,8|8,0:0|0:0,0:0:0:0:
67,94,41047,2,0,L|60:185,1,72,0|8,0:0|0:0,0:0:0:0:
30,272,41381,2,0,L|45:351,1,72,0|8,0:0|0:0,0:0:0:0:
139,277,41714,6,0,B|197:261|197:261|275:327|353:267,1,216,0|10,0:0|0:0,0:0:0:0:
297,67,42547,2,0,P|267:127|275:203,1,144,10|10,0:0|0:0,0:0:0:0:
116,340,43214,6,0,L|104:195,1,144,8|8,0:0|0:0,0:0:0:0:
211,137,43714,2,0,P|244:149|312:151,1,72,4|8,0:0|0:0,0:0:0:0:
363,36,44047,2,0,P|363:71|354:122,1,72,4|8,0:0|0:0,0:0:0:0:
325,248,44381,6,0,P|388:218|456:237,1,144,4|4,0:0|0:0,0:0:0:0:
400,333,44881,2,0,P|348:339|317:337,1,72,8|4,0:0|0:0,0:0:0:0:
237,207,45214,2,0,P|237:245|246:288,1,72,8|0,0:0|0:0,0:0:0:0:
115,359,45547,1,8,0:0:0:0:
115,359,45881,6,0,P|103:285|127:189,1,144,8|8,0:0|0:0,0:0:0:0:
154,108,46381,1,4,0:0:0:0:
232,196,46547,2,0,P|269:209|323:215,1,72,10|4,0:0|0:0,0:0:0:0:
384,81,46881,2,0,P|388:118|383:166,1,72,8|4,0:0|0:0,0:0:0:0:
369,279,47214,6,0,P|302:264|220:302,1,144,10|8,0:0|0:0,0:0:0:0:
162,354,47714,1,4,0:0:0:0:
104,247,47881,2,0,L|110:168,1,72,10|0,0:0|0:0,0:0:0:0:
5,329,48214,2,0,L|-1:254,1,72,8|4,0:0|0:0,0:0:0:0:
42,109,48547,6,0,P|94:80|190:126,1,144,8|8,0:0|0:0,0:0:0:0:
246,190,49047,2,0,P|294:198|338:192,1,72,4|8,0:0|0:0,0:0:0:0:
425,110,49381,2,0,P|377:102|333:108,1,72,4|8,0:0|0:0,0:0:0:0:
461,211,49714,6,0,L|450:356,1,144,4|4,0:0|0:0,0:0:0:0:
339,302,50214,2,0,P|283:319|248:317,1,72,8|4,0:0|0:0,0:0:0:0:
223,164,50547,2,0,P|212:220|213:247,1,72,8|4,0:0|0:0,0:0:0:0:
95,333,50881,1,8,0:0:0:0:
95,333,51214,6,0,P|77:263|98:189,1,144,8|8,0:0|0:0,0:0:0:0:
156,98,51714,2,0,L|148:23,1,72,4|10,0:0|0:0,0:0:0:0:
230,163,52047,2,0,B|331:183|331:183|364:158,1,144,4|4,0:0|0:0,0:0:0:0:
466,78,52547,6,0,P|488:147|453:222,1,144,10|8,0:0|0:0,0:0:0:0:
395,277,53047,1,4,0:0:0:0:
363,158,53214,2,0,L|369:84,1,72,10|0,0:0|0:0,0:0:0:0:
263,32,53547,1,8,0:0:0:0:
235,152,53714,1,0,3:2:0:0:
235,152,53797,1,0,3:2:0:0:
235,152,53881,6,0,P|242:201|231:251,1,83.9999974365235,2|0,0:0|0:0,0:0:0:0:
161,284,54214,2,0,P|115:265|77:231,1,83.9999974365235,2|0,3:0|0:0,0:0:0:0:
128,155,54547,1,8,0:0:0:0:
128,155,54881,2,0,L|119:55,1,83.9999974365235,2|0,0:0|0:0,0:0:0:0:
197,17,55214,5,0,0:0:0:0:
336,118,55547,2,0,L|330:212,1,83.9999974365235,8|0,0:0|0:0,0:0:0:0:
429,247,55881,2,0,L|423:150,1,83.9999974365235,2|0,0:0|0:0,0:0:0:0:
415,61,56214,1,2,3:0:0:0:
415,61,56547,6,0,P|366:46|321:53,1,83.9999974365235,8|0,0:0|0:0,0:0:0:0:
236,83,56881,2,0,L|245:180,1,83.9999974365235,2|0,0:0|0:0,0:0:0:0:
174,242,57214,1,2,3:0:0:0:
146,41,57547,2,0,L|155:129,1,83.9999974365235,8|0,0:0|0:0,0:0:0:0:
87,190,57881,5,4,0:0:0:0:
277,244,58214,1,2,3:0:0:0:
87,190,58547,1,8,0:0:0:0:
277,244,58881,2,0,P|323:241|368:206,1,83.9999974365235,2|0,0:0|0:0,0:0:0:0:
252,149,59214,1,0,0:0:0:0:
252,149,59547,2,0,P|288:123|351:124,1,83.9999974365235,4|0,3:0|0:0,0:0:0:0:
354,221,59881,6,0,P|397:233|466:220,1,90,12|0,0:0|0:0,0:0:0:0:
489,83,60214,2,0,L|385:75,1,90,8|0,0:0|0:0,0:0:0:0:
252,149,60547,1,8,0:0:0:0:
193,34,60714,1,0,0:0:0:0:
65,132,60881,2,0,L|74:229,1,90,8|0,0:0|0:0,0:0:0:0:
227,352,61214,6,0,L|236:250,1,90,8|0,0:0|0:0,0:0:0:0:
335,104,61547,2,0,L|346:213,1,90,8|0,0:0|0:0,0:0:0:0:
195,115,61881,1,8,0:0:0:0:
234,262,62047,1,0,0:0:0:0:
335,104,62214,1,8,0:0:0:0:
370,110,62297,1,0,3:2:0:0:
405,117,62381,1,0,3:2:0:0:
440,124,62464,1,0,3:2:0:0:
475,130,62547,6,0,L|465:23,1,90,2|0,0:0|0:0,0:0:0:0:
396,229,62881,2,0,L|405:332,1,90,2|0,0:0|0:0,0:0:0:0:
288,116,63214,2,0,L|281:15,1,90,2|0,0:0|0:0,0:0:0:0:
205,216,63547,1,2,0:0:0:0:
126,103,63714,1,2,0:0:0:0:
300,201,63880,5,4,3:0:0:0:
122,267,64047,1,2,0:0:0:0:
209,90,64214,1,4,3:0:0:0:
261,302,64380,1,2,0:0:0:0:
52,172,64547,1,4,3:0:0:0:
52,172,64880,5,8,3:0:0:0:
50,148,64963,1,0,3:2:0:0:
49,125,65046,1,0,3:2:0:0:
48,101,65130,1,0,3:2:0:0:
47,77,65214,6,0,P|139:36|210:92,1,198.000006042481,6|8,0:0|0:0,0:0:0:0:
267,222,65714,1,0,0:0:0:0:
396,90,65881,2,0,P|405:137|399:204,1,99.0000030212403,2|0,0:0|0:0,0:0:0:0:
352,364,66214,1,8,0:0:0:0:
481,273,66381,1,0,0:0:0:0:
267,222,66547,6,0,P|214:222|160:239,1,99.0000030212403,2|0,0:0|0:0,0:0:0:0:
74,84,66881,1,8,0:0:0:0:
223,141,67047,1,0,0:0:0:0:
73,297,67214,2,0,P|74:248|85:198,1,99.0000030212403,2|0,0:0|0:0,0:0:0:0:
212,43,67547,2,0,P|222:91|223:140,1,99.0000030212403,8|0,0:0|0:0,0:0:0:0:
261,341,67880,6,0,P|318:268|426:301,1,198.000006042481,2|8,0:0|0:0,0:0:0:0:
300,160,68380,1,0,0:0:0:0:
471,204,68547,2,0,L|484:99,1,99.0000030212403,2|0,0:0|0:0,0:0:0:0:
353,355,68880,1,8,0:0:0:0:
280,238,69047,1,0,0:0:0:0:
141,347,69214,6,0,L|129:245,1,99.0000030212403,2|0,0:0|0:0,0:0:0:0:
213,72,69547,1,8,0:0:0:0:
83,143,69714,1,0,0:0:0:0:
280,238,69880,2,0,L|387:226,1,99.0000030212403,2|0,0:0|0:0,0:0:0:0:
463,19,70214,2,0,L|353:29,1,99.0000030212403,8|0,0:0|0:0,0:0:0:0:
466,202,70547,6,0,B|497:275|466:348|466:348|417:282,1,198.000006042481,6|8,0:0|0:0,0:0:0:0:
343,205,71047,1,0,0:0:0:0:
225,330,71214,2,0,P|165:328|111:314,1,99.0000030212403,2|0,0:0|0:0,0:0:0:0:
57,152,71547,1,8,0:0:0:0:
189,206,71714,1,0,0:0:0:0:
166,23,71880,6,0,L|175:127,1,99.0000030212403,2|0,0:0|0:0,0:0:0:0:
42,280,72214,1,8,0:0:0:0:
57,152,72380,1,0,0:0:0:0:
214,277,72547,2,0,P|263:288|316:279,1,99.0000030212403,2|0,0:0|0:0,0:0:0:0:
394,70,72880,2,0,P|400:129|375:197,1,99.0000030212403,8|0,0:0|0:0,0:0:0:0:
214,277,73214,6,0,P|151:225|185:114,1,198.000006042481,2|8,0:0|0:0,0:0:0:0:
332,230,73714,2,0,B|397:274|461:222|461:222|526:261,1,198.000006042481,0|0,0:0|0:0,0:0:0:0:
394,70,74214,2,0,L|390:194,1,99.0000030212403,8|0,0:0|0:0,0:0:0:0:
210,290,74547,5,8,0:0:0:0:
152,151,74714,1,0,0:0:0:0:
332,230,74880,1,8,0:0:0:0:
272,102,75047,1,0,0:0:0:0:
116,255,75214,1,8,0:0:0:0:
125,68,75380,1,0,0:0:0:0:
332,230,75547,1,8,0:0:0:0:
108,175,75714,1,0,3:2:0:0:
86,170,75797,1,0,3:2:0:0:
67,164,75880,6,0,P|15:224|62:340,1,198.000006042481,6|8,0:0|0:0,0:0:0:0:
214,289,76380,1,0,0:0:0:0:
203,79,76547,2,0,L|209:181,1,99.0000030212403,2|0,0:0|0:0,0:0:0:0:
372,265,76880,1,8,0:0:0:0:
400,130,77047,1,0,0:0:0:0:
258,267,77214,6,0,P|260:332|276:378,1,99.0000030212403,2|0,0:0|0:0,0:0:0:0:
440,219,77547,1,8,0:0:0:0:
308,162,77714,1,0,0:0:0:0:
425,316,77880,2,0,P|437:268|439:218,1,99.0000030212403,2|0,0:0|0:0,0:0:0:0:
293,64,78214,2,0,P|294:113|307:161,1,99.0000030212403,8|0,0:0|0:0,0:0:0:0:
146,325,78547,6,0,P|220:357|300:275,1,198.000006042481,2|8,0:0|0:0,0:0:0:0:
307,161,79047,1,0,0:0:0:0:
158,109,79214,2,0,L|167:207,1,99.0000030212403,2|0,0:0|0:0,0:0:0:0:
13,317,79547,1,8,0:0:0:0:
59,175,79714,1,0,0:0:0:0:
216,273,79880,6,0,P|287:282|331:273,1,99.0000030212403,2|0,0:0|0:0,0:0:0:0:
380,120,80214,1,8,0:0:0:0:
458,244,80380,1,0,0:0:0:0:
507,87,80547,1,2,0:0:0:0:
367,24,80714,1,0,0:0:0:0:
309,204,80880,1,8,0:0:0:0:
312,228,80964,1,0,3:2:0:0:
316,252,81047,1,0,3:2:0:0:
319,276,81130,1,0,3:2:0:0:
322,300,81214,6,0,P|252:280|170:375,1,198.000006042481,6|8,0:0|0:0,0:0:0:0:
78,238,81714,1,0,0:0:0:0:
220,195,81880,2,0,P|228:144|219:88,1,99.0000030212403,2|0,0:0|0:0,0:0:0:0:
48,23,82214,1,8,0:0:0:0:
127,145,82380,1,0,0:0:0:0:
282,21,82547,6,0,L|392:34,1,99.0000030212403,2|0,0:0|0:0,0:0:0:0:
468,211,82880,1,8,0:0:0:0:
512,84,83047,1,0,0:0:0:0:
328,119,83214,2,0,L|229:130,1,99.0000030212403,2|0,0:0|0:0,0:0:0:0:
145,357,83547,2,0,P|135:307|147:251,1,99.0000030212403,8|0,0:0|0:0,0:0:0:0:
337,279,83880,6,0,P|395:303|497:226,1,198.000006042481,6|8,0:0|0:0,0:0:0:0:
385,133,84380,2,0,B|343:100|296:126|296:126|238:156|168:94,1,198.000006042481,0|0,0:0|0:0,0:0:0:0:
77,245,84880,2,0,L|87:343,1,99.0000030212403,8|0,0:0|0:0,0:0:0:0:
114,164,85214,5,8,0:0:0:0:
168,283,85380,1,0,0:0:0:0:
241,119,85547,1,8,0:0:0:0:
301,260,85714,1,0,0:0:0:0:
375,82,85880,1,8,0:0:0:0:
432,241,86047,1,0,0:0:0:0:
503,45,86214,1,8,0:0:0:0:
284,108,86380,1,0,3:2:0:0:
259,114,86464,1,0,3:2:0:0:
241,119,86547,6,0,L|258:19,1,99.0000030212403,6|0,0:0|0:0,0:0:0:0:
353,185,86880,1,8,0:0:0:0:
223,237,87047,1,0,0:0:0:0:
114,102,87214,2,0,P|110:156|125:212,1,99.0000030212403,2|0,0:0|0:0,0:0:0:0:
235,352,87547,1,8,0:0:0:0:
113,298,87714,1,0,0:0:0:0:
294,245,87880,6,0,B|402:199|387:288|491:243,1,198.000006042481,2|8,0:0|0:0,0:0:0:0:
378,343,88380,1,0,0:0:0:0:
212,209,88547,2,0,L|223:308,1,99.0000030212403,2|0,0:0|0:0,0:0:0:0:
375,134,88880,2,0,L|365:233,1,99.0000030212403,8|0,0:0|0:0,0:0:0:0:
237,59,89214,6,0,P|186:57|137:69,1,99.0000030212403,2|0,0:0|0:0,0:0:0:0:
70,214,89547,1,8,0:0:0:0:
39,106,89714,1,0,0:0:0:0:
187,172,89880,2,0,L|197:282,1,99.0000030212403,2|0,0:0|0:0,0:0:0:0:
310,144,90214,1,8,0:0:0:0:
355,323,90380,6,0,P|296:257|174:291,1,198.000006042481,0|0,0:0|0:0,0:0:0:0:
52,360,90880,2,0,L|39:247,1,99.0000030212403,8|0,0:0|0:0,0:0:0:0:
135,128,91214,2,0,L|123:226,1,99.0000030212403,2|0,0:0|0:0,0:0:0:0:
0,130,91547,1,8,0:0:0:0:
40,261,91714,1,0,0:0:0:0:
210,161,91880,6,0,P|260:149|335:162,1,99.0000030212403,2|0,0:0|0:0,0:0:0:0:
468,213,92214,1,8,0:0:0:0:
403,93,92380,1,0,0:0:0:0:
330,238,92547,2,0,L|339:338,1,99.0000030212403,2|0,0:0|0:0,0:0:0:0:
468,213,92880,1,8,0:0:0:0:
307,152,93047,6,0,B|218:101|206:188|114:117,1,198.000006042481
40,263,93547,2,0,L|141:274,1,99.0000030212403,8|0,0:0|0:0,0:0:0:0:
119,121,93880,2,0,L|16:131,1,99.0000030212403,2|0,0:0|0:0,0:0:0:0:
271,42,94214,1,8,0:0:0:0:
271,42,94547,6,0,P|267:102|290:164,1,99.0000030212403,2|0,0:0|0:0,0:0:0:0:
349,317,94880,2,0,P|360:268|354:219,1,99.0000030212403,8|0,0:0|0:0,0:0:0:0:
402,71,95214,1,2,0:0:0:0:
276,139,95380,2,0,L|178:129,1,99.0000030212403,0|8,0:0|0:0,0:0:0:0:
70,284,95714,6,0,P|35:185|101:120,1,198.000006042481,0|0,0:0|0:0,0:0:0:0:
215,272,96214,1,8,0:0:0:0:
276,139,96380,1,0,0:0:0:0:
127,212,96547,1,2,0:0:0:0:
176,64,96714,1,0,0:0:0:0:
311,216,96880,1,8,0:0:0:0:
344,229,96963,1,0,3:2:0:0:
381,231,97046,1,0,3:2:0:0:
415,220,97129,1,0,0:0:0:0:
445,198,97214,6,0,L|438:95,1,99.0000030212403,6|0,0:0|0:0,0:0:0:0:
294,9,97547,1,8,0:0:0:0:
365,146,97714,1,0,0:0:0:0:
313,276,97880,2,0,P|256:287|201:279,1,99.0000030212403,2|0,0:0|0:0,0:0:0:0:
110,149,98214,1,8,0:0:0:0:
64,283,98380,1,0,0:0:0:0:
207,196,98547,6,0,P|256:142|220:20,1,198.000006042481,2|8,0:0|0:0,0:0:0:0:
342,150,99047,1,0,0:0:0:0:
153,103,99214,2,0,P|99:105|44:121,1,99.0000030212403,2|0,0:0|0:0,0:0:0:0:
161,276,99547,2,0,P|225:289|274:287,1,99.0000030212403,8|0,0:0|0:0,0:0:0:0:
350,51,99880,6,0,L|341:159,1,99.0000030212403,2|0,0:0|0:0,0:0:0:0:
459,272,100214,1,8,0:0:0:0:
489,137,100380,1,0,0:0:0:0:
352,239,100547,2,0,P|346:292|357:345,1,99.0000030212403,0|0,0:0|0:0,0:0:0:0:
429,193,100880,1,8,0:0:0:0:
278,83,101047,6,0,P|192:57|116:161,1,198.000006042481,0|0,0:0|0:0,0:0:0:0:
79,300,101547,1,8,0:0:0:0:
26,187,101714,1,0,0:0:0:0:
185,274,101880,1,2,0:0:0:0:
119,124,102047,1,0,0:0:0:0:
285,192,102214,1,8,0:0:0:0:
317,208,102297,1,0,3:2:0:0:
353,211,102380,1,0,3:2:0:0:
388,200,102463,1,0,3:2:0:0:
416,177,102547,6,0,B|439:104|439:104|421:54,1,125.999996154785,12|2,0:0|3:0,0:0:0:0:
268,22,103214,2,0,L|277:155,1,125.999996154785,8|2,0:0|0:0,0:0:0:0:
220,242,103714,2,0,B|164:222|164:222|102:245|102:245|30:215,1,188.999994232178,8|2,0:0|0:0,0:0:0:0:
173,108,104547,2,0,L|164:24,1,62.9999980773926,8|0,0:0|0:0,0:0:0:0:
280,79,104880,1,8,0:0:0:0:
283,94,104964,1,0,3:2:0:0:
286,109,105047,1,0,3:2:0:0:
289,124,105130,1,0,3:2:0:0:
291,139,105214,6,0,P|367:112|453:156,1,148.50000453186,12|0,0:0|0:0,0:0:0:0:
363,215,105547,2,0,P|286:240|205:200,1,148.50000453186,8|0,0:0|0:0,0:0:0:0:
142,153,105880,1,8,0:0:0:0:
50,348,106047,2,0,B|61:303|61:303|45:254|45:254|58:205,1,148.50000453186,8|0,0:0|0:0,0:0:0:0:
142,153,106380,6,0,P|160:91|142:26,1,125.999996154785,12|0,0:0|0:0,0:0:0:0:
48,108,106880,2,0,L|54:187,1,62.9999980773926,0|0,0:0|0:0,0:0:0:0:
137,297,107214,1,0,0:0:0:0:
200,203,107380,1,2,0:0:0:0:
296,294,107547,1,8,0:0:0:0:
296,294,107630,1,0,3:2:0:0:
296,294,107714,1,0,3:2:0:0:
296,294,107797,1,0,3:2:0:0:
296,294,107880,5,8,0:0:0:0:
369,156,108047,2,0,P|299:138|224:176,1,148.50000453186,2|0,0:0|0:0,0:0:0:0:
200,203,108380,1,8,0:0:0:0:
44,89,108714,1,8,0:0:0:0:
44,89,108797,1,0,3:2:0:0:
44,89,108880,1,0,3:2:0:0:
85,282,109047,5,10,0:0:0:0:
