osu file format v14

[General]
AudioFilename: audio.mp3
AudioLeadIn: 0
PreviewTime: 64957
Countdown: 0
SampleSet: Soft
StackLeniency: 0.7
Mode: 0
LetterboxInBreaks: 0
WidescreenStoryboard: 0

[Editor]
Bookmarks: 10631,12791,15881,21881,35381,53881,86547,97214
DistanceSpacing: 1.1
BeatDivisor: 4
GridSize: 32
TimelineZoom: 1

[Metadata]
Title:Prism lovely day
TitleUnicode:プリズム lovely day
Artist:solfa feat.Chata
ArtistUnicode:solfa feat.茶太
Creator:joker-
Version:Asuka_-'s Hard
Source:彼女と俺の恋愛日常
Tags:eroge opening Asuka_- Karen Lovely day of Girlfriends & me parasol
BeatmapID:1246152
BeatmapSetID:575372

[Difficulty]
HPDrainRate:5
CircleSize:4
OverallDifficulty:6
ApproachRate:8
SliderMultiplier:1.6
SliderTickRate:1

[Events]
//Background and Video events
0,0,"bg.png",0,0
//Break Periods
//Storyboard Layer 0 (Background)
//Storyboard Layer 1 (Fail)
//Storyboard Layer 2 (Pass)
//Storyboard Layer 3 (Foreground)
//Storyboard Sound Samples

[TimingPoints]
548,333.333333333333,4,2,1,60,1,0
548,-117.647058823529,4,2,1,60,0,0
5214,-117.647058823529,4,2,1,50,0,0
5881,-111.111111111111,4,2,1,50,0,0
11214,-100,4,2,2,70,0,0
27214,-111.111111111111,4,2,1,50,0,0
29881,-100,4,2,2,50,0,0
32047,-100,4,2,1,50,0,0
32547,-114.942528735632,4,2,3,40,0,0
43214,-114.942528735632,4,2,3,40,0,0
53547,-114.942528735632,4,2,1,40,0,0
53881,333.333333333333,3,2,1,50,1,0
53881,-111.111111111111,4,2,1,50,0,0
59881,333.333333333333,4,2,1,60,1,0
59881,-111.111111111111,4,2,1,60,0,0
62547,-105.263157894737,4,2,1,60,0,0
65214,-100,4,2,2,70,0,1
74547,-100,4,2,1,70,0,1
74880,-100,4,2,2,70,0,1
75214,-100,4,2,1,70,0,1
75547,-100,4,2,2,70,0,1
85214,-100,4,2,1,80,0,1
86547,-100,4,2,2,60,0,0
102547,-100,4,2,1,50,0,0
105214,-100,4,2,2,50,0,0
107880,-100,4,2,1,60,0,0

[Colours]
Combo1 : 255,255,81
Combo2 : 255,156,108
Combo3 : 181,255,106
Combo4 : 170,255,255

[HitObjects]
64,306,548,6,0,P|55:240|43:149,1,136.000002593994,12|0,0:0|0:0,0:0:0:0:
92,29,1214,1,0,0:0:0:0:
92,29,1547,1,0,0:0:0:0:
209,121,1881,6,0,P|276:142|358:99,1,136.000002593994,12|0,0:0|0:0,0:0:0:0:
455,31,2547,1,0,0:0:0:0:
455,31,2881,1,0,0:0:0:0:
416,175,3214,6,0,L|402:316,1,136.000002593994,12|0,0:0|0:0,0:0:0:0:
436,376,3714,1,0,0:0:0:0:
268,226,4214,1,0,0:0:0:0:
126,275,4547,6,0,P|115:227|139:159,1,102.000001945496,12|0,0:0|0:0,0:0:0:0:
163,163,4881,2,0,P|178:109|165:40,1,102.000001945496
147,37,5214,2,0,P|208:32|261:29,1,102.000001945496,8|0,0:0|0:0,0:0:0:0:
284,40,5547,2,8,L|298:-4,3,34.0000006484985
321,60,5881,6,0,L|352:208,1,143.999995605469,2|2,0:0|0:0,0:0:0:0:
368,277,6381,1,0,0:0:0:0:
340,350,6547,2,0,P|305:363|249:361,1,71.9999978027344,2|0,0:0|0:0,0:0:0:0:
192,349,6881,2,0,L|183:276,1,71.9999978027344,2|0,0:0|0:0,0:0:0:0:
228,212,7214,6,0,L|218:130,1,71.9999978027344,2|0,0:0|0:0,0:0:0:0:
155,93,7547,1,2,0:0:0:0:
209,34,7714,2,0,P|243:22|300:37,1,71.9999978027344,0|2,0:0|0:0,0:0:0:0:
350,58,8047,1,0,0:0:0:0:
427,39,8214,2,0,L|439:123,1,71.9999978027344,2|0,0:0|0:0,0:0:0:0:
460,186,8547,6,0,P|395:231|316:192,1,143.999995605469,2|2,0:0|0:0,0:0:0:0:
280,160,9047,2,0,P|244:154|200:174,1,71.9999978027344,0|2,3:0|0:0,0:0:0:0:
169,233,9381,1,0,3:0:0:0:
100,194,9547,2,0,L|93:113,1,71.9999978027344,8|8,0:0|0:0,0:0:0:0:
152,67,9881,5,2,0:0:0:0:
280,160,10214,1,0,0:0:0:0:
417,81,10547,1,0,0:0:0:0:
474,228,10881,2,0,P|480:247|483:280,3,35.9999989013672,0|0|0|0,3:2|3:2|3:2|3:2,0:0:0:0:
457,300,11214,6,0,P|377:337|295:306,1,160,6|8,0:0|0:0,0:0:0:0:
224,300,11714,1,0,0:0:0:0:
141,330,11881,2,0,P|130:290|123:240,1,80,2|0,0:0|0:0,0:0:0:0:
171,177,12214,2,0,P|178:141|181:93,1,80,8|0,0:0|0:0,0:0:0:0:
115,41,12547,6,0,P|170:85|273:56,1,160,2|8,0:0|0:0,0:0:0:0:
325,20,13047,1,0,0:0:0:0:
394,73,13214,2,0,P|435:68|483:60,2,80,2|0|8,0:0|0:0|2:0,0:0:0:0:
325,20,13714,1,0,2:0:0:0:
254,72,13881,6,0,L|236:234,1,160,2|8,0:0|0:0,0:0:0:0:
242,318,14381,1,0,0:0:0:0:
314,370,14547,2,0,P|358:379|400:373,1,80,2|0,0:0|0:0,0:0:0:0:
471,336,14881,1,8,0:0:0:0:
399,285,15047,6,0,P|366:216|402:130,1,160,0|0,0:0|0:0,0:0:0:0:
420,57,15547,2,0,P|380:64|326:69,1,80,8|0,0:0|0:0,0:0:0:0:
284,135,15881,2,0,P|243:131|186:121,1,80,2|0,0:0|0:0,0:0:0:0:
136,70,16214,1,8,0:0:0:0:
136,70,16381,1,0,0:0:0:0:
73,132,16547,6,0,L|89:291,1,160,2|8,0:0|0:0,0:0:0:0:
46,368,17047,1,0,0:0:0:0:
97,299,17214,2,0,P|172:262|248:292,1,160,2|8,0:0|0:0,0:0:0:0:
307,342,17714,6,0,P|363:360|463:306,1,160,0|0,0:0|0:0,0:0:0:0:
413,241,18214,2,0,L|404:161,1,80,8|0,0:0|0:0,0:0:0:0:
332,110,18547,2,0,L|322:16,2,80,2|0|8,0:0|0:0|0:0,0:0:0:0:
404,161,19047,1,0,0:0:0:0:
329,208,19214,6,0,P|287:222|233:217,1,80,2|0,0:0|0:0,0:0:0:0:
169,190,19547,2,0,L|180:88,1,80,8|0,0:0|0:0,0:0:0:0:
112,49,19881,1,2,0:0:0:0:
45,106,20047,2,0,L|31:222,1,80,0|8,0:0|0:0,0:0:0:0:
21,272,20381,6,0,P|80:320|161:291,1,160,0|0,0:0|0:0,0:0:0:0:
231,254,20881,2,0,P|281:242|325:257,1,80,8|0,0:0|0:0,0:0:0:0:
394,267,21214,2,0,L|411:158,1,80,2|0,0:0|0:0,0:0:0:0:
407,99,21547,2,0,P|396:87|377:74,3,40,8|0|0|0,0:0|3:2|3:2|3:2,0:0:0:0:
344,104,21881,6,0,P|274:140|191:110,1,160,6|8,0:0|0:0,0:0:0:0:
124,71,22381,1,0,0:0:0:0:
55,121,22547,2,0,P|45:154|36:220,1,80,2|0,0:0|0:0,0:0:0:0:
124,215,22881,2,0,P|138:260|144:300,1,80,8|0,0:0|0:0,0:0:0:0:
89,362,23214,6,0,P|155:329|250:346,1,160,2|8,0:0|0:0,0:0:0:0:
321,369,23714,1,0,0:0:0:0:
405,344,23881,2,0,P|441:334|486:326,2,80,2|0|8,0:0|0:0|0:0,0:0:0:0:
321,369,24381,1,0,0:0:0:0:
238,341,24547,6,0,L|215:171,1,160,2|8,0:0|0:0,0:0:0:0:
222,94,25048,1,0,0:0:0:0:
281,29,25214,2,0,P|321:18|367:25,1,80,2|0,0:0|0:0,0:0:0:0:
429,76,25547,1,8,0:0:0:0:
498,22,25714,6,0,P|468:112|510:184,1,160
506,254,26214,2,0,P|467:261|412:266,1,80,8|0,0:0|0:0,0:0:0:0:
351,219,26547,2,0,P|303:215|255:210,1,80,2|0,0:0|0:0,0:0:0:0:
190,245,26881,1,8,0:0:0:0:
190,245,27048,1,0,3:2:0:0:
116,197,27214,6,0,P|88:130|127:62,1,143.999995605469,8|2,0:0|3:0,0:0:0:0:
184,28,27714,1,0,0:0:0:0:
258,54,27881,2,0,P|325:28|392:57,1,143.999995605469,8|2,0:0|0:0,0:0:0:0:
436,117,28381,6,0,L|412:284,1,143.999995605469,8|0,0:0|0:0,0:0:0:0:
340,283,28881,2,0,L|333:211,1,71.9999978027344,2|0,0:0|0:0,0:0:0:0:
256,232,29214,2,0,L|250:305,2,71.9999978027344,8|0|8,0:0|0:0|0:0,0:0:0:0:
190,182,29714,1,0,3:2:0:0:
146,251,29881,6,0,P|103:265|52:247,1,80,12|0,0:0|0:0,0:0:0:0:
6,199,30214,2,0,L|24:95,1,80,8|0,0:0|0:0,0:0:0:0:
69,46,30547,1,10,0:0:0:0:
138,99,30714,2,0,P|182:111|237:104,1,80,8|0,0:0|0:0,0:0:0:0:
264,35,31047,6,0,P|301:120|252:194,1,160,12|0,0:0|0:0,0:0:0:0:
203,228,31548,2,0,L|213:317,1,80,0|0,0:0|0:0,0:0:0:0:
265,377,31881,2,0,P|307:380|357:383,1,80,0|2,0:0|0:0,0:0:0:0:
430,359,32214,2,8,L|440:310,3,40,8|8|8|8,0:0|3:2|3:2|3:2,0:0:0:0:
475,325,32547,6,0,L|490:243,1,69.6000005841065,8|0,0:0|0:0,0:0:0:0:
447,190,32881,2,0,L|439:109,1,69.6000005841065,8|0,0:0|0:0,0:0:0:0:
373,88,33214,2,0,L|348:15,1,69.6000005841065,8|0,0:0|0:0,0:0:0:0:
278,49,33547,2,0,L|216:12,1,69.6000005841065,8|0,0:0|0:0,0:0:0:0:
160,65,33881,6,0,L|62:57,1,69.6000005841065,0|0,0:0|0:0,0:0:0:0:
86,135,34214,2,0,L|-1:159,1,69.6000005841065,8|0,0:0|0:0,0:0:0:0:
51,222,34547,2,0,L|-2:272,1,69.6000005841065,8|0,0:0|0:0,0:0:0:0:
63,314,34881,2,0,L|46:381,1,69.6000005841065,8|0,0:0|0:0,0:0:0:0:
122,377,35214,6,0,L|269:363,1,139.200001168213,8|8,0:0|0:0,0:0:0:0:
336,351,35714,1,0,0:0:0:0:
412,359,35881,2,0,P|451:300|432:222,1,139.200001168213,0|8,0:0|0:0,0:0:0:0:
384,183,36381,1,0,0:0:0:0:
314,215,36547,6,0,L|295:291,2,69.6000005841065,10|0|8,0:0|0:0|0:0,0:0:0:0:
249,172,37047,1,0,0:0:0:0:
191,222,37214,2,0,L|169:296,2,69.6000005841065,10|0|8,0:0|0:0|0:0,0:0:0:0:
147,159,37714,1,0,0:0:0:0:
194,98,37881,6,0,L|281:84,1,69.6000005841065,10|0,0:0|0:0,0:0:0:0:
304,22,38214,2,0,L|380:53,1,69.6000005841065,8|0,0:0|0:0,0:0:0:0:
445,43,38547,2,0,L|460:117,1,69.6000005841065,8|0,0:0|0:0,0:0:0:0:
501,175,38881,2,0,L|472:243,1,69.6000005841065,8|0,0:0|0:0,0:0:0:0:
490,313,39214,6,0,L|423:348,1,69.6000005841065,0|0,0:0|0:0,0:0:0:0:
359,380,39547,2,0,L|279:368,1,69.6000005841065,8|0,0:0|0:0,0:0:0:0:
213,374,39881,2,0,L|161:313,1,69.6000005841065,8|0,0:0|0:0,0:0:0:0:
91,324,40214,2,0,L|68:244,1,69.6000005841065,8|0,0:0|0:0,0:0:0:0:
29,192,40547,6,0,P|111:149|163:171,1,139.200001168213,8|8,0:0|0:0,0:0:0:0:
204,215,41047,2,0,P|267:240|354:202,1,139.200001168213,0|0,0:0|0:0,0:0:0:0:
397,178,41547,1,8,0:0:0:0:
461,220,41714,1,0,0:0:0:0:
461,220,41881,6,0,P|471:183|499:75,1,139.200001168213,0|10,0:0|0:0,0:0:0:0:
361,12,42547,1,10,0:0:0:0:
227,86,42881,1,10,0:0:0:0:
90,16,43214,6,0,L|68:98,1,69.6000005841065,8|0,0:0|0:0,0:0:0:0:
9,128,43547,2,0,L|40:203,1,69.6000005841065,8|4,0:0|0:0,0:0:0:0:
29,268,43881,2,0,L|106:291,1,69.6000005841065,8|4,0:0|0:0,0:0:0:0:
122,359,44214,2,0,L|192:344,1,69.6000005841065,8|4,0:0|0:0,0:0:0:0:
260,375,44547,6,0,L|274:303,1,69.6000005841065,0|4,0:0|0:0,0:0:0:0:
349,299,44881,2,0,L|332:208,1,69.6000005841065,8|4,0:0|0:0,0:0:0:0:
412,229,45214,2,0,L|434:139,1,69.6000005841065,8|0,0:0|0:0,0:0:0:0:
499,130,45547,2,0,L|480:55,1,69.6000005841065,8|0,0:0|0:0,0:0:0:0:
411,32,45881,6,0,P|339:74|265:46,1,139.200001168213,8|8,0:0|0:0,0:0:0:0:
217,33,46381,1,4,0:0:0:0:
150,70,46547,2,0,L|109:224,1,139.200001168213,10|8,0:0|0:0,0:0:0:0:
60,259,47048,1,4,0:0:0:0:
87,329,47214,6,0,L|1:345,2,69.6000005841065,10|0|8,0:0|0:0|0:0,0:0:0:0:
143,276,47714,1,4,0:0:0:0:
114,204,47881,2,0,L|17:178,2,69.6000005841065,10|0|8,0:0|0:0|0:0,0:0:0:0:
190,199,48381,1,4,0:0:0:0:
252,154,48547,6,0,L|302:76,1,69.6000005841065,8|0,0:0|0:0,0:0:0:0:
215,75,48881,2,0,L|201:-3,1,69.6000005841065,8|4,0:0|0:0,0:0:0:0:
135,43,49214,2,0,L|54:-2,1,69.6000005841065,8|4,0:0|0:0,0:0:0:0:
67,86,49547,2,0,L|-6:101,1,69.6000005841065,8|4,0:0|0:0,0:0:0:0:
3,176,49881,6,0,L|11:272,1,69.6000005841065,0|4,0:0|0:0,0:0:0:0:
81,269,50214,2,0,L|95:182,1,69.6000005841065,8|0,0:0|0:0,0:0:0:0:
167,189,50547,2,0,L|175:282,1,69.6000005841065,8|0,0:0|0:0,0:0:0:0:
244,286,50881,2,0,L|260:204,1,69.6000005841065,8|0,0:0|0:0,0:0:0:0:
303,156,51214,6,0,P|375:179|434:141,1,139.200001168213,8|8,0:0|0:0,0:0:0:0:
471,86,51714,2,0,L|444:237,1,139.200001168213,4|4,0:0|0:0,0:0:0:0:
493,283,52214,1,0,0:0:0:0:
453,348,52381,1,4,0:0:0:0:
453,348,52547,6,0,P|402:320|308:351,1,139.200001168213,10|8,0:0|0:0,0:0:0:0:
263,380,53047,1,4,0:0:0:0:
195,342,53214,2,0,L|181:258,1,69.6000005841065,10|0,0:0|0:0,0:0:0:0:
241,223,53547,2,0,L|256:132,1,69.6000005841065,8|0,0:0|3:2,0:0:0:0:
240,75,53881,6,0,P|190:60|130:83,1,95.9999970703126,2|0,0:0|0:0,0:0:0:0:
99,89,54214,2,0,L|83:201,1,95.9999970703126,2|0,3:0|0:0,0:0:0:0:
44,217,54547,2,0,L|26:328,1,95.9999970703126,8|0,0:0|0:0,0:0:0:0:
66,349,54881,5,2,0:0:0:0:
208,280,55214,1,0,0:0:0:0:
347,354,55547,2,0,P|396:366|454:333,1,95.9999970703126,2|0,0:0|0:0,0:0:0:0:
475,315,55881,6,0,P|492:268|468:204,1,95.9999970703126,2|0,0:0|0:0,0:0:0:0:
449,183,56214,2,0,P|397:173|335:201,1,95.9999970703126,2|0,3:0|0:0,0:0:0:0:
327,228,56547,2,0,P|273:243|226:232,1,95.9999970703126,8|0,0:0|0:0,0:0:0:0:
186,212,56881,5,2,0:0:0:0:
38,155,57214,1,2,3:0:0:0:
121,289,57547,1,8,0:0:0:0:
186,144,57881,6,0,P|245:131|301:153,1,95.9999970703126,4|0,0:0|0:0,0:0:0:0:
318,174,58214,2,0,P|365:190|430:164,1,95.9999970703126,2|0,3:0|0:0,0:0:0:0:
453,152,58547,2,0,L|474:30,1,95.9999970703126,8|0,0:0|0:0,0:0:0:0:
443,10,58881,5,2,0:0:0:0:
296,70,59214,1,0,0:0:0:0:
144,23,59547,2,0,P|103:19|44:54,1,95.9999970703126,4|0,3:0|0:0,0:0:0:0:
36,92,59881,6,0,L|52:251,1,143.999995605469,12|8,0:0|0:0,0:0:0:0:
97,299,60381,1,0,0:0:0:0:
164,259,60547,2,0,P|207:248|250:256,1,71.9999978027344,8|0,0:0|0:0,0:0:0:0:
305,286,60881,2,0,L|321:197,1,71.9999978027344,8|0,0:0|0:0,0:0:0:0:
293,139,61214,6,0,P|382:99|437:137,1,143.999995605469,8|8,0:0|0:0,0:0:0:0:
469,175,61714,2,0,L|454:264,1,71.9999978027344,0|8,0:0|0:0,0:0:0:0:
413,312,62047,1,0,0:0:0:0:
348,360,62214,2,0,P|313:370|265:370,1,71.9999978027344,8|0,0:0|3:2,0:0:0:0:
198,344,62547,6,0,L|212:258,1,75.9999979705811,2|0,0:0|0:0,0:0:0:0:
252,196,62881,2,0,P|203:187|149:211,1,75.9999979705811,2|0,0:0|0:0,0:0:0:0:
126,259,63214,2,0,P|90:269|32:252,1,75.9999979705811,2|0,0:0|0:0,0:0:0:0:
9,191,63547,2,0,L|-1:109,1,75.9999979705811,2|2,0:0|0:0,0:0:0:0:
38,40,63880,6,0,P|83:26|130:39,1,75.9999979705811,4|2,3:0|0:0,0:0:0:0:
178,79,64214,2,0,L|266:71,1,75.9999979705811,4|2,3:0|0:0,0:0:0:0:
320,21,64547,1,4,3:0:0:0:
453,121,64881,2,0,P|466:140|475:159,3,37.9999989852906,8|0|0|0,3:0|3:2|0:0|3:2,0:0:0:0:
455,195,65214,6,0,P|393:240|298:206,1,160,6|8,0:0|0:0,0:0:0:0:
240,177,65714,1,0,0:0:0:0:
183,244,65881,2,0,P|131:257|99:253,1,80,2|0,0:0|0:0,0:0:0:0:
27,211,66214,2,0,L|40:114,1,80,8|0,0:0|0:0,0:0:0:0:
82,56,66547,6,0,P|160:13|238:48,1,160,2|8,0:0|0:0,0:0:0:0:
298,79,67047,1,0,0:0:0:0:
374,34,67214,2,0,P|385:79|385:126,1,80,2|0,0:0|0:0,0:0:0:0:
334,183,67547,2,0,P|326:229|324:287,1,80,8|0,0:0|0:0,0:0:0:0:
385,326,67880,6,0,P|326:290|228:325,1,160,2|8,0:0|0:0,0:0:0:0:
170,362,68381,2,0,P|131:372|64:361,1,80,0|2,0:0|0:0,0:0:0:0:
18,321,68714,1,0,0:0:0:0:
71,251,68880,2,0,P|77:212|87:164,1,80,8|0,0:0|0:0,0:0:0:0:
53,89,69214,6,0,P|116:59|188:86,1,120,2|0,0:0|0:0,0:0:0:0:
195,98,69547,2,0,P|247:124|321:105,1,120,8|0,0:0|0:0,0:0:0:0:
337,82,69881,2,0,P|403:70|465:63,1,120,2|0,0:0|0:0,0:0:0:0:
495,43,70214,2,0,P|484:118|477:171,1,120,8|0,0:0|0:0,0:0:0:0:
496,202,70547,5,6,0:0:0:0:
496,202,70714,1,0,0:0:0:0:
464,284,70880,2,0,P|427:300|379:295,1,80,8|0,0:0|0:0,0:0:0:0:
315,248,71214,2,0,P|257:229|176:287,1,160,2|8,0:0|0:0,0:0:0:0:
117,342,71714,1,0,0:0:0:0:
48,286,71880,6,0,P|34:209|21:111,1,160,2|8,0:0|0:0,0:0:0:0:
75,57,72380,1,0,0:0:0:0:
141,113,72547,2,0,P|186:120|237:119,1,80,2|0,0:0|0:0,0:0:0:0:
278,53,72880,2,0,P|332:45|378:46,1,80,8|0,0:0|0:0,0:0:0:0:
433,89,73214,6,0,L|407:275,1,160,2|8,0:0|0:0,0:0:0:0:
445,328,73714,2,0,P|400:342|344:338,1,80,0|0,0:0|0:0,0:0:0:0:
295,292,74047,1,0,0:0:0:0:
218,335,74214,2,0,L|209:249,1,80,8|0,0:0|0:0,0:0:0:0:
221,168,74547,6,0,P|168:137|102:156,1,120,12|0,0:0|0:0,0:0:0:0:
72,166,74880,2,0,L|51:310,1,120,8|0,0:0|0:0,0:0:0:0:
33,322,75214,2,0,P|92:350|169:322,1,120,12|0,0:0|0:0,0:0:0:0:
172,306,75547,2,0,P|243:290|303:310,1,120,8|0,0:0|3:2,0:0:0:0:
322,328,75880,6,0,L|360:152,1,160,6|8,0:0|0:0,0:0:0:0:
423,114,76381,1,0,0:0:0:0:
378,38,76547,2,0,P|334:26|272:41,1,80,2|0,0:0|0:0,0:0:0:0:
236,91,76880,2,0,P|189:100|127:91,1,80,8|0,0:0|0:0,0:0:0:0:
85,46,77214,6,0,P|32:97|52:185,1,160,2|8,0:0|0:0,0:0:0:0:
116,227,77714,1,0,0:0:0:0:
201,206,77880,2,0,P|208:248|212:297,1,80,2|0,0:0|0:0,0:0:0:0:
171,363,78214,2,0,P|211:368|273:371,1,80,8|0,0:0|0:0,0:0:0:0:
336,348,78547,6,0,P|391:289|373:209,1,160,2|8,0:0|0:0,0:0:0:0:
314,156,79047,2,0,P|273:158|217:166,1,80,0|2,0:0|0:0,0:0:0:0:
161,213,79381,1,0,0:0:0:0:
80,177,79547,2,0,L|95:93,1,80,8|0,0:0|0:0,0:0:0:0:
159,38,79880,6,0,P|204:64|282:47,1,120,2|0,0:0|0:0,0:0:0:0:
310,37,80214,2,0,P|291:100|307:182,1,120,8|0,0:0|0:0,0:0:0:0:
320,189,80547,2,0,P|375:167|457:186,1,120,2|0,0:0|0:0,0:0:0:0:
473,196,80880,2,0,P|483:270|462:333,1,120,8|0,0:0|3:2,0:0:0:0:
443,347,81214,5,6,0:0:0:0:
443,347,81380,1,0,0:0:0:0:
361,379,81547,2,0,L|251:369,1,80,8|0,0:0|0:0,0:0:0:0:
208,321,81880,2,0,P|133:358|61:322,1,160,2|8,0:0|0:0,0:0:0:0:
10,262,82381,1,0,0:0:0:0:
76,204,82547,6,0,L|100:42,1,160,2|8,0:0|0:0,0:0:0:0:
179,9,83047,1,0,0:0:0:0:
244,67,83214,2,0,P|284:77|348:61,1,80,2|0,0:0|0:0,0:0:0:0:
400,31,83547,2,0,L|414:133,1,80,8|0,0:0|0:0,0:0:0:0:
464,180,83880,6,0,P|392:162|320:224,1,160,6|8,0:0|0:0,0:0:0:0:
248,250,84381,2,0,P|241:211|235:146,1,80,0|0,0:0|0:0,0:0:0:0:
290,101,84714,1,0,0:0:0:0:
226,39,84880,2,0,P|190:35|136:36,1,80,8|0,0:0|0:0,0:0:0:0:
59,22,85214,6,0,P|48:84|40:161,1,120,12|0,0:0|0:0,0:0:0:0:
18,178,85547,2,0,P|92:146|151:172,1,120,8|0,0:0|0:0,0:0:0:0:
166,176,85880,2,0,P|155:256|142:314,1,120,12|0,0:0|0:0,0:0:0:0:
118,328,86214,2,0,P|183:357|252:332,1,120,8|0,0:0|3:2,0:0:0:0:
263,374,86547,6,0,P|274:315|301:188,1,160,6|8,0:0|0:0,0:0:0:0:
352,150,87047,1,0,0:0:0:0:
316,69,87214,2,0,P|275:67|232:75,1,80,2|0,0:0|0:0,0:0:0:0:
179,140,87547,2,0,P|134:136|77:117,1,80,8|0,0:0|0:0,0:0:0:0:
49,55,87880,6,0,P|85:117|30:198,1,160,2|8,0:0|0:0,0:0:0:0:
0,258,88380,1,0,0:0:0:0:
51,329,88547,2,0,P|90:325|139:316,2,80,2|0|8,0:0|0:0|0:0,0:0:0:0:
0,258,89047,1,0,0:0:0:0:
53,187,89214,6,0,P|122:221|214:185,1,160,2|8,0:0|0:0,0:0:0:0:
284,180,89714,1,0,0:0:0:0:
366,209,89880,2,0,P|374:171|379:125,1,80,2|0,0:0|0:0,0:0:0:0:
347,47,90214,1,8,0:0:0:0:
270,89,90380,6,0,P|169:111|122:81,1,160,0|0,0:0|0:0,0:0:0:0:
42,53,90880,2,0,L|24:162,1,80,8|0,0:0|0:0,0:0:0:0:
5,217,91214,2,0,P|46:231|104:232,1,80,2|0,0:0|0:0,0:0:0:0:
166,209,91547,1,8,0:0:0:0:
166,209,91714,1,0,0:0:0:0:
216,280,91880,6,0,P|274:322|375:292,1,160,2|8,0:0|0:0,0:0:0:0:
431,260,92380,1,0,0:0:0:0:
466,340,92547,2,0,L|503:161,1,160,2|8,0:0|0:0,0:0:0:0:
482,96,93047,6,0,P|406:55|323:87,1,160,2|0,0:0|0:0,0:0:0:0:
290,142,93547,2,0,P|257:152|198:151,1,80,8|0,0:0|0:0,0:0:0:0:
146,93,93880,2,0,P|134:53|124:-2,2,80,2|0|8,0:0|0:0|0:0,0:0:0:0:
211,153,94380,1,0,0:0:0:0:
167,229,94547,6,0,P|125:243|71:238,1,80,2|0,0:0|0:0,0:0:0:0:
2,237,94880,2,0,L|21:137,1,80,8|0,0:0|0:0,0:0:0:0:
63,82,95214,1,2,0:0:0:0:
131,27,95380,2,0,P|177:15|230:22,1,80,0|8,0:0|0:0,0:0:0:0:
277,72,95714,6,0,P|336:120|417:91,1,160,2|0,0:0|0:0,0:0:0:0:
494,66,96214,2,0,L|503:163,1,80,8|0,0:0|0:0,0:0:0:0:
424,188,96547,2,0,L|434:298,1,80,2|0,0:0|0:0,0:0:0:0:
348,298,96880,2,0,P|353:326|354:348,3,40,8|0|0|0,0:0|3:2|3:2|0:0,0:0:0:0:
313,356,97214,6,0,P|236:384|163:359,1,160,6|8,0:0|0:0,0:0:0:0:
91,312,97714,1,0,0:0:0:0:
36,243,97880,2,0,L|54:160,1,80,2|0,0:0|0:0,0:0:0:0:
79,80,98214,2,0,P|117:90|174:91,1,80,8|0,0:0|0:0,0:0:0:0:
229,40,98547,6,0,L|252:219,1,160,2|8,0:0|0:0,0:0:0:0:
291,276,99047,1,0,0:0:0:0:
362,326,99214,2,0,P|402:335|447:331,2,80,2|0|8,0:0|0:0|0:0,0:0:0:0:
291,276,99714,1,0,0:0:0:0:
353,214,99880,6,0,P|379:157|322:69,1,160,2|8,0:0|0:0,0:0:0:0:
250,95,100380,1,0,0:0:0:0:
174,51,100547,2,0,P|143:44|76:45,1,80,2|0,0:0|0:0,0:0:0:0:
36,109,100880,1,8,0:0:0:0:
105,161,101047,6,0,P|130:240|67:300,1,160,2|0,0:0|0:0,0:0:0:0:
31,364,101547,2,0,P|69:373|113:372,1,80,8|0,0:0|0:0,0:0:0:0:
188,331,101880,2,0,P|230:319|281:317,1,80,2|0,0:0|0:0,0:0:0:0:
331,375,102214,1,8,0:0:0:0:
331,375,102380,1,0,3:2:0:0:
406,331,102547,6,0,P|437:265|411:183,1,160,12|2,0:0|3:0,0:0:0:0:
351,121,103047,1,0,0:0:0:0:
292,186,103214,2,0,P|218:230|138:193,1,160,8|2,0:0|0:0,0:0:0:0:
129,293,103714,6,0,L|109:132,1,160,8|0,0:0|0:0,0:0:0:0:
196,121,104214,2,0,L|217:25,1,80,2|0,0:0|0:0,0:0:0:0:
295,11,104547,2,0,L|380:25,2,80,8|0|8,0:0|0:0|0:0,0:0:0:0:
213,42,105047,1,0,3:2:0:0:
132,77,105214,6,0,P|89:91|37:82,1,80,12|0,0:0|0:0,0:0:0:0:
15,167,105547,2,0,L|29:261,1,80,8|0,0:0|0:0,0:0:0:0:
97,299,105880,1,8,0:0:0:0:
168,247,106047,2,0,P|212:235|268:241,1,80,8|0,0:0|0:0,0:0:0:0:
321,282,106380,6,0,L|352:113,1,160,12|0,0:0|0:0,0:0:0:0:
383,42,106880,2,0,P|333:42|283:60,1,80,0|0,0:0|0:0,0:0:0:0:
244,114,107214,2,0,P|194:119|141:103,1,80,0|2,0:0|0:0,0:0:0:0:
84,77,107547,2,8,P|77:100|72:123,3,40,8|8|8|8,0:0|3:2|3:2|3:2,0:0:0:0:
89,157,107881,5,8,0:0:0:0:
89,157,108047,1,2,0:0:0:0:
182,306,108380,2,0,P|279:338|333:301,1,160,8|8,0:0|0:0,0:0:0:0:
387,250,108881,1,0,3:2:0:0:
387,250,109047,1,10,0:0:0:0:
