osu file format v14

[General]
AudioFilename: audio.mp3
AudioLeadIn: 0
PreviewTime: 64957
Countdown: 0
SampleSet: Soft
StackLeniency: 0.7
Mode: 0
LetterboxInBreaks: 0
WidescreenStoryboard: 0

[Editor]
DistanceSpacing: 1
BeatDivisor: 2
GridSize: 32
TimelineZoom: 1

[Metadata]
Title:Prism lovely day
TitleUnicode:プリズム lovely day
Artist:solfa feat.Chata
ArtistUnicode:solfa feat.茶太
Creator:joker-
Version:Easy
Source:彼女と俺の恋愛日常
Tags:eroge opening Asuka_- Karen Lovely day of Girlfriends & me parasol
BeatmapID:1253845
BeatmapSetID:575372

[Difficulty]
HPDrainRate:2
CircleSize:3
OverallDifficulty:2
ApproachRate:3
SliderMultiplier:0.85
SliderTickRate:1

[Events]
//Background and Video events
0,0,"bg.png",0,0
//Break Periods
//Storyboard Layer 0 (Background)
//Storyboard Layer 1 (Fail)
//Storyboard Layer 2 (Pass)
//Storyboard Layer 3 (Foreground)
//Storyboard Sound Samples

[TimingPoints]
548,333.333333333333,4,2,1,60,1,0
4547,-100,4,2,1,60,0,0
5214,-100,4,2,1,50,0,0
5881,-100,4,2,1,50,0,0
11214,-100,4,2,2,70,0,0
27214,-100,4,2,1,50,0,0
29881,-100,4,2,2,50,0,0
32047,-100,4,2,1,50,0,0
32547,-100,4,2,3,40,0,0
43214,-100,4,2,3,30,0,0
53547,-100,4,2,1,40,0,0
53881,333.333333333333,3,2,1,50,1,0
59881,333.333333333333,4,2,1,60,1,0
65214,-100,4,2,2,70,0,1
74547,-100,4,2,1,70,0,1
74880,-100,4,2,2,70,0,1
75214,-100,4,2,1,70,0,1
75547,-100,4,2,2,70,0,1
85214,-100,4,2,1,80,0,1
86547,-100,4,2,2,60,0,0
102547,-100,4,2,1,50,0,0
105214,-100,4,2,2,50,0,0
107880,-100,4,2,1,60,0,0

[Colours]
Combo1 : 255,255,81
Combo2 : 255,156,108
Combo3 : 181,255,106
Combo4 : 170,255,255

[HitObjects]
75,273,548,6,0,B|157:246|157:246|234:280|234:280|328:250,1,255,12|0,0:0|0:0,0:0:0:0:
394,224,1881,6,0,P|432:176|308:67,1,255,12|0,0:0|0:0,0:0:0:0:
240,73,3214,6,0,B|230:159|230:159|278:203|275:280|239:297|197:319,1,255,12|0,0:0|0:0,0:0:0:0:
155,355,4547,6,0,P|72:367|-5:311,1,170,12|8,0:0|0:0,0:0:0:0:
3,237,5547,1,2,0:0:0:0:
49,165,5881,6,0,P|106:197|211:169,1,170,2|2,0:0|0:0,0:0:0:0:
275,128,6881,1,2,0:0:0:0:
354,158,7214,2,0,P|399:157|458:174,2,85,2|2|2,0:0|0:0|0:0,0:0:0:0:
308,229,8214,1,2,0:0:0:0:
328,311,8547,6,0,P|405:327|458:307,2,127.5,2|0|8,0:0|3:0|0:0,0:0:0:0:
245,289,9881,1,2,0:0:0:0:
245,289,11214,6,0,P|260:190|206:151,1,170,6|2,0:0|0:0,0:0:0:0:
129,132,12214,1,8,0:0:0:0:
52,169,12547,2,0,L|56:282,2,85,2|8|2,0:0|0:0|0:0,0:0:0:0:
46,84,13547,1,8,2:0:0:0:
122,52,13881,6,0,P|202:32|282:94,1,170,2|2,0:0|0:0,0:0:0:0:
341,126,14881,1,8,0:0:0:0:
420,95,15214,2,0,L|442:8,2,85,0|8|2,0:0|0:0|0:0,0:0:0:0:
456,172,16214,1,8,0:0:0:0:
397,233,16547,6,0,B|406:357|406:357|348:312,1,170,2|2,0:0|0:0,0:0:0:0:
305,272,17547,1,8,0:0:0:0:
316,187,17881,2,0,L|324:96,2,85,0|8|2,0:0|0:0|0:0,0:0:0:0:
237,219,18881,1,8,0:0:0:0:
160,255,19214,6,0,P|85:269|16:202,1,170,2|2,0:0|0:0,0:0:0:0:
3,127,20214,1,8,0:0:0:0:
66,70,20547,2,0,L|161:54,1,85,0|8,0:0|0:0,0:0:0:0:
205,119,21214,2,0,L|300:135,1,85,2|8,0:0|0:0,0:0:0:0:
349,72,21881,6,0,P|374:137|317:213,1,170,6|2,0:0|0:0,0:0:0:0:
238,238,22881,1,8,0:0:0:0:
170,187,23214,2,0,L|76:194,2,85,2|8|2,0:0|0:0|0:0,0:0:0:0:
226,123,24214,1,8,0:0:0:0:
310,130,24547,6,0,B|432:140|432:140|389:192,1,170,2|2,0:0|0:0,0:0:0:0:
338,234,25547,1,8,0:0:0:0:
378,308,25881,2,0,L|471:316,2,85,0|8|2,0:0|0:0|0:0,0:0:0:0:
316,367,26881,1,8,0:0:0:0:
242,324,27214,6,0,P|165:349|94:293,1,170,8|8,0:0|0:0,0:0:0:0:
48,231,28214,1,2,0:0:0:0:
58,146,28547,2,0,L|68:44,2,85,0|2|8,0:0|0:0|0:0,0:0:0:0:
127,195,29547,1,8,0:0:0:0:
199,149,29881,6,0,P|259:138|297:145,1,85,12|8,0:0|0:0,0:0:0:0:
363,164,30547,2,0,B|403:179|403:179|510:149,1,127.5,8|12,0:0|0:0,0:0:0:0:
152,347,32547,6,0,L|141:240,1,85,8|8,0:0|0:0,0:0:0:0:
135,177,33214,1,8,0:0:0:0:
140,92,33547,2,0,P|178:64|303:88,1,170,8|8,0:0|0:0,0:0:0:0:
363,127,34547,2,0,P|369:183|359:230,1,85,8|8,0:0|0:0,0:0:0:0:
336,291,35214,6,0,B|225:264|225:264|159:292,1,170,8|0,0:0|0:0,0:0:0:0:
101,330,36214,1,8,0:0:0:0:
29,283,36547,2,0,P|-4:194|34:122,1,170,10|10,0:0|0:0,0:0:0:0:
80,64,37547,1,8,0:0:0:0:
164,54,37881,6,0,P|206:56|263:71,1,85,10|8,0:0|0:0,0:0:0:0:
330,85,38547,1,8,0:0:0:0:
396,138,38881,2,0,B|419:218|419:218|368:321,1,170,8|8,0:0|0:0,0:0:0:0:
325,361,39881,2,0,P|280:349|225:354,1,85,8|8,0:0|0:0,0:0:0:0:
157,357,40547,6,0,P|203:275|157:205,1,170,8|8,0:0|0:0,0:0:0:0:
116,149,41547,1,8,0:0:0:0:
35,171,41881,2,0,P|88:229|175:210,1,170,0|10,0:0|0:0,0:0:0:0:
244,171,42881,1,10,0:0:0:0:
323,199,43214,6,0,P|390:209|420:203,1,85,8|8,0:0|0:0,0:0:0:0:
488,183,43881,1,8,0:0:0:0:
510,101,44214,2,0,P|444:56|350:79,1,170,8|8,0:0|0:0,0:0:0:0:
294,126,45214,2,0,P|222:130|191:125,1,85,8|8,0:0|0:0,0:0:0:0:
124,122,45881,6,0,P|83:194|130:294,1,170,8|10,0:0|0:0,0:0:0:0:
169,331,46881,1,8,0:0:0:0:
234,276,47214,2,0,P|290:223|391:236,1,170,10|10,0:0|0:0,0:0:0:0:
457,257,48214,1,8,0:0:0:0:
511,191,48547,6,0,L|501:97,1,85,8|8,0:0|0:0,0:0:0:0:
488,22,49214,1,8,0:0:0:0:
407,49,49547,2,0,B|298:25|298:25|239:56,1,170,8|8,0:0|0:0,0:0:0:0:
176,100,50547,2,0,L|183:215,1,85,8|8,0:0|0:0,0:0:0:0:
193,269,51214,6,0,P|153:289|47:221,1,170,8|10,0:0|0:0,0:0:0:0:
12,159,52214,1,0,0:0:0:0:
52,84,52547,2,0,B|106:57|106:57|218:85,1,170,10|10,0:0|0:0,0:0:0:0:
295,104,53547,1,8,0:0:0:0:
377,123,53881,6,0,P|402:205|345:271,1,170,2|8,0:0|0:0,0:0:0:0:
283,313,54881,1,2,0:0:0:0:
206,277,55214,2,0,P|154:261|96:260,1,85,0|8,0:0|0:0,0:0:0:0:
38,262,55881,2,0,P|24:221|19:179,1,85,2|2,0:0|3:0,0:0:0:0:
32,95,56547,6,0,P|94:70|182:121,1,170,8|2,0:0|3:0,0:0:0:0:
222,190,57547,1,8,0:0:0:0:
303,213,57881,2,0,P|357:227|404:228,1,85,4|2,0:0|3:0,0:0:0:0:
454,178,58547,2,0,P|450:135|438:95,1,85,8|2,0:0|0:0,0:0:0:0:
377,34,59214,2,0,L|266:42,1,85,0|4,0:0|3:0,0:0:0:0:
207,28,59881,6,0,P|251:109|191:189,1,170,12|8,0:0|0:0,0:0:0:0:
157,230,60881,1,8,0:0:0:0:
84,185,61214,2,0,L|-15:193,2,85,8|8|8,0:0|0:0|0:0,0:0:0:0:
148,129,62214,1,8,0:0:0:0:
256,192,62547,12,2,63880,0:0:0:0:
418,254,65214,6,0,B|461:179|461:179|423:81,1,170,6|2,0:0|0:0,0:0:0:0:
375,36,66214,1,8,0:0:0:0:
296,68,66547,2,0,L|194:66,2,85,2|8|2,0:0|0:0|0:0,0:0:0:0:
353,130,67547,1,8,0:0:0:0:
362,214,67880,6,0,P|298:267|191:239,1,170,2|2,0:0|0:0,0:0:0:0:
136,228,68880,1,0,0:0:0:0:
68,175,69214,2,0,L|62:73,1,85,2|8,0:0|0:0,0:0:0:0:
128,36,69880,2,0,L|230:30,1,85,2|8,0:0|0:0,0:0:0:0:
297,34,70547,6,0,P|259:114|290:195,1,170,6|2,0:0|0:0,0:0:0:0:
341,249,71547,1,8,0:0:0:0:
418,214,71880,2,0,L|522:220,2,85,2|8|2,0:0|0:0|0:0,0:0:0:0:
359,152,72880,1,8,0:0:0:0:
282,188,73214,6,0,B|202:161|202:161|112:207,1,170,2|0,0:0|0:0,0:0:0:0:
54,246,74214,1,8,0:0:0:0:
2,181,74547,2,0,P|-4:128|5:89,1,85,8|8,0:0|0:0,0:0:0:0:
62,36,75214,2,0,P|115:30|154:39,1,85,8|8,0:0|0:0,0:0:0:0:
226,61,75880,6,0,B|201:172|201:172|227:226,1,170,6|2,0:0|0:0,0:0:0:0:
271,294,76880,1,8,0:0:0:0:
354,276,77214,2,0,P|394:264|437:262,2,85,2|8|2,0:0|0:0|0:0,0:0:0:0:
306,205,78214,1,8,0:0:0:0:
227,172,78547,6,0,P|225:81|293:37,1,170,2|8,0:0|0:0,0:0:0:0:
363,10,79547,1,0,0:0:0:0:
431,60,79880,2,0,P|440:113|435:164,1,85,2|8,0:0|0:0,0:0:0:0:
371,196,80547,2,0,P|329:200|265:186,1,85,2|8,0:0|0:0,0:0:0:0:
203,176,81214,6,0,B|180:284|180:284|217:354,1,170,6|2,0:0|0:0,0:0:0:0:
284,373,82214,1,8,0:0:0:0:
363,344,82547,2,0,P|428:359|466:350,2,85,2|8|2,0:0|0:0|0:0,0:0:0:0:
330,265,83547,1,8,0:0:0:0:
312,181,83880,6,0,P|267:123|163:141,1,170,6|0,0:0|0:0,0:0:0:0:
107,177,84880,1,8,0:0:0:0:
52,242,85214,2,0,L|64:344,1,85,8|8,0:0|0:0,0:0:0:0:
142,354,85880,2,0,P|189:364|234:354,1,85,8|8,0:0|0:0,0:0:0:0:
300,318,86547,6,0,P|384:337|444:275,1,170,6|2,0:0|0:0,0:0:0:0:
483,210,87547,1,8,0:0:0:0:
466,126,87880,2,0,L|478:25,2,85,2|8|2,0:0|0:0|0:0,0:0:0:0:
389,163,88880,1,8,0:0:0:0:
326,102,89214,6,0,P|241:62|169:132,1,170,2|2,0:0|0:0,0:0:0:0:
134,168,90214,1,8,0:0:0:0:
170,244,90547,2,0,L|178:338,2,85,0|8|2,0:0|0:0|0:0,0:0:0:0:
85,238,91547,1,8,0:0:0:0:
6,205,91880,6,0,P|-13:149|48:64,1,170,2|2,0:0|0:0,0:0:0:0:
118,19,92880,1,8,0:0:0:0:
192,60,93214,2,0,L|283:64,2,85,0|8|2,0:0|0:0|0:0,0:0:0:0:
121,108,94214,1,8,0:0:0:0:
166,179,94547,6,0,B|174:306|174:306|222:271,1,170,2|2,0:0|0:0,0:0:0:0:
267,218,95547,1,8,0:0:0:0:
334,167,95880,2,0,P|397:160|447:180,1,85,0|8,0:0|0:0,0:0:0:0:
495,197,96547,2,0,P|502:260|482:310,1,85,2|8,0:0|0:0,0:0:0:0:
438,342,97214,6,0,P|366:364|285:307,1,170,6|2,0:0|0:0,0:0:0:0:
237,249,98214,1,8,0:0:0:0:
247,164,98547,2,0,L|253:71,2,85,2|8|2,0:0|0:0|0:0,0:0:0:0:
168,197,99547,1,8,0:0:0:0:
237,249,99880,6,0,P|310:285|406:246,1,170,2|0,0:0|0:0,0:0:0:0:
454,206,100880,1,8,0:0:0:0:
443,121,101214,2,0,L|432:15,2,85,0|8|2,0:0|0:0|0:0,0:0:0:0:
375,172,102214,1,8,0:0:0:0:
296,138,102547,6,0,B|216:114|216:114|129:161,1,170,12|8,0:0|0:0,0:0:0:0:
72,207,103547,1,2,0:0:0:0:
120,277,103880,2,0,L|125:374,2,85,0|2|8,0:0|0:0|0:0,0:0:0:0:
186,224,104880,1,8,0:0:0:0:
264,257,105214,6,0,P|336:273|371:271,1,85,12|8,0:0|0:0,0:0:0:0:
431,269,105880,2,0,B|459:180|459:180|440:130,1,127.5,8|12,0:0|0:0,0:0:0:0:
71,71,107880,6,0,L|83:224,1,127.5,8|8,0:0|0:0,0:0:0:0:
182,275,108880,2,0,L|173:340,1,42.5,0|10,3:2|0:0,0:0:0:0:
