osu file format v14

[General]
AudioFilename: audio.mp3
AudioLeadIn: 0
PreviewTime: 70521
Countdown: 0
SampleSet: Soft
StackLeniency: 0.7
Mode: 3
LetterboxInBreaks: 0
SpecialStyle: 0
WidescreenStoryboard: 1

[Editor]
Bookmarks: 70521,94521,118521
DistanceSpacing: 1
BeatDivisor: 16
GridSize: 8
TimelineZoom: 0.6999998

[Metadata]
Title:Kako to Mirai no Memory
TitleUnicode:過去と未来のメモリー
Artist:solfa feat. nao
ArtistUnicode:solfa feat. nao
Creator:Hidden is fun
Version:Hard
Source:晴のちきっと菜の花びより
Tags:japanese video game parasol harenochi kitto nanohana biyori galgame eroge ayasaki nanoka featured artist fa mg mpg mappers' guild jpop j-pop pop
BeatmapID:4457676
BeatmapSetID:2121405

[Difficulty]
HPDrainRate:7
CircleSize:4
OverallDifficulty:7
ApproachRate:5
SliderMultiplier:1.4
SliderTickRate:1

[Events]
//Background and Video events
0,0,"bg.jpg",0,0
//Break Periods
//Storyboard Layer 0 (Background)
//Storyboard Layer 1 (Fail)
//Storyboard Layer 2 (Pass)
//Storyboard Layer 3 (Foreground)
//Storyboard Layer 4 (Overlay)
//Storyboard Sound Samples

[TimingPoints]
1521,750,4,2,1,30,1,0
70521,-100,4,2,1,50,0,1
115521,-100,4,2,1,40,0,0
166521,-100,4,2,1,50,0,1
211521,-100,4,2,1,40,0,0
247521,-100,4,2,1,50,0,1
268521,-100,4,2,1,30,0,0

[HitObjects]
64,192,396,5,0,0:0:0:0:
192,192,771,1,0,0:0:0:0:
320,192,1146,1,0,0:0:0:0:
448,192,1521,1,0,0:0:0:0:
64,192,2271,1,0,0:0:0:0:
192,192,2646,1,0,0:0:0:0:
448,192,3021,1,0,0:0:0:0:
320,192,3396,1,0,0:0:0:0:
192,192,3771,1,0,0:0:0:0:
320,192,4146,1,0,0:0:0:0:
64,192,4521,1,0,0:0:0:0:
448,192,5271,1,0,0:0:0:0:
320,192,5646,1,0,0:0:0:0:
320,192,6021,1,0,0:0:0:0:
64,192,6396,1,0,0:0:0:0:
192,192,6771,1,0,0:0:0:0:
448,192,7146,1,0,0:0:0:0:
320,192,7521,1,0,0:0:0:0:
192,192,8271,1,0,0:0:0:0:
320,192,8646,1,0,0:0:0:0:
64,192,9021,1,0,0:0:0:0:
192,192,9396,1,0,0:0:0:0:
320,192,9771,1,0,0:0:0:0:
448,192,10146,1,0,0:0:0:0:
320,192,10271,1,0,0:0:0:0:
192,192,10396,1,0,0:0:0:0:
448,192,10521,1,0,0:0:0:0:
64,192,10521,128,0,12396:0:0:0:0:
320,192,11271,1,0,0:0:0:0:
448,192,11271,1,0,0:0:0:0:
192,192,11646,1,0,0:0:0:0:
448,192,12396,128,0,12771:0:0:0:0:
320,192,12771,128,0,13146:0:0:0:0:
64,192,12771,1,0,0:0:0:0:
192,192,13146,128,0,13521:0:0:0:0:
448,192,13521,1,0,0:0:0:0:
64,192,13521,128,0,15021:0:0:0:0:
448,192,14271,1,0,0:0:0:0:
320,192,14271,1,0,0:0:0:0:
192,192,14646,128,0,15021:0:0:0:0:
320,192,14833,128,0,15021:0:0:0:0:
448,192,15021,128,0,15771:0:0:0:0:
192,192,15396,1,0,0:0:0:0:
64,192,15771,128,0,16521:0:0:0:0:
320,192,15771,1,0,0:0:0:0:
448,192,16146,128,0,16521:0:0:0:0:
320,192,16333,128,0,16521:0:0:0:0:
192,192,16521,128,0,18396:0:0:0:0:
320,192,17271,1,0,0:0:0:0:
448,192,17271,1,0,0:0:0:0:
64,192,17646,1,0,0:0:0:0:
320,192,18396,128,0,18771:0:0:0:0:
448,192,18771,128,0,19521:0:0:0:0:
64,192,18771,1,0,0:0:0:0:
64,192,19521,128,0,21021:0:0:0:0:
192,192,19896,1,0,0:0:0:0:
320,192,20271,1,0,0:0:0:0:
448,192,20271,1,0,0:0:0:0:
192,192,20646,128,0,21021:0:0:0:0:
320,192,20833,128,0,21021:0:0:0:0:
448,192,21021,128,0,21771:0:0:0:0:
64,192,21771,1,0,0:0:0:0:
320,192,21771,1,0,0:0:0:0:
192,192,21958,1,0,0:0:0:0:
448,192,22146,1,0,0:0:0:0:
320,192,22333,1,0,0:0:0:0:
448,192,22521,1,0,0:0:0:0:
192,192,22521,1,0,0:0:0:0:
64,192,22521,128,0,24771:0:0:0:0:
320,192,23271,1,0,0:0:0:0:
448,192,23271,1,0,0:0:0:0:
192,192,23646,1,0,0:0:0:0:
320,192,24396,1,0,0:0:0:0:
192,192,24771,1,0,0:0:0:0:
448,192,24771,128,0,25521:0:0:0:0:
64,192,25146,128,0,25521:0:0:0:0:
192,192,25333,128,0,25521:0:0:0:0:
320,192,25521,128,0,27396:0:0:0:0:
64,192,26271,1,0,0:0:0:0:
192,192,26271,1,0,0:0:0:0:
448,192,26646,1,0,0:0:0:0:
64,192,27396,128,0,27771:0:0:0:0:
448,192,27771,128,0,28146:0:0:0:0:
192,192,27771,1,0,0:0:0:0:
320,192,28146,128,0,28521:0:0:0:0:
192,192,28521,128,0,29271:0:0:0:0:
448,192,29271,128,0,29646:0:0:0:0:
320,192,29271,1,0,0:0:0:0:
64,192,29646,128,0,31521:0:0:0:0:
448,192,30396,1,0,0:0:0:0:
192,192,30771,1,0,0:0:0:0:
320,192,30771,1,0,0:0:0:0:
448,192,31146,128,0,31521:0:0:0:0:
320,192,31333,128,0,31521:0:0:0:0:
192,192,31521,128,0,32271:0:0:0:0:
448,192,31896,1,0,0:0:0:0:
320,192,32271,1,0,0:0:0:0:
448,192,32271,1,0,0:0:0:0:
64,192,32646,128,0,33021:0:0:0:0:
192,192,32833,128,0,33021:0:0:0:0:
320,192,33021,128,0,33771:0:0:0:0:
64,192,33396,1,0,0:0:0:0:
64,192,33771,1,0,0:0:0:0:
192,192,33771,1,0,0:0:0:0:
448,192,33958,1,0,0:0:0:0:
192,192,34146,1,0,0:0:0:0:
320,192,34333,1,0,0:0:0:0:
64,192,34521,1,0,0:0:0:0:
448,192,34521,1,0,0:0:0:0:
192,192,34896,1,0,0:0:0:0:
320,192,35271,1,0,0:0:0:0:
448,192,35271,1,0,0:0:0:0:
192,192,35646,1,0,0:0:0:0:
448,192,35833,1,0,0:0:0:0:
64,192,36021,1,0,0:0:0:0:
320,192,36396,1,0,0:0:0:0:
64,192,36771,1,0,0:0:0:0:
192,192,36771,1,0,0:0:0:0:
448,192,37146,1,0,0:0:0:0:
64,192,37521,128,0,38271:0:0:0:0:
320,192,37896,1,0,0:0:0:0:
448,192,38271,1,0,0:0:0:0:
192,192,38271,1,0,0:0:0:0:
320,192,38646,1,0,0:0:0:0:
64,192,38833,1,0,0:0:0:0:
448,192,39021,1,0,0:0:0:0:
192,192,39396,1,0,0:0:0:0:
320,192,39771,1,0,0:0:0:0:
448,192,39771,1,0,0:0:0:0:
64,192,40146,1,0,0:0:0:0:
448,192,40521,128,0,41271:0:0:0:0:
192,192,40896,1,0,0:0:0:0:
64,192,41271,1,0,0:0:0:0:
320,192,41271,1,0,0:0:0:0:
192,192,41646,1,0,0:0:0:0:
448,192,41833,1,0,0:0:0:0:
64,192,42021,1,0,0:0:0:0:
320,192,42396,1,0,0:0:0:0:
192,192,42771,1,0,0:0:0:0:
448,192,42771,1,0,0:0:0:0:
64,192,43146,1,0,0:0:0:0:
448,192,43521,128,0,44271:0:0:0:0:
320,192,43896,1,0,0:0:0:0:
64,192,44271,1,0,0:0:0:0:
192,192,44271,1,0,0:0:0:0:
320,192,44646,128,0,45021:0:0:0:0:
64,192,44833,1,0,0:0:0:0:
192,192,45021,128,0,45396:0:0:0:0:
448,192,45396,128,0,45771:0:0:0:0:
64,192,45771,1,0,0:0:0:0:
320,192,45771,128,0,46146:0:0:0:0:
192,192,46146,1,0,0:0:0:0:
448,192,46521,128,0,47271:0:0:0:0:
64,192,46896,1,0,0:0:0:0:
64,192,47271,1,0,0:0:0:0:
192,192,47271,1,0,0:0:0:0:
320,192,47646,1,0,0:0:0:0:
192,192,47833,1,0,0:0:0:0:
64,192,48021,128,0,48771:0:0:0:0:
448,192,48396,1,0,0:0:0:0:
320,192,48771,1,0,0:0:0:0:
448,192,48771,1,0,0:0:0:0:
192,192,49146,128,0,49521:0:0:0:0:
64,192,49521,128,0,49896:0:0:0:0:
320,192,49896,1,0,0:0:0:0:
448,192,50271,128,0,50646:0:0:0:0:
64,192,50646,1,0,0:0:0:0:
320,192,50833,1,0,0:0:0:0:
192,192,51021,128,0,51396:0:0:0:0:
320,192,51396,128,0,51771:0:0:0:0:
448,192,51771,128,0,52521:0:0:0:0:
64,192,51771,1,0,0:0:0:0:
64,192,52146,1,0,0:0:0:0:
192,192,52521,128,0,53271:0:0:0:0:
320,192,52896,1,0,0:0:0:0:
320,192,53271,1,0,0:0:0:0:
448,192,53271,1,0,0:0:0:0:
64,192,53646,1,0,0:0:0:0:
320,192,53833,1,0,0:0:0:0:
192,192,54021,1,0,0:0:0:0:
320,192,54396,128,0,54771:0:0:0:0:
192,192,54771,128,0,55146:0:0:0:0:
64,192,54771,1,0,0:0:0:0:
448,192,55146,128,0,55521:0:0:0:0:
320,192,55521,128,0,56271:0:0:0:0:
64,192,55896,1,0,0:0:0:0:
64,192,56271,1,0,0:0:0:0:
192,192,56271,1,0,0:0:0:0:
448,192,56646,1,0,0:0:0:0:
192,192,56833,1,0,0:0:0:0:
320,192,57021,1,0,0:0:0:0:
64,192,57021,128,0,57771:0:0:0:0:
320,192,57583,1,0,0:0:0:0:
448,192,57771,1,0,0:0:0:0:
192,192,57771,1,0,0:0:0:0:
320,192,57958,1,0,0:0:0:0:
64,192,58146,1,0,0:0:0:0:
192,192,58333,1,0,0:0:0:0:
320,192,58521,128,0,58896:0:0:0:0:
448,192,58521,1,0,0:0:0:0:
64,192,58896,1,0,0:0:0:0:
64,192,59271,1,0,0:0:0:0:
448,192,59271,128,0,59646:0:0:0:0:
192,192,59271,1,0,0:0:0:0:
192,192,59646,1,0,0:0:0:0:
320,192,60021,1,0,0:0:0:0:
64,192,60021,128,0,60396:0:0:0:0:
448,192,60396,1,0,0:0:0:0:
64,192,60771,1,0,0:0:0:0:
192,192,60771,1,0,0:0:0:0:
448,192,60771,128,0,61521:0:0:0:0:
320,192,61146,128,0,61521:0:0:0:0:
192,192,61521,1,0,0:0:0:0:
64,192,61521,128,0,61896:0:0:0:0:
320,192,61896,128,0,62271:0:0:0:0:
448,192,62271,1,0,0:0:0:0:
64,192,62271,1,0,0:0:0:0:
192,192,62271,128,0,62646:0:0:0:0:
320,192,62646,128,0,63021:0:0:0:0:
64,192,63021,1,0,0:0:0:0:
448,192,63021,128,0,63771:0:0:0:0:
192,192,63396,128,0,63771:0:0:0:0:
64,192,63771,128,0,64146:0:0:0:0:
320,192,63771,1,0,0:0:0:0:
320,192,64146,1,0,0:0:0:0:
448,192,64521,1,0,0:0:0:0:
64,192,64521,128,0,64896:0:0:0:0:
320,192,64896,128,0,65271:0:0:0:0:
64,192,65271,1,0,0:0:0:0:
448,192,65271,1,0,0:0:0:0:
192,192,65271,128,0,65646:0:0:0:0:
320,192,65646,128,0,66021:0:0:0:0:
448,192,66021,128,0,66396:0:0:0:0:
64,192,66021,1,0,0:0:0:0:
192,192,66396,1,0,0:0:0:0:
64,192,66771,128,0,67146:0:0:0:0:
320,192,66771,1,0,0:0:0:0:
448,192,66771,1,0,0:0:0:0:
448,192,67146,1,0,0:0:0:0:
192,192,67521,1,0,0:0:0:0:
320,192,67521,128,0,68271:0:0:0:0:
64,192,67896,1,0,0:0:0:0:
64,192,68271,1,0,0:0:0:0:
192,192,68271,1,0,0:0:0:0:
448,192,68271,1,0,0:0:0:0:
192,192,68646,128,0,69021:0:0:0:0:
64,192,69021,1,0,0:0:0:0:
448,192,69021,1,0,0:0:0:0:
320,192,69021,128,0,69396:0:0:0:0:
192,192,69396,5,0,0:0:0:0:
64,192,69771,1,0,0:0:0:0:
448,192,69771,1,0,0:0:0:0:
192,192,69771,1,0,0:0:0:0:
320,192,69958,1,0,0:0:0:0:
448,192,70146,1,0,0:0:0:0:
64,192,70333,1,0,0:0:0:0:
192,192,70521,5,0,0:0:0:0:
320,192,70521,128,0,70896:0:0:0:0:
448,192,70521,128,0,70896:0:0:0:0:
64,192,70896,1,0,0:0:0:0:
448,192,71271,1,0,0:0:0:0:
64,192,71271,1,0,0:0:0:0:
320,192,71271,1,0,0:0:0:0:
192,192,71646,128,0,72021:0:0:0:0:
320,192,71833,128,0,72021:0:0:0:0:
64,192,72021,128,0,72583:0:0:0:0:
448,192,72021,1,0,0:0:0:0:
320,192,72396,128,0,72583:0:0:0:0:
448,192,72396,128,0,72583:0:0:0:0:
64,192,72771,1,0,0:0:0:0:
192,192,72771,1,0,0:0:0:0:
448,192,72771,128,0,73333:0:0:0:0:
320,192,73146,128,0,73333:0:0:0:0:
192,192,73146,128,0,73333:0:0:0:0:
64,192,73521,128,0,73896:0:0:0:0:
192,192,73521,128,0,73896:0:0:0:0:
448,192,73896,1,0,0:0:0:0:
64,192,74271,1,0,0:0:0:0:
192,192,74271,1,0,0:0:0:0:
448,192,74271,1,0,0:0:0:0:
320,192,74646,128,0,75021:0:0:0:0:
192,192,74833,128,0,75021:0:0:0:0:
64,192,75021,1,0,0:0:0:0:
448,192,75021,128,0,75583:0:0:0:0:
320,192,75396,128,0,75583:0:0:0:0:
192,192,75396,128,0,75583:0:0:0:0:
320,192,75771,1,0,0:0:0:0:
448,192,75771,1,0,0:0:0:0:
64,192,75771,128,0,76333:0:0:0:0:
320,192,76146,128,0,76333:0:0:0:0:
192,192,76146,128,0,76333:0:0:0:0:
448,192,76521,128,0,76896:0:0:0:0:
320,192,76521,128,0,76896:0:0:0:0:
64,192,76896,128,0,77271:0:0:0:0:
192,192,77271,1,0,0:0:0:0:
320,192,77271,1,0,0:0:0:0:
448,192,77271,1,0,0:0:0:0:
320,192,77646,128,0,78021:0:0:0:0:
192,192,77833,128,0,78021:0:0:0:0:
64,192,78021,128,0,78583:0:0:0:0:
448,192,78021,1,0,0:0:0:0:
320,192,78396,128,0,78583:0:0:0:0:
448,192,78396,128,0,78583:0:0:0:0:
64,192,78771,1,0,0:0:0:0:
192,192,78771,1,0,0:0:0:0:
448,192,78771,128,0,79333:0:0:0:0:
192,192,79146,128,0,79333:0:0:0:0:
320,192,79146,128,0,79333:0:0:0:0:
64,192,79521,128,0,79896:0:0:0:0:
192,192,79521,128,0,79896:0:0:0:0:
448,192,79896,1,0,0:0:0:0:
192,192,80271,1,0,0:0:0:0:
64,192,80271,1,0,0:0:0:0:
448,192,80271,1,0,0:0:0:0:
320,192,80646,128,0,80833:0:0:0:0:
448,192,80833,128,0,81396:0:0:0:0:
64,192,81021,1,0,0:0:0:0:
192,192,81021,1,0,0:0:0:0:
192,192,81396,128,0,81771:0:0:0:0:
320,192,81771,1,0,0:0:0:0:
64,192,81771,1,0,0:0:0:0:
448,192,81771,1,0,0:0:0:0:
192,192,82146,128,0,82521:0:0:0:0:
320,192,82333,128,0,82521:0:0:0:0:
448,192,82521,128,0,83271:0:0:0:0:
64,192,82521,1,0,0:0:0:0:
192,192,82896,1,0,0:0:0:0:
64,192,83271,1,0,0:0:0:0:
192,192,83271,1,0,0:0:0:0:
320,192,83271,1,0,0:0:0:0:
320,192,83646,128,0,84021:0:0:0:0:
192,192,83833,128,0,84021:0:0:0:0:
64,192,84021,128,0,84771:0:0:0:0:
448,192,84021,1,0,0:0:0:0:
320,192,84396,1,0,0:0:0:0:
192,192,84771,1,0,0:0:0:0:
320,192,84771,1,0,0:0:0:0:
448,192,84771,128,0,85333:0:0:0:0:
64,192,85146,128,0,85333:0:0:0:0:
192,192,85146,128,0,85333:0:0:0:0:
64,192,85521,128,0,86083:0:0:0:0:
320,192,85521,128,0,85708:0:0:0:0:
320,192,85896,128,0,86083:0:0:0:0:
448,192,85896,128,0,86083:0:0:0:0:
192,192,86271,128,0,86458:0:0:0:0:
64,192,86271,128,0,86458:0:0:0:0:
448,192,86271,128,0,86833:0:0:0:0:
192,192,86646,128,0,86833:0:0:0:0:
320,192,86646,128,0,86833:0:0:0:0:
64,192,86833,1,0,0:0:0:0:
320,192,87021,128,0,87396:0:0:0:0:
448,192,87021,128,0,87396:0:0:0:0:
192,192,87396,1,0,0:0:0:0:
64,192,87771,1,0,0:0:0:0:
320,192,87771,1,0,0:0:0:0:
448,192,87771,1,0,0:0:0:0:
64,192,88146,128,0,88521:0:0:0:0:
192,192,88333,128,0,88521:0:0:0:0:
448,192,88521,128,0,89271:0:0:0:0:
320,192,88521,128,0,88896:0:0:0:0:
192,192,88896,1,0,0:0:0:0:
192,192,89271,1,0,0:0:0:0:
320,192,89271,1,0,0:0:0:0:
64,192,89271,128,0,89646:0:0:0:0:
320,192,89646,1,0,0:0:0:0:
448,192,90021,128,0,90208:0:0:0:0:
64,192,90021,128,0,90583:0:0:0:0:
192,192,90208,128,0,90583:0:0:0:0:
320,192,90396,128,0,90583:0:0:0:0:
64,192,90771,1,0,0:0:0:0:
192,192,90771,1,0,0:0:0:0:
448,192,90771,128,0,91333:0:0:0:0:
192,192,91146,128,0,91333:0:0:0:0:
320,192,91146,128,0,91333:0:0:0:0:
64,192,91521,128,0,92271:0:0:0:0:
192,192,91521,128,0,91896:0:0:0:0:
320,192,91896,1,0,0:0:0:0:
192,192,92271,1,0,0:0:0:0:
320,192,92271,1,0,0:0:0:0:
448,192,92271,1,0,0:0:0:0:
448,192,92646,128,0,93021:0:0:0:0:
320,192,92833,128,0,93021:0:0:0:0:
64,192,93021,128,0,93396:0:0:0:0:
192,192,93021,128,0,93396:0:0:0:0:
448,192,93396,1,0,0:0:0:0:
320,192,93583,1,0,0:0:0:0:
64,192,93771,1,0,0:0:0:0:
192,192,93771,1,0,0:0:0:0:
448,192,93958,1,0,0:0:0:0:
64,192,94146,1,0,0:0:0:0:
320,192,94333,1,0,0:0:0:0:
448,192,94521,5,0,0:0:0:0:
192,192,94521,128,0,94896:0:0:0:0:
64,192,94521,128,0,94896:0:0:0:0:
320,192,94896,1,0,0:0:0:0:
64,192,95271,1,0,0:0:0:0:
448,192,95271,1,0,0:0:0:0:
320,192,95271,1,0,0:0:0:0:
192,192,95646,128,0,96021:0:0:0:0:
320,192,95833,128,0,96021:0:0:0:0:
64,192,96021,128,0,96583:0:0:0:0:
448,192,96021,1,0,0:0:0:0:
320,192,96396,128,0,96583:0:0:0:0:
448,192,96396,128,0,96583:0:0:0:0:
64,192,96771,1,0,0:0:0:0:
192,192,96771,1,0,0:0:0:0:
448,192,96771,128,0,97333:0:0:0:0:
320,192,97146,128,0,97333:0:0:0:0:
192,192,97146,128,0,97333:0:0:0:0:
64,192,97521,128,0,97896:0:0:0:0:
192,192,97521,128,0,97896:0:0:0:0:
448,192,97896,1,0,0:0:0:0:
64,192,98271,1,0,0:0:0:0:
192,192,98271,1,0,0:0:0:0:
448,192,98271,1,0,0:0:0:0:
320,192,98646,128,0,99021:0:0:0:0:
192,192,98833,128,0,99021:0:0:0:0:
64,192,99021,1,0,0:0:0:0:
448,192,99021,128,0,99583:0:0:0:0:
320,192,99396,128,0,99583:0:0:0:0:
192,192,99396,128,0,99583:0:0:0:0:
320,192,99771,1,0,0:0:0:0:
448,192,99771,1,0,0:0:0:0:
64,192,99771,128,0,100333:0:0:0:0:
320,192,100146,128,0,100333:0:0:0:0:
192,192,100146,128,0,100333:0:0:0:0:
448,192,100521,128,0,100896:0:0:0:0:
64,192,100521,128,0,101271:0:0:0:0:
320,192,100896,1,0,0:0:0:0:
192,192,101271,1,0,0:0:0:0:
320,192,101271,1,0,0:0:0:0:
448,192,101271,1,0,0:0:0:0:
64,192,101646,128,0,101833:0:0:0:0:
192,192,101646,128,0,101833:0:0:0:0:
448,192,102021,128,0,102583:0:0:0:0:
64,192,102021,1,0,0:0:0:0:
192,192,102396,128,0,102583:0:0:0:0:
64,192,102396,128,0,102583:0:0:0:0:
448,192,102771,1,0,0:0:0:0:
320,192,102771,1,0,0:0:0:0:
64,192,102771,128,0,103333:0:0:0:0:
320,192,103146,128,0,103333:0:0:0:0:
192,192,103146,128,0,103333:0:0:0:0:
448,192,103521,128,0,103896:0:0:0:0:
320,192,103521,128,0,103896:0:0:0:0:
64,192,103896,1,0,0:0:0:0:
320,192,104271,1,0,0:0:0:0:
448,192,104271,1,0,0:0:0:0:
64,192,104271,1,0,0:0:0:0:
192,192,104646,128,0,104833:0:0:0:0:
448,192,104833,128,0,105396:0:0:0:0:
64,192,105021,1,0,0:0:0:0:
320,192,105021,128,0,105396:0:0:0:0:
192,192,105396,1,0,0:0:0:0:
320,192,105771,1,0,0:0:0:0:
64,192,105771,1,0,0:0:0:0:
448,192,105771,1,0,0:0:0:0:
192,192,106146,128,0,106521:0:0:0:0:
320,192,106333,128,0,106521:0:0:0:0:
448,192,106521,128,0,107271:0:0:0:0:
64,192,106521,1,0,0:0:0:0:
192,192,106896,1,0,0:0:0:0:
64,192,107271,1,0,0:0:0:0:
192,192,107271,1,0,0:0:0:0:
320,192,107271,1,0,0:0:0:0:
320,192,107646,128,0,108021:0:0:0:0:
192,192,107833,128,0,108021:0:0:0:0:
64,192,108021,128,0,108771:0:0:0:0:
448,192,108021,1,0,0:0:0:0:
320,192,108396,1,0,0:0:0:0:
192,192,108771,1,0,0:0:0:0:
320,192,108771,1,0,0:0:0:0:
448,192,108771,128,0,109333:0:0:0:0:
64,192,109146,128,0,109333:0:0:0:0:
192,192,109146,128,0,109333:0:0:0:0:
64,192,109521,128,0,110083:0:0:0:0:
320,192,109521,128,0,109708:0:0:0:0:
320,192,109896,128,0,110083:0:0:0:0:
448,192,109896,128,0,110083:0:0:0:0:
192,192,110271,128,0,110458:0:0:0:0:
64,192,110271,128,0,110458:0:0:0:0:
448,192,110271,128,0,110833:0:0:0:0:
192,192,110646,128,0,110833:0:0:0:0:
320,192,110646,128,0,110833:0:0:0:0:
64,192,110833,1,0,0:0:0:0:
320,192,111021,128,0,111396:0:0:0:0:
448,192,111021,128,0,111396:0:0:0:0:
192,192,111396,1,0,0:0:0:0:
64,192,111771,1,0,0:0:0:0:
320,192,111771,1,0,0:0:0:0:
448,192,111771,1,0,0:0:0:0:
64,192,112146,128,0,112521:0:0:0:0:
192,192,112333,128,0,112521:0:0:0:0:
448,192,112521,128,0,113271:0:0:0:0:
320,192,112521,128,0,112896:0:0:0:0:
192,192,112896,1,0,0:0:0:0:
192,192,113271,1,0,0:0:0:0:
64,192,113271,1,0,0:0:0:0:
320,192,113271,1,0,0:0:0:0:
448,192,113646,1,0,0:0:0:0:
64,192,113833,1,0,0:0:0:0:
320,192,114021,128,0,114208:0:0:0:0:
448,192,114021,128,0,114583:0:0:0:0:
192,192,114396,128,0,114583:0:0:0:0:
64,192,114396,128,0,114583:0:0:0:0:
320,192,114583,1,0,0:0:0:0:
192,192,114771,1,0,0:0:0:0:
64,192,114771,1,0,0:0:0:0:
448,192,114771,1,0,0:0:0:0:
320,192,114958,1,0,0:0:0:0:
64,192,115146,1,0,0:0:0:0:
192,192,115333,1,0,0:0:0:0:
320,192,115521,1,0,0:0:0:0:
448,192,115521,1,0,0:0:0:0:
64,192,115521,128,0,116646:0:0:0:0:
448,192,116271,1,0,0:0:0:0:
320,192,116646,1,0,0:0:0:0:
192,192,116833,1,0,0:0:0:0:
448,192,117021,1,0,0:0:0:0:
320,192,117208,1,0,0:0:0:0:
64,192,117396,1,0,0:0:0:0:
192,192,117583,1,0,0:0:0:0:
448,192,117771,1,0,0:0:0:0:
320,192,117958,1,0,0:0:0:0:
192,192,118146,1,0,0:0:0:0:
64,192,118333,1,0,0:0:0:0:
320,192,118521,1,0,0:0:0:0:
448,192,118521,1,0,0:0:0:0:
192,192,118896,1,0,0:0:0:0:
64,192,119271,1,0,0:0:0:0:
448,192,119271,1,0,0:0:0:0:
320,192,119646,1,0,0:0:0:0:
192,192,120021,1,0,0:0:0:0:
64,192,120021,1,0,0:0:0:0:
64,192,120771,1,0,0:0:0:0:
320,192,120771,1,0,0:0:0:0:
448,192,121146,1,0,0:0:0:0:
448,192,121521,1,0,0:0:0:0:
192,192,121521,1,0,0:0:0:0:
320,192,121896,1,0,0:0:0:0:
64,192,122271,1,0,0:0:0:0:
192,192,122271,1,0,0:0:0:0:
448,192,122646,1,0,0:0:0:0:
320,192,123021,1,0,0:0:0:0:
64,192,123021,1,0,0:0:0:0:
64,192,123771,1,0,0:0:0:0:
192,192,123771,1,0,0:0:0:0:
448,192,124521,128,0,125646:0:0:0:0:
64,192,125271,1,0,0:0:0:0:
192,192,125271,1,0,0:0:0:0:
320,192,125646,1,0,0:0:0:0:
192,192,125833,1,0,0:0:0:0:
64,192,126021,128,0,126396:0:0:0:0:
448,192,126396,1,0,0:0:0:0:
320,192,126583,1,0,0:0:0:0:
192,192,126771,128,0,127146:0:0:0:0:
448,192,127146,1,0,0:0:0:0:
64,192,127333,1,0,0:0:0:0:
320,192,127521,128,0,128646:0:0:0:0:
64,192,128271,1,0,0:0:0:0:
192,192,128271,1,0,0:0:0:0:
64,192,128646,1,0,0:0:0:0:
448,192,128833,1,0,0:0:0:0:
320,192,129021,1,0,0:0:0:0:
192,192,129021,128,0,129396:0:0:0:0:
448,192,129583,128,0,129771:0:0:0:0:
64,192,129771,1,0,0:0:0:0:
192,192,129771,1,0,0:0:0:0:
320,192,129958,1,0,0:0:0:0:
64,192,130146,1,0,0:0:0:0:
192,192,130333,1,0,0:0:0:0:
448,192,130521,1,0,0:0:0:0:
64,192,130521,1,0,0:0:0:0:
320,192,130521,1,0,0:0:0:0:
192,192,130896,1,0,0:0:0:0:
320,192,131083,1,0,0:0:0:0:
64,192,131271,1,0,0:0:0:0:
448,192,131271,1,0,0:0:0:0:
192,192,131646,1,0,0:0:0:0:
64,192,132021,1,0,0:0:0:0:
448,192,132021,1,0,0:0:0:0:
320,192,132396,1,0,0:0:0:0:
64,192,132771,1,0,0:0:0:0:
448,192,132771,1,0,0:0:0:0:
192,192,132958,1,0,0:0:0:0:
320,192,133146,1,0,0:0:0:0:
64,192,133333,1,0,0:0:0:0:
192,192,133521,1,0,0:0:0:0:
448,192,133521,1,0,0:0:0:0:
320,192,133896,1,0,0:0:0:0:
64,192,134083,1,0,0:0:0:0:
192,192,134271,1,0,0:0:0:0:
448,192,134271,1,0,0:0:0:0:
64,192,134646,1,0,0:0:0:0:
192,192,135021,1,0,0:0:0:0:
448,192,135021,1,0,0:0:0:0:
320,192,135396,1,0,0:0:0:0:
64,192,135771,1,0,0:0:0:0:
448,192,135771,1,0,0:0:0:0:
320,192,135958,1,0,0:0:0:0:
192,192,136146,1,0,0:0:0:0:
448,192,136333,1,0,0:0:0:0:
64,192,136521,1,0,0:0:0:0:
320,192,136521,1,0,0:0:0:0:
192,192,136896,1,0,0:0:0:0:
448,192,137083,1,0,0:0:0:0:
64,192,137271,1,0,0:0:0:0:
320,192,137271,1,0,0:0:0:0:
192,192,137646,1,0,0:0:0:0:
64,192,138021,1,0,0:0:0:0:
320,192,138021,1,0,0:0:0:0:
448,192,138396,1,0,0:0:0:0:
64,192,138771,1,0,0:0:0:0:
320,192,138771,1,0,0:0:0:0:
192,192,138958,1,0,0:0:0:0:
448,192,139146,1,0,0:0:0:0:
320,192,139333,1,0,0:0:0:0:
64,192,139521,1,0,0:0:0:0:
448,192,139521,1,0,0:0:0:0:
192,192,139896,1,0,0:0:0:0:
320,192,140083,1,0,0:0:0:0:
64,192,140271,1,0,0:0:0:0:
448,192,140271,1,0,0:0:0:0:
192,192,140646,1,0,0:0:0:0:
64,192,141021,1,0,0:0:0:0:
448,192,141021,1,0,0:0:0:0:
320,192,141396,1,0,0:0:0:0:
64,192,141771,1,0,0:0:0:0:
448,192,141771,1,0,0:0:0:0:
192,192,141958,1,0,0:0:0:0:
320,192,142146,1,0,0:0:0:0:
448,192,142333,1,0,0:0:0:0:
64,192,142521,128,0,143271:0:0:0:0:
192,192,142521,1,0,0:0:0:0:
320,192,143083,1,0,0:0:0:0:
192,192,143271,1,0,0:0:0:0:
448,192,143271,1,0,0:0:0:0:
320,192,143646,128,0,144396:0:0:0:0:
192,192,144021,128,0,144396:0:0:0:0:
64,192,144021,1,0,0:0:0:0:
448,192,144396,1,0,0:0:0:0:
64,192,144771,1,0,0:0:0:0:
320,192,144771,1,0,0:0:0:0:
192,192,144958,1,0,0:0:0:0:
448,192,145146,128,0,145521:0:0:0:0:
320,192,145333,1,0,0:0:0:0:
64,192,145521,128,0,146271:0:0:0:0:
192,192,145521,1,0,0:0:0:0:
320,192,146083,1,0,0:0:0:0:
192,192,146271,1,0,0:0:0:0:
448,192,146271,128,0,147021:0:0:0:0:
64,192,146646,1,0,0:0:0:0:
192,192,147021,128,0,147396:0:0:0:0:
320,192,147396,128,0,147771:0:0:0:0:
64,192,147771,1,0,0:0:0:0:
448,192,147771,1,0,0:0:0:0:
192,192,147958,1,0,0:0:0:0:
320,192,148146,1,0,0:0:0:0:
448,192,148333,1,0,0:0:0:0:
64,192,148521,128,0,149271:0:0:0:0:
192,192,148521,1,0,0:0:0:0:
320,192,149083,1,0,0:0:0:0:
192,192,149271,1,0,0:0:0:0:
448,192,149271,1,0,0:0:0:0:
320,192,149646,1,0,0:0:0:0:
64,192,150021,1,0,0:0:0:0:
448,192,150021,1,0,0:0:0:0:
192,192,150396,128,0,150771:0:0:0:0:
448,192,150771,1,0,0:0:0:0:
320,192,150771,1,0,0:0:0:0:
64,192,150958,1,0,0:0:0:0:
320,192,151146,128,0,151521:0:0:0:0:
192,192,151333,1,0,0:0:0:0:
64,192,151521,1,0,0:0:0:0:
448,192,151521,128,0,152271:0:0:0:0:
192,192,152083,1,0,0:0:0:0:
64,192,152271,1,0,0:0:0:0:
320,192,152271,1,0,0:0:0:0:
320,192,152646,1,0,0:0:0:0:
192,192,152833,1,0,0:0:0:0:
64,192,153021,128,0,153396:0:0:0:0:
448,192,153021,1,0,0:0:0:0:
320,192,153396,5,0,0:0:0:0:
64,192,153771,1,0,0:0:0:0:
192,192,153771,1,0,0:0:0:0:
448,192,153958,1,0,0:0:0:0:
64,192,154146,1,0,0:0:0:0:
192,192,154333,1,0,0:0:0:0:
320,192,154521,128,0,154896:0:0:0:0:
448,192,154521,1,0,0:0:0:0:
64,192,154896,1,0,0:0:0:0:
64,192,155271,1,0,0:0:0:0:
448,192,155271,128,0,155646:0:0:0:0:
192,192,155271,1,0,0:0:0:0:
192,192,155646,1,0,0:0:0:0:
320,192,156021,1,0,0:0:0:0:
64,192,156021,128,0,156396:0:0:0:0:
448,192,156396,1,0,0:0:0:0:
64,192,156771,1,0,0:0:0:0:
192,192,156771,1,0,0:0:0:0:
448,192,156771,128,0,157521:0:0:0:0:
320,192,157146,128,0,157521:0:0:0:0:
192,192,157521,1,0,0:0:0:0:
64,192,157521,128,0,157896:0:0:0:0:
320,192,157896,128,0,158271:0:0:0:0:
448,192,158271,1,0,0:0:0:0:
64,192,158271,1,0,0:0:0:0:
192,192,158271,128,0,158646:0:0:0:0:
320,192,158646,128,0,159021:0:0:0:0:
64,192,159021,1,0,0:0:0:0:
448,192,159021,128,0,159396:0:0:0:0:
192,192,159396,1,0,0:0:0:0:
320,192,159583,1,0,0:0:0:0:
64,192,159771,128,0,160146:0:0:0:0:
448,192,159771,1,0,0:0:0:0:
192,192,159771,1,0,0:0:0:0:
320,192,160146,1,0,0:0:0:0:
448,192,160521,1,0,0:0:0:0:
64,192,160521,128,0,160896:0:0:0:0:
320,192,160896,128,0,161271:0:0:0:0:
64,192,161271,1,0,0:0:0:0:
448,192,161271,1,0,0:0:0:0:
192,192,161271,128,0,161646:0:0:0:0:
320,192,161646,128,0,162021:0:0:0:0:
448,192,162021,128,0,162396:0:0:0:0:
64,192,162021,1,0,0:0:0:0:
192,192,162396,1,0,0:0:0:0:
64,192,162771,128,0,163146:0:0:0:0:
320,192,162771,1,0,0:0:0:0:
448,192,162771,1,0,0:0:0:0:
448,192,163146,1,0,0:0:0:0:
192,192,163521,1,0,0:0:0:0:
320,192,163521,128,0,164271:0:0:0:0:
64,192,163896,1,0,0:0:0:0:
64,192,164271,1,0,0:0:0:0:
192,192,164271,1,0,0:0:0:0:
448,192,164271,1,0,0:0:0:0:
192,192,164646,128,0,165021:0:0:0:0:
64,192,165021,1,0,0:0:0:0:
448,192,165021,1,0,0:0:0:0:
320,192,165021,128,0,165396:0:0:0:0:
192,192,165396,5,0,0:0:0:0:
64,192,165771,1,0,0:0:0:0:
448,192,165771,1,0,0:0:0:0:
192,192,165771,1,0,0:0:0:0:
320,192,165958,1,0,0:0:0:0:
448,192,166146,1,0,0:0:0:0:
192,192,166333,1,0,0:0:0:0:
64,192,166521,5,0,0:0:0:0:
320,192,166521,128,0,166896:0:0:0:0:
448,192,166521,128,0,166896:0:0:0:0:
192,192,166896,1,0,0:0:0:0:
448,192,167271,1,0,0:0:0:0:
64,192,167271,1,0,0:0:0:0:
320,192,167271,1,0,0:0:0:0:
192,192,167646,128,0,168021:0:0:0:0:
320,192,167833,128,0,168021:0:0:0:0:
64,192,168021,128,0,168583:0:0:0:0:
448,192,168021,1,0,0:0:0:0:
320,192,168396,128,0,168583:0:0:0:0:
448,192,168396,128,0,168583:0:0:0:0:
64,192,168771,1,0,0:0:0:0:
192,192,168771,1,0,0:0:0:0:
448,192,168771,128,0,169333:0:0:0:0:
320,192,169146,128,0,169333:0:0:0:0:
192,192,169146,128,0,169333:0:0:0:0:
64,192,169521,128,0,169896:0:0:0:0:
192,192,169521,128,0,169896:0:0:0:0:
448,192,169896,1,0,0:0:0:0:
64,192,170271,1,0,0:0:0:0:
192,192,170271,1,0,0:0:0:0:
448,192,170271,1,0,0:0:0:0:
320,192,170646,128,0,171021:0:0:0:0:
192,192,170833,128,0,171021:0:0:0:0:
64,192,171021,1,0,0:0:0:0:
448,192,171021,128,0,171583:0:0:0:0:
320,192,171396,128,0,171583:0:0:0:0:
192,192,171396,128,0,171583:0:0:0:0:
320,192,171771,1,0,0:0:0:0:
448,192,171771,1,0,0:0:0:0:
64,192,171771,128,0,172333:0:0:0:0:
320,192,172146,128,0,172333:0:0:0:0:
192,192,172146,128,0,172333:0:0:0:0:
448,192,172521,128,0,172896:0:0:0:0:
320,192,172521,128,0,172896:0:0:0:0:
64,192,172896,128,0,173271:0:0:0:0:
192,192,173271,1,0,0:0:0:0:
320,192,173271,1,0,0:0:0:0:
448,192,173271,1,0,0:0:0:0:
320,192,173646,128,0,174021:0:0:0:0:
192,192,173833,128,0,174021:0:0:0:0:
64,192,174021,128,0,174583:0:0:0:0:
448,192,174021,1,0,0:0:0:0:
320,192,174396,128,0,174583:0:0:0:0:
448,192,174396,128,0,174583:0:0:0:0:
64,192,174771,1,0,0:0:0:0:
192,192,174771,1,0,0:0:0:0:
448,192,174771,128,0,175333:0:0:0:0:
192,192,175146,128,0,175333:0:0:0:0:
320,192,175146,128,0,175333:0:0:0:0:
64,192,175521,128,0,175896:0:0:0:0:
192,192,175521,128,0,175896:0:0:0:0:
448,192,175896,1,0,0:0:0:0:
192,192,176271,1,0,0:0:0:0:
64,192,176271,1,0,0:0:0:0:
448,192,176271,1,0,0:0:0:0:
320,192,176646,128,0,176833:0:0:0:0:
448,192,176833,128,0,177396:0:0:0:0:
64,192,177021,1,0,0:0:0:0:
192,192,177021,1,0,0:0:0:0:
192,192,177396,128,0,177771:0:0:0:0:
320,192,177771,1,0,0:0:0:0:
64,192,177771,1,0,0:0:0:0:
448,192,177771,1,0,0:0:0:0:
192,192,178146,128,0,178521:0:0:0:0:
320,192,178333,128,0,178521:0:0:0:0:
448,192,178521,128,0,179271:0:0:0:0:
64,192,178521,1,0,0:0:0:0:
192,192,178896,1,0,0:0:0:0:
64,192,179271,1,0,0:0:0:0:
192,192,179271,1,0,0:0:0:0:
320,192,179271,1,0,0:0:0:0:
320,192,179646,128,0,180021:0:0:0:0:
192,192,179833,128,0,180021:0:0:0:0:
64,192,180021,128,0,180771:0:0:0:0:
448,192,180021,1,0,0:0:0:0:
320,192,180396,1,0,0:0:0:0:
192,192,180771,1,0,0:0:0:0:
320,192,180771,1,0,0:0:0:0:
448,192,180771,128,0,181333:0:0:0:0:
64,192,181146,128,0,181333:0:0:0:0:
192,192,181146,128,0,181333:0:0:0:0:
64,192,181521,128,0,182083:0:0:0:0:
320,192,181521,128,0,181708:0:0:0:0:
320,192,181896,128,0,182083:0:0:0:0:
448,192,181896,128,0,182083:0:0:0:0:
192,192,182271,128,0,182458:0:0:0:0:
64,192,182271,128,0,182458:0:0:0:0:
448,192,182271,128,0,182833:0:0:0:0:
192,192,182646,128,0,182833:0:0:0:0:
320,192,182646,128,0,182833:0:0:0:0:
64,192,182833,1,0,0:0:0:0:
320,192,183021,128,0,183396:0:0:0:0:
448,192,183021,128,0,183396:0:0:0:0:
192,192,183396,1,0,0:0:0:0:
64,192,183771,1,0,0:0:0:0:
320,192,183771,1,0,0:0:0:0:
448,192,183771,1,0,0:0:0:0:
64,192,184146,128,0,184521:0:0:0:0:
192,192,184333,128,0,184521:0:0:0:0:
448,192,184521,128,0,185271:0:0:0:0:
320,192,184521,128,0,184896:0:0:0:0:
192,192,184896,1,0,0:0:0:0:
192,192,185271,1,0,0:0:0:0:
320,192,185271,1,0,0:0:0:0:
64,192,185271,1,0,0:0:0:0:
320,192,185646,1,0,0:0:0:0:
448,192,186021,128,0,186208:0:0:0:0:
64,192,186021,128,0,186583:0:0:0:0:
192,192,186208,128,0,186583:0:0:0:0:
320,192,186396,128,0,186583:0:0:0:0:
64,192,186771,1,0,0:0:0:0:
192,192,186771,1,0,0:0:0:0:
448,192,186771,128,0,187333:0:0:0:0:
192,192,187146,128,0,187333:0:0:0:0:
320,192,187146,128,0,187333:0:0:0:0:
64,192,187521,128,0,188271:0:0:0:0:
192,192,187521,128,0,187896:0:0:0:0:
320,192,187896,1,0,0:0:0:0:
192,192,188271,1,0,0:0:0:0:
320,192,188271,1,0,0:0:0:0:
448,192,188271,1,0,0:0:0:0:
448,192,188646,128,0,189021:0:0:0:0:
320,192,188833,128,0,189021:0:0:0:0:
64,192,189021,128,0,189396:0:0:0:0:
192,192,189021,128,0,189396:0:0:0:0:
448,192,189396,1,0,0:0:0:0:
320,192,189583,1,0,0:0:0:0:
64,192,189771,1,0,0:0:0:0:
192,192,189771,1,0,0:0:0:0:
448,192,189958,1,0,0:0:0:0:
64,192,190146,1,0,0:0:0:0:
320,192,190333,1,0,0:0:0:0:
448,192,190521,5,0,0:0:0:0:
192,192,190521,128,0,190896:0:0:0:0:
64,192,190521,128,0,190896:0:0:0:0:
320,192,190896,1,0,0:0:0:0:
64,192,191271,1,0,0:0:0:0:
448,192,191271,1,0,0:0:0:0:
320,192,191271,1,0,0:0:0:0:
192,192,191646,128,0,192021:0:0:0:0:
320,192,191833,128,0,192021:0:0:0:0:
64,192,192021,128,0,192583:0:0:0:0:
448,192,192021,1,0,0:0:0:0:
320,192,192396,128,0,192583:0:0:0:0:
448,192,192396,128,0,192583:0:0:0:0:
64,192,192771,1,0,0:0:0:0:
192,192,192771,1,0,0:0:0:0:
448,192,192771,128,0,193333:0:0:0:0:
320,192,193146,128,0,193333:0:0:0:0:
192,192,193146,128,0,193333:0:0:0:0:
64,192,193521,128,0,193896:0:0:0:0:
192,192,193521,128,0,193896:0:0:0:0:
448,192,193896,1,0,0:0:0:0:
64,192,194271,1,0,0:0:0:0:
192,192,194271,1,0,0:0:0:0:
448,192,194271,1,0,0:0:0:0:
320,192,194646,128,0,195021:0:0:0:0:
192,192,194833,128,0,195021:0:0:0:0:
64,192,195021,1,0,0:0:0:0:
448,192,195021,128,0,195583:0:0:0:0:
320,192,195396,128,0,195583:0:0:0:0:
192,192,195396,128,0,195583:0:0:0:0:
320,192,195771,1,0,0:0:0:0:
448,192,195771,1,0,0:0:0:0:
64,192,195771,128,0,196333:0:0:0:0:
320,192,196146,128,0,196333:0:0:0:0:
192,192,196146,128,0,196333:0:0:0:0:
448,192,196521,128,0,196896:0:0:0:0:
64,192,196521,128,0,197271:0:0:0:0:
320,192,196896,1,0,0:0:0:0:
192,192,197271,1,0,0:0:0:0:
320,192,197271,1,0,0:0:0:0:
448,192,197271,1,0,0:0:0:0:
64,192,197646,128,0,197833:0:0:0:0:
192,192,197646,128,0,197833:0:0:0:0:
448,192,198021,128,0,198583:0:0:0:0:
64,192,198021,1,0,0:0:0:0:
192,192,198396,128,0,198583:0:0:0:0:
64,192,198396,128,0,198583:0:0:0:0:
448,192,198771,1,0,0:0:0:0:
320,192,198771,1,0,0:0:0:0:
64,192,198771,128,0,199333:0:0:0:0:
320,192,199146,128,0,199333:0:0:0:0:
192,192,199146,128,0,199333:0:0:0:0:
448,192,199521,128,0,199896:0:0:0:0:
320,192,199521,128,0,199896:0:0:0:0:
64,192,199896,1,0,0:0:0:0:
320,192,200271,1,0,0:0:0:0:
448,192,200271,1,0,0:0:0:0:
64,192,200271,1,0,0:0:0:0:
192,192,200646,128,0,200833:0:0:0:0:
448,192,200833,128,0,201396:0:0:0:0:
64,192,201021,1,0,0:0:0:0:
320,192,201021,128,0,201396:0:0:0:0:
192,192,201396,1,0,0:0:0:0:
320,192,201771,1,0,0:0:0:0:
64,192,201771,1,0,0:0:0:0:
448,192,201771,1,0,0:0:0:0:
192,192,202146,128,0,202521:0:0:0:0:
320,192,202333,128,0,202521:0:0:0:0:
448,192,202521,128,0,203271:0:0:0:0:
64,192,202521,1,0,0:0:0:0:
192,192,202896,1,0,0:0:0:0:
64,192,203271,1,0,0:0:0:0:
192,192,203271,1,0,0:0:0:0:
320,192,203271,1,0,0:0:0:0:
320,192,203646,128,0,204021:0:0:0:0:
192,192,203833,128,0,204021:0:0:0:0:
64,192,204021,128,0,204771:0:0:0:0:
448,192,204021,1,0,0:0:0:0:
320,192,204396,1,0,0:0:0:0:
192,192,204771,1,0,0:0:0:0:
320,192,204771,1,0,0:0:0:0:
448,192,204771,128,0,205333:0:0:0:0:
64,192,205146,128,0,205333:0:0:0:0:
192,192,205146,128,0,205333:0:0:0:0:
64,192,205521,128,0,206083:0:0:0:0:
320,192,205521,128,0,205708:0:0:0:0:
320,192,205896,128,0,206083:0:0:0:0:
448,192,205896,128,0,206083:0:0:0:0:
192,192,206271,128,0,206458:0:0:0:0:
64,192,206271,128,0,206458:0:0:0:0:
448,192,206271,128,0,206833:0:0:0:0:
192,192,206646,128,0,206833:0:0:0:0:
320,192,206646,128,0,206833:0:0:0:0:
64,192,206833,1,0,0:0:0:0:
320,192,207021,128,0,207396:0:0:0:0:
448,192,207021,128,0,207396:0:0:0:0:
192,192,207396,1,0,0:0:0:0:
64,192,207771,1,0,0:0:0:0:
320,192,207771,1,0,0:0:0:0:
448,192,207771,1,0,0:0:0:0:
64,192,208146,128,0,208521:0:0:0:0:
192,192,208333,128,0,208521:0:0:0:0:
448,192,208521,128,0,209271:0:0:0:0:
320,192,208521,128,0,208896:0:0:0:0:
192,192,208896,1,0,0:0:0:0:
192,192,209271,1,0,0:0:0:0:
64,192,209271,1,0,0:0:0:0:
320,192,209271,1,0,0:0:0:0:
448,192,209646,1,0,0:0:0:0:
64,192,209833,1,0,0:0:0:0:
320,192,210021,128,0,210208:0:0:0:0:
448,192,210021,128,0,210583:0:0:0:0:
192,192,210396,128,0,210583:0:0:0:0:
64,192,210396,128,0,210583:0:0:0:0:
320,192,210583,1,0,0:0:0:0:
192,192,210771,1,0,0:0:0:0:
64,192,210771,1,0,0:0:0:0:
448,192,210771,1,0,0:0:0:0:
320,192,210958,1,0,0:0:0:0:
64,192,211146,1,0,0:0:0:0:
192,192,211333,1,0,0:0:0:0:
320,192,211521,1,0,0:0:0:0:
448,192,211521,1,0,0:0:0:0:
64,192,211521,1,0,0:0:0:0:
320,192,212271,1,0,0:0:0:0:
448,192,212271,1,0,0:0:0:0:
192,192,212271,1,0,0:0:0:0:
64,192,213021,1,0,0:0:0:0:
320,192,213021,1,0,0:0:0:0:
448,192,213021,1,0,0:0:0:0:
64,192,213771,1,0,0:0:0:0:
192,192,213771,1,0,0:0:0:0:
448,192,213771,1,0,0:0:0:0:
64,192,214521,1,0,0:0:0:0:
320,192,214521,1,0,0:0:0:0:
448,192,214521,1,0,0:0:0:0:
192,192,215271,1,0,0:0:0:0:
320,192,215271,1,0,0:0:0:0:
448,192,215271,1,0,0:0:0:0:
64,192,216021,1,0,0:0:0:0:
320,192,216021,1,0,0:0:0:0:
448,192,216021,1,0,0:0:0:0:
64,192,216771,1,0,0:0:0:0:
192,192,216771,1,0,0:0:0:0:
320,192,216771,1,0,0:0:0:0:
192,192,217521,128,0,217896:0:0:0:0:
64,192,217521,1,0,0:0:0:0:
448,192,217521,1,0,0:0:0:0:
320,192,217896,128,0,218271:0:0:0:0:
64,192,218271,1,0,0:0:0:0:
448,192,218271,128,0,218646:0:0:0:0:
192,192,218646,128,0,219021:0:0:0:0:
64,192,219021,128,0,219396:0:0:0:0:
320,192,219396,128,0,219771:0:0:0:0:
192,192,219771,128,0,220146:0:0:0:0:
64,192,219771,1,0,0:0:0:0:
448,192,220146,1,0,0:0:0:0:
320,192,220333,1,0,0:0:0:0:
64,192,220521,1,0,0:0:0:0:
192,192,220521,1,0,0:0:0:0:
448,192,220521,128,0,220896:0:0:0:0:
64,192,220896,1,0,0:0:0:0:
192,192,221083,1,0,0:0:0:0:
320,192,221271,1,0,0:0:0:0:
448,192,221271,1,0,0:0:0:0:
64,192,221458,1,0,0:0:0:0:
448,192,221646,1,0,0:0:0:0:
192,192,221833,1,0,0:0:0:0:
320,192,222021,1,0,0:0:0:0:
448,192,222021,1,0,0:0:0:0:
64,192,222021,1,0,0:0:0:0:
320,192,222771,128,0,222958:0:0:0:0:
64,192,223146,1,0,0:0:0:0:
192,192,223271,1,0,0:0:0:0:
320,192,223396,1,0,0:0:0:0:
64,192,223521,1,0,0:0:0:0:
448,192,223521,128,0,224271:0:0:0:0:
192,192,224271,1,0,0:0:0:0:
320,192,224646,1,0,0:0:0:0:
64,192,224833,1,0,0:0:0:0:
448,192,225021,128,0,225396:0:0:0:0:
192,192,225396,128,0,225771:0:0:0:0:
320,192,225771,128,0,226146:0:0:0:0:
64,192,226146,128,0,226521:0:0:0:0:
448,192,226521,128,0,227271:0:0:0:0:
64,192,227271,1,0,0:0:0:0:
192,192,227646,1,0,0:0:0:0:
320,192,227833,1,0,0:0:0:0:
64,192,228021,128,0,228396:0:0:0:0:
192,192,228396,128,0,228771:0:0:0:0:
448,192,228771,128,0,229146:0:0:0:0:
320,192,229146,128,0,229521:0:0:0:0:
64,192,229521,128,0,230271:0:0:0:0:
320,192,230271,1,0,0:0:0:0:
448,192,230646,1,0,0:0:0:0:
192,192,230833,1,0,0:0:0:0:
320,192,231021,128,0,231396:0:0:0:0:
64,192,231396,128,0,231771:0:0:0:0:
448,192,231771,128,0,232146:0:0:0:0:
192,192,232146,128,0,232521:0:0:0:0:
64,192,232521,128,0,233271:0:0:0:0:
320,192,233271,1,0,0:0:0:0:
192,192,233646,1,0,0:0:0:0:
448,192,233833,128,0,234771:0:0:0:0:
64,192,234021,1,0,0:0:0:0:
64,192,234771,128,0,235146:0:0:0:0:
320,192,235146,1,0,0:0:0:0:
192,192,235333,1,0,0:0:0:0:
448,192,235521,128,0,236271:0:0:0:0:
192,192,236271,1,0,0:0:0:0:
64,192,236646,1,0,0:0:0:0:
192,192,236833,1,0,0:0:0:0:
320,192,237021,128,0,237771:0:0:0:0:
64,192,237771,128,0,238146:0:0:0:0:
448,192,238146,128,0,238521:0:0:0:0:
64,192,238521,128,0,238896:0:0:0:0:
448,192,238896,128,0,239271:0:0:0:0:
320,192,239271,128,0,239646:0:0:0:0:
192,192,239646,128,0,240021:0:0:0:0:
448,192,240021,128,0,241146:0:0:0:0:
64,192,240771,1,0,0:0:0:0:
192,192,241146,1,0,0:0:0:0:
320,192,241333,1,0,0:0:0:0:
64,192,241521,128,0,242271:0:0:0:0:
448,192,242271,1,0,0:0:0:0:
320,192,242646,1,0,0:0:0:0:
192,192,243021,128,0,243771:0:0:0:0:
448,192,243771,128,0,244146:0:0:0:0:
320,192,244146,128,0,244521:0:0:0:0:
64,192,244521,128,0,245271:0:0:0:0:
448,192,245271,1,0,0:0:0:0:
192,192,245646,1,0,0:0:0:0:
320,192,245833,1,0,0:0:0:0:
448,192,246021,128,0,246396:0:0:0:0:
64,192,246396,1,0,0:0:0:0:
192,192,246583,1,0,0:0:0:0:
320,192,246771,1,0,0:0:0:0:
448,192,246771,1,0,0:0:0:0:
64,192,246958,1,0,0:0:0:0:
448,192,247146,1,0,0:0:0:0:
320,192,247333,1,0,0:0:0:0:
448,192,247521,5,0,0:0:0:0:
192,192,247521,128,0,247896:0:0:0:0:
64,192,247521,128,0,247896:0:0:0:0:
320,192,247896,1,0,0:0:0:0:
64,192,248271,1,0,0:0:0:0:
448,192,248271,1,0,0:0:0:0:
320,192,248271,1,0,0:0:0:0:
192,192,248646,128,0,249021:0:0:0:0:
320,192,248833,128,0,249021:0:0:0:0:
64,192,249021,128,0,249583:0:0:0:0:
448,192,249021,1,0,0:0:0:0:
320,192,249396,128,0,249583:0:0:0:0:
448,192,249396,128,0,249583:0:0:0:0:
64,192,249771,1,0,0:0:0:0:
192,192,249771,1,0,0:0:0:0:
448,192,249771,128,0,250333:0:0:0:0:
320,192,250146,128,0,250333:0:0:0:0:
192,192,250146,128,0,250333:0:0:0:0:
64,192,250521,128,0,250896:0:0:0:0:
192,192,250521,128,0,250896:0:0:0:0:
448,192,250896,1,0,0:0:0:0:
64,192,251271,1,0,0:0:0:0:
192,192,251271,1,0,0:0:0:0:
448,192,251271,1,0,0:0:0:0:
320,192,251646,128,0,252021:0:0:0:0:
192,192,251833,128,0,252021:0:0:0:0:
64,192,252021,1,0,0:0:0:0:
448,192,252021,128,0,252583:0:0:0:0:
320,192,252396,128,0,252583:0:0:0:0:
192,192,252396,128,0,252583:0:0:0:0:
320,192,252771,1,0,0:0:0:0:
448,192,252771,1,0,0:0:0:0:
64,192,252771,128,0,253333:0:0:0:0:
320,192,253146,128,0,253333:0:0:0:0:
192,192,253146,128,0,253333:0:0:0:0:
448,192,253521,128,0,253896:0:0:0:0:
64,192,253521,128,0,254271:0:0:0:0:
192,192,253896,1,0,0:0:0:0:
192,192,254271,1,0,0:0:0:0:
320,192,254271,1,0,0:0:0:0:
448,192,254271,1,0,0:0:0:0:
64,192,254646,128,0,254833:0:0:0:0:
192,192,254646,128,0,254833:0:0:0:0:
448,192,255021,128,0,255583:0:0:0:0:
64,192,255021,1,0,0:0:0:0:
192,192,255396,128,0,255583:0:0:0:0:
64,192,255396,128,0,255583:0:0:0:0:
448,192,255771,1,0,0:0:0:0:
320,192,255771,1,0,0:0:0:0:
64,192,255771,128,0,256333:0:0:0:0:
320,192,256146,128,0,256333:0:0:0:0:
192,192,256146,128,0,256333:0:0:0:0:
448,192,256521,128,0,256896:0:0:0:0:
320,192,256521,128,0,256896:0:0:0:0:
64,192,256896,1,0,0:0:0:0:
320,192,257271,1,0,0:0:0:0:
448,192,257271,1,0,0:0:0:0:
64,192,257271,1,0,0:0:0:0:
192,192,257646,128,0,257833:0:0:0:0:
448,192,257833,128,0,258396:0:0:0:0:
64,192,258021,1,0,0:0:0:0:
320,192,258021,128,0,258396:0:0:0:0:
192,192,258396,1,0,0:0:0:0:
320,192,258771,1,0,0:0:0:0:
64,192,258771,1,0,0:0:0:0:
448,192,258771,1,0,0:0:0:0:
192,192,259146,128,0,259521:0:0:0:0:
320,192,259333,128,0,259521:0:0:0:0:
448,192,259521,128,0,260271:0:0:0:0:
64,192,259521,1,0,0:0:0:0:
192,192,259896,1,0,0:0:0:0:
64,192,260271,1,0,0:0:0:0:
192,192,260271,1,0,0:0:0:0:
320,192,260271,1,0,0:0:0:0:
320,192,260646,128,0,261021:0:0:0:0:
192,192,260833,128,0,261021:0:0:0:0:
64,192,261021,128,0,261771:0:0:0:0:
448,192,261021,1,0,0:0:0:0:
320,192,261396,1,0,0:0:0:0:
192,192,261771,1,0,0:0:0:0:
320,192,261771,1,0,0:0:0:0:
448,192,261771,128,0,262333:0:0:0:0:
64,192,262146,128,0,262333:0:0:0:0:
192,192,262146,128,0,262333:0:0:0:0:
64,192,262521,128,0,263083:0:0:0:0:
320,192,262521,128,0,262708:0:0:0:0:
320,192,262896,128,0,263083:0:0:0:0:
448,192,262896,128,0,263083:0:0:0:0:
192,192,263271,128,0,263458:0:0:0:0:
64,192,263271,128,0,263458:0:0:0:0:
448,192,263271,128,0,263833:0:0:0:0:
192,192,263646,128,0,263833:0:0:0:0:
320,192,263646,128,0,263833:0:0:0:0:
64,192,263833,1,0,0:0:0:0:
320,192,264021,128,0,264396:0:0:0:0:
448,192,264021,128,0,264396:0:0:0:0:
192,192,264396,1,0,0:0:0:0:
64,192,264771,1,0,0:0:0:0:
320,192,264771,1,0,0:0:0:0:
448,192,264771,1,0,0:0:0:0:
64,192,265146,128,0,265521:0:0:0:0:
192,192,265333,128,0,265521:0:0:0:0:
448,192,265521,128,0,266271:0:0:0:0:
320,192,265521,128,0,265896:0:0:0:0:
192,192,265896,1,0,0:0:0:0:
192,192,266271,1,0,0:0:0:0:
320,192,266271,1,0,0:0:0:0:
64,192,266271,1,0,0:0:0:0:
448,192,266646,1,0,0:0:0:0:
64,192,266833,1,0,0:0:0:0:
320,192,267021,128,0,267208:0:0:0:0:
448,192,267021,128,0,267583:0:0:0:0:
192,192,267396,128,0,267583:0:0:0:0:
64,192,267396,128,0,267583:0:0:0:0:
320,192,267583,1,0,0:0:0:0:
192,192,267771,1,0,0:0:0:0:
64,192,267771,1,0,0:0:0:0:
448,192,267771,1,0,0:0:0:0:
320,192,267958,1,0,0:0:0:0:
64,192,268146,1,0,0:0:0:0:
192,192,268333,1,0,0:0:0:0:
320,192,268521,1,0,0:0:0:0:
448,192,268521,1,0,0:0:0:0:
64,192,268521,128,0,269646:0:0:0:0:
448,192,269271,1,0,0:0:0:0:
320,192,269646,1,0,0:0:0:0:
192,192,269833,1,0,0:0:0:0:
448,192,270021,1,0,0:0:0:0:
320,192,270208,1,0,0:0:0:0:
64,192,270396,1,0,0:0:0:0:
192,192,270583,1,0,0:0:0:0:
448,192,270771,1,0,0:0:0:0:
320,192,270771,1,0,0:0:0:0:
320,192,271146,1,0,0:0:0:0:
64,192,271333,1,0,0:0:0:0:
192,192,271333,1,0,0:0:0:0:
448,192,271521,1,0,0:0:0:0:
192,192,273021,1,0,0:0:0:0:
320,192,273396,1,0,0:0:0:0:
192,192,273771,1,0,0:0:0:0:
64,192,274146,1,0,0:0:0:0:
448,192,274521,1,0,0:0:0:0:
192,192,277521,1,0,0:0:0:0:
192,192,279021,1,0,0:0:0:0:
320,192,279396,1,0,0:0:0:0:
448,192,279771,1,0,0:0:0:0:
64,192,280146,1,0,0:0:0:0:
320,192,280521,1,0,0:0:0:0:
64,192,282771,1,0,0:0:0:0:
192,192,283146,1,0,0:0:0:0:
320,192,283521,1,0,0:0:0:0:
192,192,284646,1,0,0:0:0:0:
448,192,285021,1,0,0:0:0:0:
320,192,285396,1,0,0:0:0:0:
192,192,285771,1,0,0:0:0:0:
64,192,286146,1,0,0:0:0:0:
448,192,286521,1,0,0:0:0:0:
192,192,287271,1,0,0:0:0:0:
448,192,288771,1,0,0:0:0:0:
320,192,289146,1,0,0:0:0:0:
192,192,289521,1,0,0:0:0:0:
320,192,292146,1,0,0:0:0:0:
192,192,292521,1,0,0:0:0:0:
320,192,292896,1,0,0:0:0:0:
448,192,293271,1,0,0:0:0:0:
64,192,293646,1,0,0:0:0:0:
192,192,294021,1,0,0:0:0:0:
320,192,294396,1,0,0:0:0:0:
64,192,294771,1,0,0:0:0:0:
448,192,295146,1,0,0:0:0:0:
192,192,295521,1,0,0:0:0:0:
448,192,298521,1,0,0:0:0:0:
320,192,301521,1,0,0:0:0:0:
192,192,304521,1,0,0:0:0:0:
