osu file format v14

[General]
AudioFilename: audio.mp3
AudioLeadIn: 0
PreviewTime: 49262
Countdown: 0
SampleSet: Soft
StackLeniency: 0.7
Mode: 0
LetterboxInBreaks: 0
WidescreenStoryboard: 1

[Editor]
Bookmarks: 259,5311,9101,14153,16837,19206,21732,26785,31837,36890,44469,46837,48101,49364,50390,53153,54574,63258,64679,74943,77311,80943,82364,85048,89469
DistanceSpacing: 0.9
BeatDivisor: 4
GridSize: 32
TimelineZoom: 1.5

[Metadata]
Title:Princess * Sisters!
TitleUnicode:プリンセス☆シスターズ!
Artist:solfa feat. Yumeno Yuki
ArtistUnicode:solfa feat. 夢乃ゆき
Creator:tomatas95
Version:Step Into Tomorrow With My Lovely Princess~
Source:プリンセス☆シスターズ!~四姉妹は全員あなたの許嫁~
Tags:Princess ☆ Sisters! eroge galgame ~Yon Shimai wa Zen'in Anata no Iinazuke~ sugar visual novel vn opening japanese op video game jpop pop j-pop Hashizaki Tooru 橋咲透 Amagasaki Urara 天ヶ咲麗
BeatmapID:3194325
BeatmapSetID:1564270

[Difficulty]
HPDrainRate:6
CircleSize:4
OverallDifficulty:9
ApproachRate:9.3
SliderMultiplier:1.8
SliderTickRate:1

[Events]
//Background and Video events
Video,50,"ILoveSistersAndPrincesses.mp4"
0,0,"EimiWife.jpg",0,0
//Break Periods
2,19463,21235
//Storyboard Layer 0 (Background)
//Storyboard Layer 1 (Fail)
//Storyboard Layer 2 (Pass)
//Storyboard Layer 3 (Foreground)
//Storyboard Layer 4 (Overlay)
//Storyboard Sound Samples

[TimingPoints]
316,315.789473684211,4,2,1,50,1,0
316,-166.666666666667,4,2,1,50,0,0
2842,-166.666666666667,4,2,1,55,0,0
5368,-100,4,2,1,50,0,0
6000,-100,4,2,1,55,0,0
6631,-100,4,2,1,60,0,0
7263,-100,4,2,1,65,0,0
7894,-100,4,2,1,70,0,0
8526,-100,4,2,1,75,0,0
9158,315.789473684211,4,2,1,70,1,0
9315,-100,4,2,2,70,0,0
11368,-100,4,2,2,65,0,0
11526,-100,4,2,2,60,0,0
11684,-100,4,2,1,75,0,0
11842,-100,4,2,2,70,0,0
12789,-100,4,2,2,75,0,0
13894,-250,4,2,2,65,0,0
14131,-76.9230769230769,4,2,2,5,0,0
14210,-100,4,2,1,75,0,0
14368,-100,4,2,2,75,0,0
16421,-100,4,2,2,65,0,0
16579,-100,4,2,2,60,0,0
16894,-74.0740740740741,4,2,1,75,0,0
17052,-74.0740740740741,4,2,2,65,0,0
17368,-74.0740740740741,4,2,1,75,0,0
17526,-74.0740740740741,4,2,2,65,0,0
17842,-62.5,4,2,2,75,0,0
18158,-62.5,4,2,1,75,0,0
18315,-100,4,2,1,75,0,0
19263,-100,4,2,1,50,0,0
21789,315.789473684211,4,2,1,50,1,0
21789,-125,4,2,1,70,0,0
21947,-125,4,2,1,60,0,0
22263,-125,4,2,1,30,0,0
22421,-125,4,2,1,60,0,0
22894,-125,4,2,1,65,0,0
24158,-125,4,2,1,30,0,0
24315,-125,4,2,1,60,0,0
24789,-125,4,2,1,30,0,0
24947,-125,4,2,1,60,0,0
25421,-125,4,2,1,65,0,0
26842,-111.111111111111,4,2,2,70,0,0
27079,-76.9230769230769,4,2,2,5,0,0
27158,-111.111111111111,4,2,1,70,0,0
29368,-111.111111111111,4,2,1,60,0,0
31894,-100,4,2,1,70,0,0
32210,-100,4,2,2,70,0,0
32368,-100,4,2,1,70,0,0
32842,-100,4,2,2,70,0,0
33473,-100,4,2,3,70,0,0
33631,-100,4,2,2,70,0,0
34105,-100,4,2,3,70,0,0
34263,-100,4,2,2,70,0,0
34421,-100,4,2,3,70,0,0
34736,-100,4,2,2,70,0,0
35052,-100,4,2,3,70,0,0
35368,-100,4,2,2,70,0,0
35526,-100,4,2,3,70,0,0
36947,-142.857142857143,4,2,1,60,0,0
43263,-111.111111111111,4,2,1,60,0,0
43421,-111.111111111111,4,2,1,65,0,0
43579,-111.111111111111,4,2,1,70,0,0
43736,-111.111111111111,4,2,1,75,0,0
43894,-111.111111111111,4,2,1,80,0,0
44052,-111.111111111111,4,2,1,85,0,0
44210,-333.333333333333,4,2,1,90,0,0
44447,-76.9230769230769,4,2,1,5,0,0
44526,-100,4,2,2,75,0,0
44684,-100,4,2,1,75,0,0
44842,-100,4,2,2,75,0,0
45000,-100,4,2,1,75,0,0
45158,-100,4,2,2,75,0,0
45631,-100,4,2,1,75,0,0
45789,-100,4,2,2,75,0,0
46421,-100,4,2,1,75,0,0
46579,-100,4,2,2,75,0,0
46815,-76.9230769230769,4,2,2,5,0,0
46894,-166.666666666667,4,2,1,40,0,0
48158,-100,4,2,2,75,0,0
48394,-76.9230769230769,4,2,2,5,0,0
48473,-100,4,2,1,75,0,0
49420,-90.9090909090909,4,2,2,85,0,1
49578,315.789473684211,4,2,1,85,1,1
49735,-90.9090909090909,4,2,3,85,0,1
50682,-83.3333333333333,4,2,3,85,0,1
51155,-90.9090909090909,4,2,3,85,0,1
51945,-76.9230769230769,4,2,3,85,0,1
52419,-90.9090909090909,4,2,3,85,0,1
53209,-90.9090909090909,4,2,3,85,0,1
53367,-90.9090909090909,4,2,3,80,0,1
53525,-90.9090909090909,4,2,3,75,0,1
53683,-76.9230769230769,4,2,3,75,0,1
53841,-76.9230769230769,4,2,3,70,0,1
54157,-76.9230769230769,4,2,3,65,0,1
54314,-76.9230769230769,4,2,3,70,0,1
54472,-76.9230769230769,4,2,3,75,0,1
54629,-90.9090909090909,4,2,3,85,0,1
58578,-90.9090909090909,4,2,2,55,0,1
58735,-90.9090909090909,4,2,2,60,0,0
58893,-90.9090909090909,4,2,2,65,0,0
59051,-90.9090909090909,4,2,2,70,0,0
59209,-90.9090909090909,4,2,2,75,0,0
59367,-90.9090909090909,4,2,2,80,0,0
59525,-90.9090909090909,4,2,2,85,0,0
59683,-76.9230769230769,4,2,2,90,0,1
59841,-90.9090909090909,4,2,3,85,0,1
59920,-90.9090909090909,4,2,3,5,0,1
59999,-90.9090909090909,4,2,3,85,0,1
60787,-83.3333333333333,4,2,3,85,0,1
61261,-90.9090909090909,4,2,3,85,0,1
62050,-76.9230769230769,4,2,3,85,0,1
62524,-90.9090909090909,4,2,3,85,0,1
63314,-90.9090909090909,4,2,3,85,0,1
63472,-90.9090909090909,4,2,3,80,0,1
63630,-90.9090909090909,4,2,3,75,0,1
63946,-90.9090909090909,4,2,3,70,0,1
64262,-90.9090909090909,4,2,3,65,0,1
64419,-90.9090909090909,4,2,3,70,0,1
64577,-90.9090909090909,4,2,3,75,0,1
64735,-90.9090909090909,4,2,3,85,0,1
64893,-90.9090909090909,4,2,3,80,0,1
67262,-90.9090909090909,4,2,1,85,0,1
67420,-90.9090909090909,4,2,3,85,0,1
68367,-90.9090909090909,4,2,2,85,0,1
68683,-90.9090909090909,4,2,2,70,0,1
68841,-90.9090909090909,4,2,2,75,0,0
69788,-90.9090909090909,4,2,3,85,0,1
70104,-90.9090909090909,4,2,3,80,0,1
70262,-90.9090909090909,4,2,3,85,0,1
70420,-90.9090909090909,4,2,3,70,0,1
71051,-90.9090909090909,4,2,3,80,0,1
71525,-90.9090909090909,4,2,3,85,0,1
71683,-90.9090909090909,4,2,3,70,0,1
72314,-90.9090909090909,4,2,1,85,0,1
72472,-90.9090909090909,4,2,3,85,0,1
74998,-76.9230769230769,4,2,1,90,0,1
75157,-76.9230769230769,4,2,3,90,0,1
75472,-76.9230769230769,4,2,1,90,0,1
75630,-76.9230769230769,4,2,3,90,0,1
75946,-62.5,4,2,2,90,0,1
76183,-90.9090909090909,4,2,2,5,0,1
76262,-62.5,4,2,1,90,0,1
77367,315.789473684211,4,2,1,50,1,0
77368,-100,4,2,1,70,0,0
77525,-100,4,2,2,70,0,0
79578,-100,4,2,2,65,0,0
79736,-100,4,2,2,60,0,0
79894,-100,4,2,1,75,0,0
80052,-100,4,2,2,70,0,0
81000,-100,4,2,2,75,0,0
82103,-250,4,2,2,65,0,0
82342,-100,4,2,2,5,0,0
82421,-100,4,2,1,75,0,0
82578,-100,4,2,2,75,0,0
84631,-100,4,2,2,65,0,0
84789,-100,4,2,2,60,0,0
85103,-74.0740740740741,4,2,1,75,0,0
85262,-74.0740740740741,4,2,2,65,0,0
85578,-74.0740740740741,4,2,1,75,0,0
85736,-74.0740740740741,4,2,2,65,0,0
86051,-62.5,4,2,2,75,0,0
86368,-62.5,4,2,1,75,0,0
86526,-100,4,2,1,75,0,0
87473,-100,4,2,2,80,0,0
88577,-76.9230769230769,4,2,2,80,0,0
88815,-76.9230769230769,4,2,2,5,0,0
88894,-76.9230769230769,4,2,1,70,0,0
89368,-76.9230769230769,4,2,1,80,0,0
89526,-100,4,2,1,80,0,0
89684,-100,4,2,1,5,0,0

[Colours]
Combo1 : 248,129,150
Combo2 : 143,237,18
Combo3 : 240,149,251
Combo4 : 245,175,80

[HitObjects]
512,336,316,6,0,L|395:352,1,107.999996704102,2|2,0:0|0:0,0:0:0:0:
319,366,737,1,2,0:0:0:0:
317,348,842,1,2,0:0:0:0:
317,330,947,2,0,P|314:281|322:198,1,107.999996704102,2|2,0:0|0:0,0:0:0:0:
317,222,1579,5,2,0:0:0:0:
331,132,1737,1,2,0:0:0:0:
345,41,1894,2,0,P|290:52|237:37,2,107.999996704102,2|2|2,0:0|0:0|0:0,0:0:0:0:
345,41,2842,6,0,P|400:30|453:45,1,107.999996704102,2|2,0:0|0:0,0:0:0:0:
504,120,3263,1,2,0:0:0:0:
503,137,3368,1,2,0:0:0:0:
501,154,3473,2,0,L|514:276,1,107.999996704102,2|2,0:0|0:0,0:0:0:0:
512,261,4105,5,2,0:0:0:0:
510,356,4263,1,2,0:0:0:0:
419,347,4421,2,0,P|366:340|304:351,2,107.999996704102,2|2|2,0:0|0:0|0:0,0:0:0:0:
256,192,5368,12,0,8842,0:0:0:0:
45,384,9158,5,6,3:2:0:0:
199,304,9315,1,2,0:0:0:0:
108,151,9473,1,10,0:0:0:0:
82,270,9631,5,2,3:2:0:0:
235,178,9789,1,2,3:2:0:0:
313,334,9946,1,2,3:2:0:0:
199,304,10105,5,10,0:0:0:0:
354,224,10262,1,2,3:2:0:0:
263,72,10421,2,0,L|140:59,1,90,2|0,0:0|3:0,0:0:0:0:
0,47,10736,2,0,L|116:57,1,90,10|2,0:0|3:2,0:0:0:0:
352,26,11052,1,2,3:2:0:0:
352,39,11131,1,0,3:0:0:0:
352,52,11210,1,2,3:2:0:0:
354,224,11368,2,0,L|364:107,1,90,10|2,0:0|3:2,0:0:0:0:
465,352,11684,5,6,3:2:0:0:
512,214,11842,1,2,0:0:0:0:
458,79,12000,1,10,0:0:0:0:
468,339,12158,5,2,3:2:0:0:
506,202,12316,1,2,3:2:0:0:
455,66,12474,1,2,3:2:0:0:
472,327,12631,1,8,0:0:0:0:
452,53,12789,6,0,P|413:45|348:56,1,90,2|0,3:1|0:0,0:0:0:0:
308,201,13105,2,0,P|334:171|357:109,1,90,2|8,3:1|0:0,0:0:0:0:
252,2,13421,2,0,P|266:44|294:79,1,90,2|0,3:1|3:0,0:0:0:0:
506,202,13736,1,2,3:1:0:0:
295,80,13894,6,0,L|232:88,1,54,10|0,0:1|0:0,0:0:0:0:
169,97,14210,5,6,3:2:0:0:
268,230,14368,1,2,0:0:0:0:
183,375,14526,1,10,0:0:0:0:
131,307,14684,5,2,3:2:0:0:
218,162,14842,1,2,3:2:0:0:
115,27,15000,1,2,3:2:0:0:
73,100,15158,5,10,0:0:0:0:
176,235,15316,1,2,3:2:0:0:
89,380,15473,2,0,L|-10:365,1,90,2|0,0:0|3:0,0:0:0:0:
26,178,15789,2,0,L|130:192,1,90,10|2,0:0|3:2,0:0:0:0:
55,296,16105,1,2,3:2:0:0:
57,282,16184,1,0,3:0:0:0:
59,268,16263,1,2,3:2:0:0:
0,366,16421,1,10,0:0:0:0:
115,190,16579,2,0,P|118:147|104:80,1,90,2|0,3:2|3:0,0:0:0:0:
270,304,16894,6,0,B|264:343|226:366|226:366|186:344|168:294|176:249|208:212,1,243.000000926971,14|0,0:0|3:0,0:0:0:0:
430,301,17368,2,0,B|435:340|473:363|473:363|513:341|531:291|523:246|491:209,1,243.000000926971,14|0,0:0|3:0,0:0:0:0:
351,349,17842,6,0,B|371:279|306:221|306:221|289:150|363:87,1,288,14|8,0:0|0:0,0:0:0:0:
511,20,18315,1,8,3:2:0:0:
506,69,18395,1,8,0:0:0:0:
503,119,18474,1,8,0:0:0:0:
500,169,18553,1,8,0:0:0:0:
498,219,18631,1,8,3:2:0:0:
455,189,18710,1,8,0:0:0:0:
413,161,18789,1,8,0:0:0:0:
371,134,18868,1,8,0:0:0:0:
332,105,18947,1,8,3:2:0:0:
377,83,19026,1,8,0:0:0:0:
422,61,19105,1,8,0:0:0:0:
466,40,19184,1,8,0:0:0:0:
511,20,19263,1,2,0:0:0:0:
0,29,21789,5,6,3:2:0:0:
6,101,21947,2,0,L|-1:17,1,72,2|8,0:0|0:0,0:0:0:0:
27,374,22421,1,2,3:2:0:0:
21,302,22579,2,0,L|28:386,1,72,2|8,3:2|0:0,0:0:0:0:
14,202,22894,6,0,L|165:186,1,144,2|2,3:2|3:2,0:0:0:0:
320,89,23368,1,10,0:0:0:0:
346,202,23526,1,2,3:2:0:0:
202,77,23684,1,2,3:2:0:0:
246,263,23842,2,0,L|253:168,1,72,2|8,3:2|0:0,0:0:0:0:
497,371,24315,5,2,3:2:0:0:
498,300,24473,2,0,P|494:340|501:383,1,72,2|8,3:2|0:0,0:0:0:0:
502,19,24947,1,2,3:2:0:0:
501,90,25105,2,0,P|505:50|498:7,1,72,2|8,3:2|0:0,0:0:0:0:
489,198,25421,6,0,L|336:187,1,144,2|0,3:2|3:0,0:0:0:0:
423,112,25894,1,10,0:0:0:0:
414,272,26052,1,2,3:2:0:0:
273,182,26210,2,0,L|349:187,1,72,2|0,3:2|3:0,0:0:0:0:
489,198,26526,1,10,0:0:0:0:
449,367,26684,1,8,0:0:0:0:
439,371,26763,1,8,0:0:0:0:
426,372,26842,6,0,B|375:373|375:373|350:356|350:356|290:356,1,121.499996292114,6|0,3:2|0:0,0:0:0:0:
234,384,27158,2,0,P|233:341|224:290,1,80.9999975280763,10|0,0:0|0:0,0:0:0:0:
200,121,27473,1,2,3:2:0:0:
214,212,27631,1,2,3:2:0:0:
227,303,27789,1,10,0:0:0:0:
200,121,27947,6,0,B|189:75|216:32|216:32|204:-4|136:0,1,161.999995056153,2|2,3:2|3:2,0:0:0:0:
0,29,28421,1,10,0:0:0:0:
159,0,28579,1,2,3:2:0:0:
110,234,28736,1,2,3:2:0:0:
95,124,28894,1,2,3:2:0:0:
80,15,29052,1,10,0:0:0:0:
190,384,29368,6,0,P|215:340|298:255,1,161.999995056153,2|8,3:2|0:0,0:0:0:0:
102,384,29842,2,0,P|77:340|-6:255,1,161.999995056153,2|0,0:0|3:0,0:0:0:0:
163,151,30315,2,0,L|147:312,1,161.999995056153,10|0,0:0|0:0,0:0:0:0:
77,148,30789,5,2,3:2:0:0:
247,160,30947,1,8,0:0:0:0:
63,273,31105,1,2,0:0:0:0:
233,285,31263,1,2,3:2:0:0:
147,312,31421,1,2,0:0:0:0:
163,151,31579,2,0,L|155:231,1,80.9999975280763,2|0,3:2|0:0,0:0:0:0:
109,46,31894,5,6,3:2:0:0:
0,87,32052,1,2,0:0:0:0:
218,5,32210,2,0,P|312:2|426:17,1,180,10|0,0:1|3:0,0:0:0:0:
486,23,32684,1,0,3:0:0:0:
205,93,32842,6,0,P|299:90|413:105,1,180,10|2,0:1|0:0,0:0:0:0:
484,200,33315,2,0,L|469:88,1,90,2|8,3:1|0:0,0:0:0:0:
401,288,33631,2,0,L|386:176,1,90,2|0,3:1|3:1,0:0:0:0:
318,376,33947,2,0,L|303:264,1,90,2|8,3:1|0:0,0:0:0:0:
507,384,34263,2,0,L|492:272,1,90,2|8,3:1|3:2,0:0:0:0:
413,378,34579,5,0,3:0:0:0:
284,181,34736,2,0,L|83:154,1,180,10|8,0:1|0:0,0:0:0:0:
0,149,35210,1,0,3:0:0:0:
33,332,35368,2,0,L|49:208,1,90,10|0,0:1|3:0,0:0:0:0:
60,63,35684,5,10,3:2:0:0:
44,242,35842,1,10,0:0:0:0:
44,242,35921,1,8,0:0:0:0:
44,242,36000,1,10,3:2:0:0:
60,63,36158,2,0,P|110:53|166:73,1,90,2|0,0:1|3:0,0:0:0:0:
221,215,36473,2,0,P|187:176|176:118,1,90,2|0,0:1|3:0,0:0:0:0:
229,76,36789,1,2,0:1:0:0:
141,261,36947,6,0,L|-6:244,1,125.999996154785,6|0,3:2|0:0,0:0:0:0:
6,348,37421,1,2,3:2:0:0:
6,348,37579,2,0,L|153:365,1,125.999996154785,2|0,0:0|0:0,0:0:0:0:
284,310,38052,1,2,3:2:0:0:
308,384,38210,5,2,3:2:0:0:
221,354,38368,1,2,0:0:0:0:
221,264,38526,1,2,0:0:0:0:
308,236,38684,1,2,3:2:0:0:
361,309,38842,2,0,P|413:295|487:321,1,125.999996154785,2|0,0:0|0:0,0:0:0:0:
512,384,39315,1,2,3:2:0:0:
512,249,39473,6,0,P|513:199|500:114,1,125.999996154785,6|0,3:2|0:0,0:0:0:0:
480,0,39947,1,2,3:2:0:0:
480,0,40105,2,0,P|496:60|502:123,1,125.999996154785,2|0,0:0|0:0,0:0:0:0:
358,201,40579,1,2,3:2:0:0:
438,228,40736,6,0,P|439:197|425:148,1,62.9999980773926,2|2,3:2|0:0,0:0:0:0:
281,169,41052,2,0,P|276:199|285:249,1,62.9999980773926,2|2,0:0|3:2,0:0:0:0:
358,201,41368,2,0,L|367:52,1,125.999996154785,2|0,0:0|0:0,0:0:0:0:
442,18,41842,1,2,3:2:0:0:
288,17,42000,6,0,L|147:5,1,125.999996154785,6|0,3:2|0:0,0:0:0:0:
36,17,42473,1,2,3:2:0:0:
36,17,42631,2,0,L|177:5,1,125.999996154785,2|0,0:0|0:0,0:0:0:0:
288,17,43105,1,2,3:2:0:0:
174,148,43263,5,10,3:2:0:0:
174,135,43342,1,8,0:0:0:0:
173,122,43421,2,0,L|168:52,1,40.4999987640381,10|8,0:0|0:0,0:0:0:0:
9,91,43579,1,10,3:2:0:0:
9,104,43658,1,8,0:0:0:0:
10,117,43737,2,0,L|15:187,1,40.4999987640381,10|8,0:0|0:0,0:0:0:0:
106,298,43894,1,10,3:2:0:0:
102,257,43972,1,8,0:0:0:0:
99,217,44051,1,8,0:0:0:0:
96,176,44130,1,8,0:0:0:0:
93,136,44210,6,0,L|91:91,1,40.4999987640381,10|0,3:2|0:0,0:0:0:0:
73,11,44526,6,0,P|118:4|177:18,1,90,2|0,3:1|0:0,0:0:0:0:
341,13,44842,2,0,P|295:6|237:20,1,90,2|0,3:1|0:0,0:0:0:0:
96,176,45158,1,10,0:1:0:0:
252,13,45315,1,8,0:1:0:0:
311,227,45473,2,0,L|306:328,1,90,10|0,0:1|0:0,0:0:0:0:
221,139,45789,5,10,0:1:0:0:
306,316,45947,1,8,0:1:0:0:
482,230,46105,1,10,0:1:0:0:
396,54,46263,2,0,L|504:47,1,90,8|0,0:1|0:0,0:0:0:0:
311,227,46579,2,0,P|247:222|140:226,1,135,10|0,0:1|0:0,0:0:0:0:
176,222,46894,6,0,P|174:265|177:325,1,80.9999975280763,2|0,0:0|0:0,0:0:0:0:
175,302,47210,2,0,P|194:297|218:302,2,26.9999991760254,2|2|2,0:0|0:0|0:0,0:0:0:0:
99,256,47526,2,0,P|88:247|81:235,2,26.9999991760254,2|2|2,0:0|0:0|0:0,0:0:0:0:
99,345,47842,2,0,P|96:359|90:371,2,26.9999991760254,2|2|2,0:0|0:0|0:0,0:0:0:0:
9,207,48158,6,0,B|5:164|5:164|14:134|14:134|8:64,1,135,6|0,3:2|0:0,0:0:0:0:
9,74,48473,1,2,3:2:0:0:
172,208,48631,1,2,3:2:0:0:
365,137,48789,1,2,3:2:0:0:
207,0,48947,1,2,3:2:0:0:
512,370,49420,6,0,B|468:332|419:347|419:347|381:395|311:356,1,198.000006042481,6|2,3:2|3:2,0:0:0:0:
193,269,49893,2,0,P|184:319|203:385,1,99.0000030212403,10|0,0:0|0:0,0:0:0:0:
263,200,50209,1,2,3:2:0:0:
331,365,50367,2,0,P|340:315|321:249,1,99.0000030212403,2|8,3:2|0:0,0:0:0:0:
204,122,50683,6,0,L|428:106,1,215.999993408203,2|2,3:2|3:2,0:0:0:0:
467,30,51156,2,0,P|418:14|363:35,1,99.0000030212403,10|0,0:0|0:0,0:0:0:0:
314,114,51471,1,2,3:2:0:0:
468,185,51630,2,0,P|419:201|364:180,1,99.0000030212403,2|8,3:2|0:0,0:0:0:0:
198,11,51946,6,0,P|187:112|188:258,1,233.999989288331,2|2,3:2|3:2,0:0:0:0:
103,384,52420,2,0,P|101:334|96:285,1,99.0000030212403,10|0,0:0|0:0,0:0:0:0:
188,128,52734,1,2,3:2:0:0:
276,376,52893,2,0,P|277:326|282:277,1,99.0000030212403,2|8,3:2|0:0,0:0:0:0:
298,136,53208,1,2,3:2:0:0:
191,336,53366,5,8,0:0:0:0:
96,121,53524,1,8,0:0:0:0:
96,121,53603,1,8,0:0:0:0:
96,121,53682,1,0,3:0:0:0:
200,361,53840,1,8,0:0:0:0:
200,361,53919,1,8,0:0:0:0:
200,361,53998,1,0,3:0:0:0:
195,118,54156,1,10,0:0:0:0:
186,72,54235,1,8,0:0:0:0:
159,34,54314,1,10,3:2:0:0:
118,13,54393,1,8,0:0:0:0:
72,11,54472,1,8,0:0:0:0:
29,30,54550,1,8,0:0:0:0:
0,65,54630,6,0,L|17:296,1,198.000006042481,6|10,3:2|0:0,0:0:0:0:
93,106,55104,1,2,3:2:0:0:
114,334,55262,2,0,L|105:218,1,99.0000030212403,2|0,0:0|3:0,0:0:0:0:
17,367,55577,1,10,0:0:0:0:
214,363,55735,6,0,B|266:368|298:314|298:314|344:298|416:330,1,198.000006042481,2|2,3:2|3:2,0:0:0:0:
221,286,56209,1,10,0:0:0:0:
338,384,56367,1,2,0:0:0:0:
453,275,56525,2,0,P|449:234|452:171,1,99.0000030212403,2|0,3:2|3:0,0:0:0:0:
451,0,56841,1,10,0:0:0:0:
512,90,56998,1,8,0:0:0:0:
512,90,57077,1,8,0:0:0:0:
512,90,57156,6,0,L|309:66,1,198.000006042481,6|10,3:2|0:0,0:0:0:0:
137,48,57630,1,2,3:2:0:0:
231,13,57788,2,0,P|232:72|225:146,1,99.0000030212403,2|0,0:0|3:0,0:0:0:0:
155,175,58104,1,10,0:0:0:0:
226,339,58262,2,0,P|225:280|232:206,1,99.0000030212403,2|0,3:2|0:0,0:0:0:0:
315,66,58577,5,10,0:0:0:0:
315,66,58656,1,8,0:0:0:0:
315,66,58735,1,10,3:2:0:0:
321,52,58813,1,8,0:0:0:0:
339,35,58892,1,10,0:0:0:0:
361,24,58971,1,8,0:0:0:0:
389,16,59050,1,10,3:2:0:0:
423,21,59129,1,8,0:0:0:0:
458,39,59208,1,8,0:0:0:0:
483,75,59287,1,8,0:0:0:0:
488,124,59366,1,10,3:2:0:0:
467,174,59445,1,8,0:0:0:0:
419,200,59524,1,10,0:0:0:0:
360,194,59603,1,10,0:0:0:0:
312,144,59683,6,0,L|132:123,1,175.499991966248,6|0,3:2|0:0,0:0:0:0:
137,123,59998,2,0,P|139:73|128:6,1,99.0000030212403,10|0,0:0|0:0,0:0:0:0:
38,4,60313,1,2,3:2:0:0:
45,216,60472,2,0,P|47:166|36:99,1,99.0000030212403,2|8,3:2|0:0,0:0:0:0:
14,348,60788,6,0,P|110:334|234:349,1,215.999993408203,2|2,3:2|3:2,0:0:0:0:
464,381,61262,2,0,P|463:333|484:251,1,99.0000030212403,10|0,0:0|0:0,0:0:0:0:
401,176,61577,1,2,3:2:0:0:
342,384,61735,2,0,P|343:336|322:254,1,99.0000030212403,2|8,3:2|0:0,0:0:0:0:
127,131,62051,6,0,B|188:138|214:71|214:71|265:33|345:57,1,233.999989288331,2|2,3:2|3:2,0:0:0:0:
497,165,62525,2,0,L|509:28,1,99.0000030212403,10|0,0:0|0:0,0:0:0:0:
417,6,62840,1,2,3:2:0:0:
318,151,62998,2,0,L|330:14,1,99.0000030212403,2|10,3:2|0:0,0:0:0:0:
417,6,63313,1,2,3:2:0:0:
403,281,63471,5,8,0:0:0:0:
505,66,63629,1,8,0:0:0:0:
505,66,63708,1,8,0:0:0:0:
505,66,63787,1,0,3:0:0:0:
416,304,63945,1,8,0:0:0:0:
416,304,64024,1,8,0:0:0:0:
416,304,64103,1,0,3:0:0:0:
327,52,64261,1,10,0:0:0:0:
301,24,64340,1,8,0:0:0:0:
266,6,64419,1,10,3:2:0:0:
227,0,64498,1,8,0:0:0:0:
188,3,64577,1,8,0:0:0:0:
152,19,64655,1,8,0:0:0:0:
121,40,64735,6,0,B|83:48|46:24|46:24|3:61|26:146,1,198.000006042481,6|10,3:2|0:0,0:0:0:0:
168,216,65208,1,0,3:0:0:0:
132,384,65367,2,0,P|125:323|137:267,1,99.0000030212403,2|0,0:0|3:0,0:0:0:0:
313,124,65683,2,0,P|283:163|244:193,1,99.0000030212403,10|0,0:0|3:0,0:0:0:0:
0,221,65998,6,0,P|45:201|94:195,1,99.0000030212403,2|0,0:0|3:0,0:0:0:0:
292,330,66314,2,0,P|246:311|206:281,1,99.0000030212403,10|0,0:0|3:0,0:0:0:0:
119,51,66630,2,0,P|149:89|168:135,1,99.0000030212403,2|0,0:0|3:0,0:0:0:0:
38,332,66945,1,10,0:0:0:0:
243,193,67103,1,8,0:0:0:0:
243,193,67182,1,8,0:0:0:0:
243,193,67262,6,0,L|365:204,1,99.0000030212403,6|2,3:2|0:0,0:0:0:0:
512,179,67577,2,0,L|390:168,1,99.0000030212403,10|0,0:0|3:0,0:0:0:0:
458,252,67893,1,2,0:0:0:0:
475,98,68051,2,0,L|483:0,1,99.0000030212403,0|8,3:0|0:0,0:0:0:0:
508,360,68367,6,0,B|464:322|415:337|415:337|377:385|307:346,1,198.000006042481,6|8,3:2|0:0,0:0:0:0:
192,122,68840,1,8,3:2:0:0:
188,171,68920,1,8,0:0:0:0:
184,220,68998,1,8,0:0:0:0:
180,269,69077,1,8,0:0:0:0:
176,319,69156,1,8,3:2:0:0:
150,360,69234,1,8,0:0:0:0:
106,382,69314,1,8,0:0:0:0:
57,377,69393,1,8,0:0:0:0:
18,349,69471,1,8,3:2:0:0:
0,303,69551,1,8,0:0:0:0:
7,255,69630,1,8,0:0:0:0:
39,218,69709,1,8,0:0:0:0:
85,202,69788,6,0,L|95:314,1,99.0000030212403,6|0,3:2|0:0,0:0:0:0:
106,382,70104,1,10,0:0:0:0:
246,153,70262,1,2,3:2:0:0:
238,228,70420,5,0,0:0:0:0:
321,160,70577,1,2,3:2:0:0:
254,79,70735,1,10,0:0:0:0:
170,145,70893,1,2,3:2:0:0:
260,349,71051,2,0,P|309:342|377:363,1,99.0000030212403,2|2,3:2|0:0,0:0:0:0:
444,380,71367,1,8,0:0:0:0:
457,132,71525,1,2,3:2:0:0:
407,186,71683,5,2,0:0:0:0:
511,177,71841,1,2,3:2:0:0:
502,73,71998,1,10,0:0:0:0:
397,83,72156,1,2,3:2:0:0:
444,380,72314,5,6,3:2:0:0:
303,218,72472,1,2,3:2:0:0:
373,17,72630,1,10,0:0:0:0:
512,177,72788,2,0,P|504:230|511:293,1,99.0000030212403,6|0,3:2|0:0,0:0:0:0:
308,316,73104,2,0,P|310:262|296:200,1,99.0000030212403,2|8,3:2|0:0,0:0:0:0:
174,7,73420,1,0,3:0:0:0:
174,7,73498,1,0,3:0:0:0:
174,7,73577,5,10,0:0:0:0:
301,217,73735,1,0,3:2:0:0:
72,120,73893,1,10,0:0:0:0:
313,65,74051,1,2,3:2:0:0:
149,249,74209,2,0,L|49:240,1,99.0000030212403,10|8,0:2|0:0,0:0:0:0:
2,237,74445,1,8,0:0:0:0:
2,237,74525,1,8,0:0:0:0:
202,130,74683,1,8,0:0:0:0:
202,130,74762,1,8,0:0:0:0:
202,130,74841,5,0,3:0:0:0:
71,349,74998,2,0,B|95:283|53:238|53:238|65:175|117:138,1,233.999989288331,14|0,0:0|3:0,0:0:0:0:
330,351,75472,2,0,B|305:285|347:240|347:240|335:177|283:140,1,233.999989288331,14|0,0:0|3:0,0:0:0:0:
200,350,75946,6,0,B|198:295|198:295|213:242|213:242|195:102,1,216,6|0,3:2|0:0,0:0:0:0:
191,26,76262,1,2,3:2:0:0:
357,184,76420,1,2,3:2:0:0:
200,350,76577,1,2,3:2:0:0:
34,191,76735,1,2,3:2:0:0:
476,363,77367,5,6,3:2:0:0:
512,205,77524,1,2,0:0:0:0:
457,52,77682,1,10,0:0:0:0:
512,224,77840,5,2,3:2:0:0:
393,113,77998,1,2,3:2:0:0:
233,85,78156,1,2,3:2:0:0:
409,122,78314,5,10,0:0:0:0:
253,169,78472,1,2,3:2:0:0:
149,294,78631,2,0,L|134:184,1,90,2|0,0:0|3:0,0:0:0:0:
107,25,78945,2,0,L|122:135,1,90,10|2,0:0|3:2,0:0:0:0:
0,27,79261,1,2,3:2:0:0:
3,40,79340,1,0,3:0:0:0:
6,53,79419,1,2,3:2:0:0:
33,225,79577,2,0,L|18:115,1,90,10|2,0:0|3:2,0:0:0:0:
9,370,79893,5,6,3:2:0:0:
124,237,80051,1,2,0:0:0:0:
278,309,80209,1,10,0:0:0:0:
2,358,80367,5,2,3:2:0:0:
122,223,80524,1,2,3:2:0:0:
279,295,80682,1,2,3:2:0:0:
149,341,80840,1,8,0:0:0:0:
406,161,80998,6,0,P|411:218|404:275,1,90,2|0,3:1|0:0,0:0:0:0:
436,69,81314,2,0,P|482:36|535:13,1,90,2|8,3:1|0:0,0:0:0:0:
341,90,81630,2,0,P|289:65|243:31,1,90,2|0,3:1|3:0,0:0:0:0:
196,0,81945,1,2,3:1:0:0:
406,161,82103,6,0,P|439:157|470:167,1,54,10|0,0:1|0:0,0:0:0:0:
508,222,82419,5,6,3:2:0:0:
429,377,82577,1,2,0:0:0:0:
338,229,82735,1,10,0:0:0:0:
422,272,82893,5,2,3:2:0:0:
339,120,83051,1,2,3:2:0:0:
248,268,83209,1,2,3:2:0:0:
338,229,83367,5,10,0:0:0:0:
255,381,83524,1,2,3:2:0:0:
171,143,83682,2,0,L|161:257,1,90,2|0,0:0|3:0,0:0:0:0:
0,229,83998,2,0,L|10:115,1,90,10|2,0:0|3:2,0:0:0:0:
66,368,84314,1,2,3:2:0:0:
69,354,84393,1,0,3:0:0:0:
71,340,84472,1,2,3:2:0:0:
94,96,84630,1,10,0:0:0:0:
73,326,84788,2,0,L|83:212,1,90,2|0,3:2|3:0,0:0:0:0:
193,15,85103,6,0,B|153:69|197:126|197:126|219:207|151:238,1,243.000000926971,14|0,0:0|3:0,0:0:0:0:
319,15,85577,2,0,B|359:69|315:126|315:126|293:207|361:238,1,243.000000926971,14|0,0:0|3:0,0:0:0:0:
512,384,86051,6,0,B|484:318|532:253|532:253|530:167|433:162,1,288,14|8,0:0|0:0,0:0:0:0:
256,384,86524,1,8,3:2:0:0:
219,358,86604,1,8,0:0:0:0:
196,319,86682,1,8,0:0:0:0:
192,275,86761,1,8,0:0:0:0:
207,233,86840,1,8,3:2:0:0:
238,201,86919,1,8,0:0:0:0:
274,175,86998,1,8,0:0:0:0:
297,136,87077,1,8,0:0:0:0:
301,92,87156,1,8,3:2:0:0:
286,50,87235,1,8,0:0:0:0:
255,18,87314,1,8,0:0:0:0:
279,293,87472,5,10,3:2:0:0:
130,13,87630,1,10,3:2:0:0:
130,13,88103,5,10,3:2:0:0:
279,293,88261,1,10,3:2:0:0:
279,293,88577,6,0,B|235:302|203:259|203:259|164:237|112:263,1,175.499991966248,6|0,3:2|0:0,0:0:0:0:
47,290,88893,1,0,3:0:0:0:
207,384,89051,1,0,3:0:0:0:
353,261,89210,1,0,3:0:0:0:
206,384,89368,5,8,3:2:0:0:
214,25,89524,1,8,3:2:0:0:
